#VERSION:0.83;
#TITLE:Ghostly Blossom;
#SUBTITLE:-feat. Keio line-;
#ARTIST:せみすぺ;
#TITLETRANSLIT:;
#SUBTITLETRANSLIT:;
#ARTISTTRANSLIT:Semisupe;
#GENRE:;
#ORIGIN:;
#CREDIT:vincentw;
#BANNER:[VIP Room Round 3] - Ghostly Blossom -feat. Keio line-.png;
#BACKGROUND:[VIP Room Round 3] - Ghostly Blossom -feat. Keio line--bg.png;
#PREVIEWVID:;
#JACKET:;
#CDIMAGE:;
#DISCIMAGE:;
#LYRICSPATH:;
#CDTITLE:cdtitle.png;
#MUSIC:[VIP Room Round 3] - Ghostly Blossom -feat. Keio line-.ogg;
#OFFSET:0.000000;
#SAMPLESTART:24.723087;
#SAMPLELENGTH:11.636368;
#SELECTABLE:YES;
#DISPLAYBPM:83.000000:165.000000;
#BPMS:0.000=165.000,
132.000=123.750,
154.500=165.000,
155.500=82.500,
172.000=123.750,
196.000=165.000,
260.000=145.250,
268.000=77.500,
268.500=98.500,
269.000=110.000,
269.500=108.500,
270.000=110.500,
270.500=113.500,
271.000=112.000,
271.500=116.500,
272.000=119.000,
272.500=93.500,
273.000=91.000,
273.875=89.500,
274.000=108.500,
274.500=96.000,
275.000=91.000,
275.500=86.500,
276.000=99.000,
276.500=117.500,
277.000=115.000,
277.500=109.000,
278.000=115.500,
278.500=113.500,
279.000=107.000,
279.500=91.500,
280.000=94.000,
280.500=97.000,
281.000=98.000,
281.500=63.500;
#STOPS:154.500=0.081,
155.000=0.081,
155.500=1.292;
#DELAYS:;
#WARPS:;
#TIMESIGNATURES:0.000=4=4,
132.000=4=3,
156.000=4=2,
172.000=4=3,
196.000=4=4;
#TICKCOUNTS:0.000=4;
#COMBOS:0.000=1;
#SPEEDS:0.000=1.000=0.000=0;
#SCROLLS:0.000=1.000,
260.500=0.977,
261.000=0.954,
261.500=0.932,
262.000=0.911,
262.500=0.890,
263.000=0.869,
263.500=0.849,
264.000=0.830,
264.500=0.811,
265.000=0.792,
265.500=0.774,
266.000=0.756,
266.500=0.738,
267.000=0.721,
267.500=0.705,
268.000=1.290,
268.500=1.015,
269.000=0.909,
269.500=0.922,
270.000=0.905,
270.500=0.881,
271.000=0.893,
271.500=0.858,
272.000=0.840,
272.500=1.070,
273.000=1.099,
273.875=1.117,
274.000=0.922,
274.500=1.042,
275.000=1.099,
275.500=1.156,
276.000=1.010,
276.500=0.851,
277.000=0.870,
277.500=0.917,
278.000=0.866,
278.500=0.881,
279.000=0.935,
279.500=1.093,
280.000=1.064,
280.500=1.031,
281.000=1.020,
281.500=1.575;
#FAKES:;
#LABELS:0.000=Song Start;
#BGCHANGES:0.000=[VIP Room Round 3] - Ghostly Blossom -feat. Keio line--bg.png=1.000=0=0=1===FadeCenterHorizontal=#000000=#000000,
2.750=[VIP Room Round 3] - Ghostly Blossom -feat. Keio line-.avi=1.000=1=0=1===CrossFade==,
99999=-nosongbg-=1.000=0=0=0 // don't automatically add -songbackground-
;
#KEYSOUNDS:;
#ATTACKS:
;

//---------------dance-single - ----------------
#NOTEDATA:;
#CHARTNAME:C 01 X 02;
#STEPSTYPE:dance-single;
#DESCRIPTION:;
#CHARTSTYLE:;
#DIFFICULTY:Beginner;
#METER:1;
#RADARVALUES:0.094933,0.199968,0.000000,0.202601,0.000000,82.000000,82.000000,0.000000,25.000000,0.000000,0.000000,0.000000,0.000000,0.000000,0.094933,0.199968,0.000000,0.202601,0.000000,82.000000,82.000000,0.000000,25.000000,0.000000,0.000000,0.000000,0.000000,0.000000;
#CREDIT:vincentw;
#DISPLAYBPM:83.000000:165.000000;
#NOTES:
0000
0000
0000
0000
,
0000
0000
0000
0000
,
0000
0000
0000
0000
,
0000
0000
0000
0000
,
0000
0000
0000
0000
,
0000
0000
0000
0000
,
0000
0000
0000
0000
,
0000
0000
0000
0000
,
0000
0000
0000
0000
,
2000
0000
3000
0000
,
2000
0000
3000
0000
,
0002
0000
0003
0000
,
0002
0000
0003
0000
,
0200
0000
0300
0000
,
0020
0000
0030
0000
,
0100
0000
0100
0000
,
0010
0000
0010
0000
,
2000
0000
3000
0000
,
2000
0000
3000
0000
,
0001
0000
1000
0000
,
0002
0000
0003
0000
,
0020
0000
0030
0000
,
0020
0000
0030
0000
,
0100
0000
0010
0000
,
0200
0000
0300
0000
,
2000
0000
3000
0000
,
2000
0000
3000
0000
,
0010
0000
1000
0000
,
0020
0000
0030
0000
,
0100
0000
0100
0000
,
0001
0000
0001
0000
,
0100
0000
0001
0000
,
0200
0000
0300
0000
,
0001
0000
0000
0001
,
0000
0000
0010
0000
,
0000
0010
0000
0000
,
0100
0000
0000
0100
,
0000
0000
1000
0000
,
0000
2000
0000
0000
,
0000
0000
3000
0000
,
0020
0000
0030
0000
,
0200
0000
0300
0000
,
0002
0000
0003
0000
,
1000
0000
0000
1000
,
0000
0000
0010
0000
,
0000
0010
0000
0000
,
0100
0000
0000
0100
,
0000
0000
0001
0000
,
0000
0001
0000
0000
,
1000
0000
0001
0000
,
1000
0000
0001
0000
,
1000
0000
1000
0000
,
2000
0000
3000
0000
,
0010
0000
0100
0000
,
0010
0000
0100
0000
,
0010
0000
0010
0000
,
0020
0000
0030
0000
,
1000
0000
0100
0000
,
1000
0000
0100
0000
,
0010
0000
0001
0000
,
0020
0000
0030
0000
,
0001
0000
0010
0000
,
0001
0000
0010
0000
,
0100
0010
0100
0010
,
0200
0000
0000
0000
0000
0000
0000
0300
,
0000
0000
0000
0000
,
0000
0000
0000
0000
,
2000
0000
0000
0000
,
0000
0000
0000
0000
,
0000
0000
0000
0000
,
0000
0000
3000
0000
;

//---------------dance-single - ----------------
#NOTEDATA:;
#CHARTNAME:C 03 X 04;
#STEPSTYPE:dance-single;
#DESCRIPTION:;
#CHARTSTYLE:;
#DIFFICULTY:Easy;
#METER:3;
#RADARVALUES:0.173658,0.257101,0.024312,0.283642,0.000000,150.000000,147.000000,3.000000,35.000000,0.000000,0.000000,0.000000,0.000000,0.000000,0.173658,0.257101,0.024312,0.283642,0.000000,150.000000,147.000000,3.000000,35.000000,0.000000,0.000000,0.000000,0.000000,0.000000;
#CREDIT:vincentw;
#DISPLAYBPM:83.000000:165.000000;
#NOTES:
// measure 0
0000
0000
0000
0000
,  // measure 1
0000
0000
0000
0000
,  // measure 2
0000
0000
0000
0000
,  // measure 3
0000
0000
0000
0000
,  // measure 4
0000
0000
0000
0000
,  // measure 5
0000
0000
0000
0000
,  // measure 6
0000
0000
0000
0000
,  // measure 7
0000
0000
0000
0000
,  // measure 8
0000
0000
0000
0000
,  // measure 9
0001
0000
0001
0000
,  // measure 10
1000
0000
1000
0000
,  // measure 11
0001
0000
1000
0000
,  // measure 12
0001
0000
1000
0000
,  // measure 13
0010
0010
0200
0300
,  // measure 14
0100
0100
0020
0030
,  // measure 15
1000
0100
1000
0100
,  // measure 16
0010
0001
0010
0000
,  // measure 17
0110
0000
0001
1000
,  // measure 18
0001
0000
1000
0001
,  // measure 19
2000
0000
3020
0000
,  // measure 20
0230
0000
0300
0000
,  // measure 21
0001
0000
1000
0100
,  // measure 22
1000
0000
0001
0010
,  // measure 23
0002
0000
2003
0000
,  // measure 24
3200
0000
0300
0000
,  // measure 25
1000
0000
0001
0100
,  // measure 26
0001
0000
1000
0010
,  // measure 27
2000
0000
3002
0000
,  // measure 28
0023
0000
0030
0000
,  // measure 29
0100
0100
0100
0100
,  // measure 30
1000
1000
1000
1000
,  // measure 31
0002
0000
0023
0000
,  // measure 32
0230
0000
0000
0300
,  // measure 33
1000
0000
0000
1000
0000
0000
2000
0000
,  // measure 34
0000
3000
0000
0000
0010
0000
0000
0010
,  // measure 35
0000
0000
0020
0000
0000
0030
0000
0000
,  // measure 36
0100
0000
0000
0001
0000
0000
0100
0000
,  // measure 37
0000
0001
0000
0000
1000
0000
0000
0100
,  // measure 38
0000
0000
1000
0000
0000
0200
0000
0000
,  // measure 39
0320
0000
0032
0000
,  // measure 40
1003
0010
0100
0001
,  // measure 41
2000
0000
3002
0000
,  // measure 42
1003
0100
0010
0001
,  // measure 43
1000
0000
0000
1001
0000
0000
0001
0000
,  // measure 44
0000
0001
0000
0000
0100
0000
0000
0110
,  // measure 45
0000
0000
0010
0000
0000
0010
0000
0000
,  // measure 46
1000
0000
0000
0010
0000
0000
0100
0000
,  // measure 47
0000
0010
0000
0000
1000
0000
0000
0100
,  // measure 48
0000
0000
0001
0000
0000
0100
0000
0000
,  // measure 49
1000
0000
0000
1000
0000
0000
1000
0000
,  // measure 50
0001
0000
0000
0001
0000
0000
0001
0000
,  // measure 51
1000
0001
0010
0001
,  // measure 52
2000
0000
0000
0000
,  // measure 53
3010
0000
0000
0010
0000
0000
0010
0000
,  // measure 54
0100
0000
0000
0100
0000
0000
0100
0000
,  // measure 55
0001
0100
0010
0100
,  // measure 56
0002
0000
0000
0000
,  // measure 57
1003
0000
0000
0100
0000
0000
1000
0000
,  // measure 58
0001
0000
0000
0100
0000
0000
0001
0000
,  // measure 59
2000
3200
0302
0203
,  // measure 60
2300
0000
0000
0000
,  // measure 61
3001
0000
0000
0010
0000
0000
0001
0000
,  // measure 62
1000
0000
0000
0010
0000
0000
1000
0000
,  // measure 63
0002
0023
2030
3020
,  // measure 64
0032
0000
0000
0000
,  // measure 65
0003
0000
0000
0000
,  // measure 66
0000
0000
0000
0000
,  // measure 67
2000
0000
0000
0000
,  // measure 68
0000
0000
0000
0000
,  // measure 69
0002
0000
0000
0000
,  // measure 70
0000
0000
3003
0000
;

//---------------dance-single - ----------------
#NOTEDATA:;
#CHARTNAME:C 06 X 09;
#STEPSTYPE:dance-single;
#DESCRIPTION:;
#CHARTSTYLE:;
#DIFFICULTY:Medium;
#METER:6;
#RADARVALUES:0.288273,0.485636,0.072937,0.267434,0.113457,249.000000,240.000000,9.000000,33.000000,0.000000,0.000000,0.000000,0.000000,0.000000,0.288273,0.485636,0.072937,0.267434,0.113457,249.000000,240.000000,9.000000,33.000000,0.000000,0.000000,0.000000,0.000000,0.000000;
#CREDIT:vincentw;
#DISPLAYBPM:83.000000:165.000000;
#NOTES:
// measure 0
0000
0000
0000
0000
,  // measure 1
0000
0000
0000
0000
,  // measure 2
0000
0000
0000
0000
,  // measure 3
0000
0000
0000
0000
,  // measure 4
0000
0000
0000
0000
,  // measure 5
0000
0000
0000
0000
,  // measure 6
0000
0000
0000
0000
,  // measure 7
0000
0000
0000
0000
,  // measure 8
0000
0000
0000
0000
,  // measure 9
1000
1000
0001
0001
,  // measure 10
1000
1000
0001
0001
,  // measure 11
0100
0100
0010
0010
,  // measure 12
0100
0100
0010
0010
,  // measure 13
1000
0010
0100
0001
,  // measure 14
1000
0010
0100
0001
,  // measure 15
1000
0100
1000
0000
0001
0010
0001
0000
,  // measure 16
2002
0000
0000
3003
,  // measure 17
1000
0100
0010
0100
,  // measure 18
1000
0001
0100
0001
,  // measure 19
1000
0010
0001
0010
,  // measure 20
2000
0000
0000
0000
,  // measure 21
3001
0010
0100
0010
,  // measure 22
0001
1000
0100
1000
,  // measure 23
0001
0010
1000
0010
,  // measure 24
0002
0000
0000
0000
,  // measure 25
1003
0100
0010
0100
,  // measure 26
0001
0100
0010
0100
,  // measure 27
1000
0010
0001
0100
,  // measure 28
2000
0000
0000
0000
,  // measure 29
3001
0010
0100
0010
,  // measure 30
1000
0010
0100
0010
,  // measure 31
0001
0100
1000
0010
,  // measure 32
0002
0000
0000
0003
,  // measure 33
1000
0000
0000
0000
0000
0000
0110
0000
0000
0000
0000
0000
1000
0000
0000
0001
,  // measure 34
0000
0000
1000
0000
0000
0001
0000
0000
0100
0000
0000
0000
0000
0000
1010
0000
,  // measure 35
0000
0000
0000
0000
0001
0000
0000
0010
0000
0000
0001
0000
0000
0010
0000
0000
,  // measure 36
0001
0000
0000
0000
0000
0000
1100
0000
0000
0000
0000
0000
0010
0000
0000
0100
,  // measure 37
0000
0000
1000
0000
0000
0100
0000
0000
0010
0000
0000
0000
0000
0000
0101
0000
,  // measure 38
0000
0000
0000
0000
0010
0000
0000
1000
0000
0000
0001
0000
1000
0000
0001
0000
,  // measure 39
2000
0000
0000
0010
3002
0000
0000
0100
,  // measure 40
2003
0100
0001
0020
3000
0000
0000
0100
,  // measure 41
2030
0000
0000
0010
3200
0000
0000
1000
,  // measure 42
0310
0001
1000
0010
0100
0001
1000
0100
,  // measure 43
1000
0000
0000
0000
0000
0000
1000
0000
0000
0000
0000
0000
1001
0000
0000
0000
0000
0000
0001
0000
0000
0010
0000
0000
0000
0000
0000
0010
0000
0000
0001
0000
,  // measure 44
0000
0000
0101
0000
0000
0000
0000
0000
0100
0000
0000
0100
0000
0000
0110
0000
,  // measure 45
0000
0000
0010
0000
0000
1000
0000
0000
0000
0000
0000
1000
0000
0000
0010
0000
0000
0000
0000
0000
1100
0000
0000
0000
0000
0000
0000
0000
0000
0000
0000
0000
,  // measure 46
1000
0000
0000
0100
0000
0000
0010
0000
0000
0100
0000
0000
1000
0000
0000
0010
,  // measure 47
0000
0000
0001
0000
0000
0010
0000
0000
0100
0000
0000
0001
0000
0000
0010
0000
,  // measure 48
0000
0000
1000
0000
0000
0000
0000
0000
0010
0000
0000
0001
0000
0000
0010
0000
0000
0001
0000
0000
1000
0000
0000
0100
0000
0000
1000
0000
0000
0000
0000
0000
,  // measure 49
0001
0000
1000
0100
1000
0000
0001
0000
,  // measure 50
1000
0000
0001
0100
0001
0000
1000
0000
,  // measure 51
0002
0203
2300
3200
,  // measure 52
0302
0000
0003
0000
,  // measure 53
1000
0000
0001
0010
0001
0000
1000
0000
,  // measure 54
0001
0000
1000
0010
1000
0000
0001
0000
,  // measure 55
2000
3020
0032
0023
,  // measure 56
2030
0000
3000
0010
,  // measure 57
0100
0001
0010
0100
1000
0010
0100
0000
,  // measure 58
0010
1000
0100
0010
0001
0100
0010
0000
,  // measure 59
2000
3200
0302
0023
,  // measure 60
2030
0000
3000
0000
,  // measure 61
0100
1000
0010
0100
0001
0010
0100
0000
,  // measure 62
0010
0001
0100
0010
1000
0100
0010
0000
,  // measure 63
0002
0203
2300
3020
,  // measure 64
0002
0000
0000
0000
0000
0000
0030
0003
,  // measure 65
0000
0000
0000
0000
,  // measure 66
0000
0000
0000
0000
,  // measure 67
1000
0000
0010
0000
,  // measure 68
0001
0000
1000
0000
,  // measure 69
0001
0000
0010
0000
,  // measure 70
2000
0000
3000
0000
;

//---------------dance-single - ----------------
#NOTEDATA:;
#CHARTNAME:C 09 X 13;
#STEPSTYPE:dance-single;
#DESCRIPTION:;
#CHARTSTYLE:;
#DIFFICULTY:Hard;
#METER:9;
#RADARVALUES:0.515186,0.661696,0.081041,0.299850,0.437619,445.000000,435.000000,10.000000,37.000000,0.000000,0.000000,0.000000,0.000000,0.000000,0.515186,0.661696,0.081041,0.299850,0.437619,445.000000,435.000000,10.000000,37.000000,0.000000,0.000000,0.000000,0.000000,0.000000;
#CREDIT:vincentw;
#DISPLAYBPM:83.000000:165.000000;
#NOTES:
// measure 0
0000
0000
0000
0000
,  // measure 1
0000
0000
0000
0000
,  // measure 2
0000
0000
0000
0000
,  // measure 3
0000
0000
0000
0000
,  // measure 4
0000
0000
0000
0000
,  // measure 5
0000
0000
0000
0000
,  // measure 6
0000
0000
0000
0000
,  // measure 7
0000
0000
0000
0000
,  // measure 8
0000
0000
0000
0000
,  // measure 9
1000
0010
0010
1000
,  // measure 10
0001
0010
0010
0001
,  // measure 11
1000
0100
0100
1000
,  // measure 12
0001
0100
0100
0001
,  // measure 13
1000
0010
0100
0000
0001
0010
0100
0000
,  // measure 14
1000
0100
0010
0000
0001
0100
0010
0000
,  // measure 15
1000
0100
0010
0100
1000
0010
0100
0010
,  // measure 16
1000
0001
0200
0020
0000
0000
0000
0330
,  // measure 17
0010
0000
1000
0000
0001
0001
0010
0001
,  // measure 18
1000
0000
0100
0000
1000
0000
0100
0000
0000
0100
0000
0000
0100
0000
0000
0000
,  // measure 19
1000
0010
0001
1000
0100
0001
1000
0010
,  // measure 20
0100
0001
0100
0010
1000
0000
1001
0000
,  // measure 21
0001
0010
0100
1000
0002
0000
0000
1003
,  // measure 22
0100
0010
1000
0000
0010
0100
1000
0000
,  // measure 23
0001
0010
0100
0000
0001
0100
1000
0000
,  // measure 24
0010
0100
0000
0010
0100
0000
0110
0000
,  // measure 25
1000
0010
0100
0001
0010
0100
1000
0000
,  // measure 26
0001
0100
0010
1000
0100
0010
0001
0000
,  // measure 27
1000
0010
0100
1000
0100
0001
0010
0001
,  // measure 28
0000
1000
0000
0000
0001
0000
0000
0000
0100
0000
0010
0000
0100
0000
0000
0000
,  // measure 29
0001
0010
1000
0010
0100
0010
0001
0000
,  // measure 30
1000
0010
0001
0010
0100
0010
1000
0000
,  // measure 31
0002
0023
2030
3020
,  // measure 32
0031
0000
0001
0000
0001
0000
1000
0010
0000
0010
1000
0000
0100
0000
0000
0000
,  // measure 33
2000
0000
0000
0000
0000
0000
3001
0000
0000
0100
0000
0000
0000
0000
0000
0100
0000
0000
0001
0000
0000
0100
0000
0000
0020
0000
0000
0000
0000
0000
2030
0000
,  // measure 34
0000
0000
0000
0000
3200
0000
0000
0000
0000
0000
0302
0000
0000
0000
0000
0000
0103
0000
0000
0000
0000
0000
0010
0000
0000
0001
0000
0000
0000
0000
0000
0001
,  // measure 35
0000
0000
1000
0000
0000
0001
0000
0000
1000
0000
0000
0100
0000
0000
0010
0000
0000
0001
0000
0000
1000
0000
0000
0010
0000
0000
0100
0000
0000
0001
0000
0000
,  // measure 36
0010
0000
0000
0000
0000
0000
0100
0000
0000
1000
0000
0000
0000
0000
0000
0010
0000
0000
1000
0000
0000
0000
0000
0000
0002
0000
0000
0000
0000
0000
0023
0000
,  // measure 37
0000
0000
0000
0000
2030
0000
0000
0000
0000
0000
3020
0000
0000
0000
0000
0000
0031
0000
0000
0000
0000
0000
0100
0000
0000
0010
0000
0000
0000
0000
0000
0010
,  // measure 38
0000
0000
1000
0000
0000
0010
0000
0000
2000
0000
0000
0000
0000
0000
0000
0000
0000
0000
0000
0000
3001
0000
0000
0000
0001
0000
0000
0000
0002
0000
0000
0000
,  // measure 39
2003
0000
0000
0000
3000
0100
0010
0001
2000
0000
0000
0000
3000
0001
0010
0100
,  // measure 40
1000
0010
0100
0010
1000
0001
0100
0002
0000
0000
0000
0000
0003
1000
0010
0100
,  // measure 41
0002
0000
0000
0000
0003
0100
0010
1000
0002
0000
0000
0000
0003
0010
0100
1000
,  // measure 42
0001
0100
1000
0100
0001
0010
1000
0010
0001
0000
0001
0000
1000
0000
1000
0000
,  // measure 43
0010
0000
0000
1000
0000
0000
0100
0000
0000
0000
0000
0000
1001
0000
0000
0000
0000
0000
0001
0000
0000
0100
0000
0000
0000
0000
0000
0100
0000
0000
0010
0000
,  // measure 44
0000
0000
0000
0000
0110
0000
0000
0000
0000
0000
0000
0000
0000
0000
0000
0000
0100
0000
0000
0001
0000
0000
0010
0000
0000
0000
0000
0000
1100
0000
0000
0000
,  // measure 45
0000
0000
1000
0000
0000
0010
0000
0000
0000
0000
0000
0100
0000
0000
0001
0000
0000
0000
0000
0000
0101
0000
0000
0000
0000
0000
1100
0000
0000
0000
0000
0000
,  // measure 46
0001
0000
0000
0010
0000
0000
0100
0000
0000
0020
0000
0000
1000
0000
0000
0000
0000
0000
0031
0000
0000
0000
0000
0000
1000
0000
0000
0010
0000
0000
0100
0000
,  // measure 47
0000
0020
0000
0000
0001
0000
0000
0000
0000
0000
1030
0000
0000
0000
0000
0000
0001
0000
0000
0010
0000
0000
0100
0000
0000
1000
0000
0000
0010
0000
0000
0100
,  // measure 48
0000
0000
1000
0000
0000
0100
0000
0000
0001
0000
0000
0100
0000
0000
0010
0000
0000
1000
0000
0000
0100
0000
0000
0020
0000
0000
1000
0000
0000
0000
0000
0000
,  // measure 49
0031
0000
0001
0000
1000
0100
1000
0000
0010
0000
1000
0000
0001
0000
0100
0000
,  // measure 50
0010
0010
1000
0001
0100
0100
0001
1000
,  // measure 51
0010
0000
1000
0000
0001
0010
0000
0010
0001
0000
0100
0000
0010
0000
0001
0000
,  // measure 52
0010
0100
0010
0000
1000
0010
0000
1000
0100
0000
0100
0000
0100
0000
0000
1000
,  // measure 53
0000
1000
0001
0000
0010
0000
0001
0000
1000
0000
0010
0000
1000
0000
0100
0000
,  // measure 54
0010
0001
0000
1000
0000
0001
0000
1000
0100
0000
1000
0000
0001
0000
0010
0000
,  // measure 55
0001
0000
0001
0000
1000
0010
1000
0000
0001
0000
0001
0000
1000
0100
1000
0000
,  // measure 56
0002
0203
2300
3002
2003
3200
0302
0003
,  // measure 57
1000
0000
0001
0000
0010
0000
0100
0000
1000
0000
0100
0000
1000
0010
0100
0000
,  // measure 58
0001
0000
0010
0000
1000
0000
0010
0000
0001
0100
0001
0000
1000
0000
0100
0000
,  // measure 59
0010
0000
1000
0000
0010
0000
0001
0000
0001
0000
0010
0100
0000
0010
0001
0000
,  // measure 60
1000
0000
1000
0000
0001
0000
0010
0100
0010
0000
0010
0000
0100
0000
0100
0000
,  // measure 61
1000
0000
0010
0000
0100
0001
1000
0000
0100
0000
1000
0000
0001
0000
0100
0000
,  // measure 62
0001
0000
0010
0000
0100
1000
0001
0000
0100
0000
1000
0000
0100
0000
0001
0000
,  // measure 63
1000
1000
0001
0001
1010
1000
0101
0001
,  // measure 64
0100
0000
0100
0000
0010
1000
0001
0010
0000
0100
1000
0001
0100
0000
1001
0000
,  // measure 65
0000
0000
0000
0000
,  // measure 66
0000
0000
0000
0000
,  // measure 67
0001
0100
0010
0100
0001
0000
1000
0100
,  // measure 68
0010
0000
0100
0000
2000
0000
0000
3010
,  // measure 69
1000
0001
0100
0010
0001
1000
0010
0100
,  // measure 70
2000
3002
0200
0000
,  // measure 71
0303
0000
0000
0000
;
