#TITLE:For Sure;
#SUBTITLE:;
#ARTIST:Scooch;
#TITLETRANSLIT:;
#SUBTITLETRANSLIT:;
#ARTISTTRANSLIT:;
#GENRE:Pop;
#CREDIT:CuzcoBlocko (song+steps);
#BANNER:[VIP Room Round 3] - For Sure.png;
#BACKGROUND:[VIP Room Round 3] - For Sure-bg.png;
#LYRICSPATH:;
#CDTITLE:cdtitle.png;
#MUSIC:[VIP Room Round 3] - For Sure.ogg;
#OFFSET:0.000;
#SAMPLESTART:56.670;
#SAMPLELENGTH:12.000;
#SELECTABLE:YES;
#BPMS:0.000=126.500;
#STOPS:;
#BGCHANGES:;
#KEYSOUNDS:;
#ATTACKS:;

//---------------dance-single - Tried to simulate it's MAX2 sister in a way.----------------
#NOTES:
     dance-single:
     ITG 07 X 11:
     Hard:
     7:
     0.411334,0.426957,0.253128,0.403424,0.162160,364.000000,332.000000,32.000000,51.000000,0.000000,0.000000,0.411334,0.426957,0.253128,0.403424,0.162160,364.000000,332.000000,32.000000,51.000000,0.000000,0.000000:
// measure 0
0000
0000
0000
0000
,  // measure 1
0000
0000
0000
0000
,  // measure 2
0000
0000
0000
0000
,  // measure 3
0000
1000
0000
0001
,  // measure 4
0000
0000
1000
0000
0100
0200
0010
0300
,  // measure 5
0100
0000
0011
0000
1000
0000
0001
1000
,  // measure 6
0010
0000
1000
0000
0100
0000
0000
0010
0000
0000
0000
0100
0010
0000
0100
0000
,  // measure 7
0010
1001
0001
0100
,  // measure 8
0010
0000
1001
0000
0001
0000
1000
0100
,  // measure 9
0020
0000
0000
0000
0001
0000
0000
0001
0000
0000
0200
0000
0000
0000
0330
0000
,  // measure 10
2000
0000
0000
0000
0010
0000
0000
0010
0000
0000
0000
3010
0100
0000
0000
0000
,  // measure 11
0002
0010
2000
3003
,  // measure 12
0001
0100
0001
0100
0010
1000
0001
0000
,  // measure 13
2000
0010
0002
3003
,  // measure 14
1000
0100
1000
0100
0010
0001
0100
0010
,  // measure 15
0200
0000
0001
0000
1000
0000
0301
1000
,  // measure 16
0200
0000
0310
0001
2000
0000
3001
0010
,  // measure 17
0200
1000
0001
1300
,  // measure 18
0020
1000
0001
0130
,  // measure 19
0002
0010
2000
3003
,  // measure 20
0001
0100
0001
1000
0100
0010
0001
0000
,  // measure 21
2000
0000
0000
0000
0010
0000
0000
0002
0000
0000
0000
0000
3003
0000
0000
0000
,  // measure 22
1000
0100
1000
0010
0100
0010
0001
0010
,  // measure 23
2000
0000
0010
0000
0100
0000
3001
0010
,  // measure 24
0200
0000
1300
0001
0200
0000
0310
1000
,  // measure 25
0002
0000
0010
0000
0100
0000
1003
0001
,  // measure 26
0200
0000
0310
1000
0200
0000
0301
0100
,  // measure 27
2000
3002
0100
1003
,  // measure 28
0102
0000
2003
0000
0100
0000
3001
0100
,  // measure 29
0010
0000
1000
0002
2000
0000
0000
0000
0000
0000
0000
0000
3003
0000
0010
0000
,  // measure 30
0110
1010
1001
0011
,  // measure 31
0100
0000
1001
0000
2000
0000
3100
0010
,  // measure 32
0001
0000
1000
0001
0000
0000
0011
0000
0000
0000
0000
0010
0001
0000
1000
0000
,  // measure 33
0010
0000
1000
0000
0100
0000
0000
0001
0000
0000
0200
0000
0010
0000
0000
0000
,  // measure 34
1300
0010
0100
0101
,  // measure 35
0011
0000
1001
0000
0002
0000
0103
0010
,  // measure 36
1000
0000
0001
1000
0000
0000
1010
0000
0000
0000
0000
0000
0100
0000
0001
0000
,  // measure 37
0010
0000
0000
0000
0110
0000
0000
0000
0010
0000
0000
0001
0000
0000
1000
0000
,  // measure 38
0010
0000
0000
0000
0110
0000
0000
0000
0010
0000
0000
0100
0000
0000
0001
0000
,  // measure 39
2001
0000
0000
0000
0010
0000
0000
0001
0000
0000
0000
0000
3100
0000
0010
0000
,  // measure 40
0001
0000
0000
0000
0001
0000
0000
0000
0002
0000
0000
1003
0010
0000
0100
0000
,  // measure 41
0001
0000
0010
0000
0100
0000
0010
0000
1000
0000
0000
1000
0010
0000
0100
0000
,  // measure 42
1000
0000
0010
0000
0100
0001
0000
1000
0000
0000
0000
0001
0010
0000
0100
0000
,  // measure 43
1000
0000
0010
0000
0100
0000
0010
0000
0001
0000
0000
0001
0010
0000
0100
0000
,  // measure 44
0001
0000
0010
0000
0100
1000
0000
0001
0000
0000
2000
0000
0001
0000
3001
0000
,  // measure 45
1000
0000
0100
0000
0010
0000
0100
0000
0001
0000
0000
0001
0100
0000
0010
0000
,  // measure 46
0001
0000
0100
0000
0010
1000
0000
0001
0000
0000
0000
1000
0010
0000
0100
0000
,  // measure 47
0020
0000
1000
0000
0001
0000
0130
0010
,  // measure 48
2000
0000
3001
0010
0200
0000
1300
0010
,  // measure 49
2010
3002
0010
1003
,  // measure 50
0012
0000
2003
0000
0010
0000
3001
0100
,  // measure 51
0010
0000
1000
0002
2000
0000
0000
0000
0000
0000
0000
0000
3003
0000
0010
0000
,  // measure 52
1010
1001
0011
1010
,  // measure 53
0100
0000
1001
0000
0002
0000
0103
0010
,  // measure 54
1000
0000
0001
1000
0000
0000
1010
0000
0000
0000
0000
1000
0001
0000
0010
0000
,  // measure 55
1000
0000
0010
0000
0001
1000
0000
0001
0000
0000
0202
0000
0000
0000
0003
0000
,  // measure 56
0310
0001
0101
1100
,  // measure 57
1000
0001
0000
0200
0010
0000
0000
0000
1000
0000
0000
0000
0310
0000
1000
0000
,  // measure 58
0001
0000
1000
0100
0000
0100
1000
0000
0000
0000
0000
0000
0001
0000
0100
0000
,  // measure 59
0010
0000
0000
0010
1000
0000
0100
0000
0001
0000
0000
0100
0000
0000
0100
0000
,  // measure 60
0010
0000
0000
0010
0001
0000
0100
0000
1000
0000
0000
0100
0000
0000
0001
0000
,  // measure 61
1002
0000
0000
0000
0010
0000
0000
1000
0000
0000
0000
0000
0103
0000
0010
0000
,  // measure 62
1000
0000
0000
0000
1100
0000
0000
0000
0011
0000
0001
1000
0010
0000
0100
0000
,  // measure 63
0100
2002
3003
0000
;

//---------------dance-single - Hi.----------------
#NOTES:
     dance-single:
     ITG 06 X 09:
     Medium:
     6:
     0.350312,0.375243,0.213577,0.348052,0.094923,310.000000,283.000000,27.000000,44.000000,0.000000,0.000000,0.350312,0.375243,0.213577,0.348052,0.094923,310.000000,283.000000,27.000000,44.000000,0.000000,0.000000:
// measure 0
0000
0000
0000
0000
,  // measure 1
0000
0000
0000
0000
,  // measure 2
0000
0000
0000
0000
,  // measure 3
0000
0000
0000
0000
,  // measure 4
0000
0000
0000
0000
0001
0002
1000
0000
,  // measure 5
0103
0000
1010
0000
1000
0000
0001
0100
,  // measure 6
0010
0000
0000
0000
1000
0000
0000
1000
0000
0000
0000
1000
0001
0000
1000
0000
,  // measure 7
0100
0011
0010
0001
,  // measure 8
0100
0000
1010
0000
0010
0000
0100
0001
,  // measure 9
2000
0100
0001
0100
,  // measure 10
3002
0000
0000
0000
0100
0000
0000
0000
1000
0000
0000
0013
0001
0000
0000
0000
,  // measure 11
1000
0020
0200
0330
,  // measure 12
1000
0000
0001
0000
0100
0010
1000
0000
,  // measure 13
0001
0020
0200
0330
,  // measure 14
0001
0000
1000
0000
0100
0010
0100
1000
,  // measure 15
0020
0000
1000
0000
0000
0000
1030
0002
,  // measure 16
0100
0000
0103
0020
1000
0000
1030
0100
,  // measure 17
0020
0001
0000
0031
,  // measure 18
0001
0100
1000
0010
,  // measure 19
0001
0020
0200
0330
,  // measure 20
0001
0000
1000
0000
0001
0100
0010
0000
,  // measure 21
2020
0000
0000
0000
3000
0000
0000
0200
0000
0000
0000
0000
0330
0000
0000
0000
,  // measure 22
1000
0000
0001
0000
0100
0010
0100
0001
,  // measure 23
0020
0000
0100
0000
0000
0000
0130
2000
,  // measure 24
0001
0000
3001
0200
0010
0000
0310
1000
,  // measure 25
0200
0000
0010
0000
0000
0000
0310
0002
,  // measure 26
0100
0000
0103
0020
1000
0000
1030
0001
,  // measure 27
0020
0100
0001
0100
,  // measure 28
0031
0000
0100
0000
1000
0000
0010
0002
,  // measure 29
0000
1000
2000
0000
0000
0000
3003
0000
,  // measure 30
0011
0000
0000
0001
0000
0000
0100
0000
1100
0000
0000
0000
1010
0000
0000
0000
,  // measure 31
0012
0000
2003
0000
0010
0000
3100
0010
,  // measure 32
0001
0000
0000
0100
0000
0000
1000
0000
0000
0000
0000
0000
0100
0000
0001
0000
,  // measure 33
0010
0000
0000
0000
0100
0000
0000
1000
0000
0000
0002
0000
0100
0000
0000
0000
,  // measure 34
0010
0103
1100
1010
,  // measure 35
0012
0000
2003
0000
0010
0000
3100
0010
,  // measure 36
0001
0000
0000
0100
0000
0000
1000
0000
0000
0000
0000
0000
0100
0000
0001
0000
,  // measure 37
0010
0000
0000
0000
1100
0000
0000
0000
0010
0000
0000
0001
0000
0000
1000
0000
,  // measure 38
0010
0000
0000
0000
0101
0000
0000
0000
0010
0000
0000
1000
0000
0000
0100
0000
,  // measure 39
0020
0000
0001
0000
0100
0000
0031
1000
,  // measure 40
0020
0000
0001
0000
1000
0000
0130
0001
,  // measure 41
0010
0100
1000
0000
1000
0000
0100
1000
,  // measure 42
0010
0000
0100
0000
0001
0000
0000
0001
0000
0000
0000
1000
0100
0000
1000
0000
,  // measure 43
0010
0100
0001
0000
0001
0000
0100
0001
,  // measure 44
0010
0000
0100
0000
1000
0000
0000
1000
0000
0000
0200
0000
0010
0000
0000
0000
,  // measure 45
1300
0010
1000
0000
0100
0000
1000
0010
,  // measure 46
1000
0000
0001
0000
0010
0000
0000
0010
0000
0000
0000
0001
1000
0000
0100
0000
,  // measure 47
0020
0000
0001
0000
0000
0000
0031
2000
,  // measure 48
0100
0000
3100
0020
0001
0000
0031
1000
,  // measure 49
0020
0100
1000
0130
,  // measure 50
1000
0000
0100
0000
0001
0000
0010
2000
,  // measure 51
0000
0001
0002
0000
0000
0000
3003
0000
,  // measure 52
1010
0000
0000
1000
0000
0000
0100
0000
0101
0000
0000
0000
0011
0000
0000
0000
,  // measure 53
2010
0000
3002
0000
0010
0000
0103
0010
,  // measure 54
1000
0000
0000
0100
0000
0000
0001
0000
0000
0000
0000
0100
1000
0000
0010
0000
,  // measure 55
1000
0000
0000
0000
1100
0000
0000
0001
0000
0000
0201
0000
0000
0000
0000
0000
,  // measure 56
1000
0310
1010
1100
,  // measure 57
0001
0010
0000
0000
2100
0000
0000
0000
0001
0000
0000
0000
3100
0000
1000
0000
,  // measure 58
0001
0000
0000
0100
0000
0000
1000
0000
0000
0000
0000
0000
1000
0000
0100
0000
,  // measure 59
0001
0000
0000
0000
1010
0000
0000
0000
0100
0000
0000
1000
0000
0000
0100
0000
,  // measure 60
0001
0000
0000
0000
0011
0000
0000
0000
0010
0000
0000
0001
0000
0000
0100
0000
,  // measure 61
0020
0000
0001
0000
0100
0000
0031
0010
,  // measure 62
1000
0000
0000
0000
1100
0000
0000
0000
0101
0000
0000
0001
0000
0000
0010
0000
,  // measure 63
1000
1001
0000
0000
;
