#TITLE:Digital Tattoo;
#SUBTITLE:;
#ARTIST:LADY'S ONLY;
#TITLETRANSLIT:;
#SUBTITLETRANSLIT:;
#ARTISTTRANSLIT:;
#GENRE:;
#CREDIT:;
#BANNER:;
#BACKGROUND:;
#LYRICSPATH:;
#CDTITLE:;
#MUSIC:[VIP Room Round 3] - Digital Tattoo.ogg;
#OFFSET:0.001197;
#SAMPLESTART:54.782795;
#SAMPLELENGTH:13.714294;
#SELECTABLE:YES;
#BPMS:0.000000=140.000000
;
#STOPS:
;
#BGCHANGES:;
#KEYSOUNDS:;
#ATTACKS:;

//---------------dance-single - ----------------
#NOTES:
     dance-single:
     :
     Hard:
     9:
     0.636452,0.716079,0.255493,0.295414,0.443121,558.000000,526.000000,32.000000,37.000000,16.000000,0.000000,0.636452,0.716079,0.255493,0.295414,0.443121,558.000000,526.000000,32.000000,37.000000,16.000000,0.000000:
// measure 0
0000
0000
0000
0000
,  // measure 1
0000
0000
0000
0000
,  // measure 2
0000
0000
0000
0000
,  // measure 3
0000
0000
0000
0000
,  // measure 4
1000
0000
0100
0010
0001
0000
1000
0000
,  // measure 5
0100
0000
0000
0000
0001
0000
0100
0000
0010
0000
0100
0000
1000
0001
0000
0001
,  // measure 6
0010
0100
1000
0001
0010
0100
1000
0001
,  // measure 7
1000
0000
0100
0000
1000
0000
0001
0000
1000
0000
0010
0000
0100
0000
0001
0000
0020
0000
0000
0000
0000
0000
0000
0000
0000
0000
0000
0000
0000
0000
0000
0030
,  // measure 8
0021
0000
0000
1000
0000
0000
0130
0000
1200
0000
0000
0001
0000
0000
0310
0000
,  // measure 9
0001
0010
0100
1000
0001
0000
1001
0000
,  // measure 10
0201
0000
0000
1000
0000
0000
0310
0000
1020
0000
0000
0001
0000
0000
0130
0000
,  // measure 11
0001
0000
0001
0000
0100
0000
0100
0000
0020
0000
0000
1000
0000
0000
1000
0000
,  // measure 12
1030
0000
0010
1000
0000
0000
0001
0000
1001
0000
0000
0000
1000
0000
0100
0000
,  // measure 13
0010
0001
0011
0000
1001
0000
0001
0100
,  // measure 14
0010
1000
1010
0000
0010
1000
1001
0000
,  // measure 15
0002
0000
0023
0000
0130
1000
0100
0010
,  // measure 16
0001
0000
0000
0012
0000
0000
0103
0000
001M
0000
0000
2010
0000
0000
3100
0000
,  // measure 17
1M00
0100
0001
0100
0010
0000
0110
0000
,  // measure 18
0001
0000
0000
0102
0000
0000
0013
0000
010M
0000
0000
2100
0000
0000
3010
0000
,  // measure 19
00M1
0000
0100
0000
1000
0000
0100
0000
0010
0000
0000
0110
0000
0000
1000
0000
,  // measure 20
0010
0000
1000
0001
0000
0000
1000
0000
2100
0000
0000
0000
3100
0000
0010
0000
,  // measure 21
0011
1001
2010
0000
3020
0000
0130
0001
,  // measure 22
0101
1001
2100
0000
3100
0010
0120
0000
,  // measure 23
0031
0010
0100
1000
0002
0000
0000
0000
,  // measure 24
1003
0000
0100
0000
1000
0001
1000
0001
0000
1000
0010
0000
0001
0000
0010
0000
,  // measure 25
0100
0000
0001
0100
0001
1000
0001
0010
0000
0001
0100
0000
0010
0000
1000
0000
,  // measure 26
0001
0000
0100
0000
0001
0010
0001
1000
0000
0001
0100
0000
1000
0000
0100
0000
,  // measure 27
0001
0000
1000
0100
1000
0001
1000
0010
0000
1000
0001
0000
0010
0000
0100
0000
,  // measure 28
1000
1000
0100
0100
0010
0010
0001
0001
,  // measure 29
1000
1000
0100
0100
0010
0010
0001
0001
,  // measure 30
1000
0100
1000
0100
0010
0100
0010
0100
0010
0001
0010
0001
1000
0100
0010
0001
,  // measure 31
1000
0000
0002
0003
0200
0300
2000
3000
0200
0300
0002
0003
0200
0300
0020
0030
,  // measure 32
2000
0000
3000
0000
0000
0000
0000
0000
0000
0000
0000
0000
0001
0000
0000
0000
0000
0000
0100
0000
0000
0010
0000
0000
0000
0000
0000
MM1M
0000
0000
0100
0000
0000
0000
0000
0000
1000
0000
0000
0000
0000
0000
0100
0000
0000
0000
0000
0000
,  // measure 33
0001
0000
0100
0000
1000
0000
0100
0010
0000
MM1M
0100
0000
0001
0000
1000
0000
,  // measure 34
0100
0000
0010
0000
0001
0010
0001
0010
0000
0001
1000
0000
0001
0000
0100
0000
,  // measure 35
0010
0000
1000
0000
0100
1000
0100
1000
0000
0001
1000
0000
0010
1000
0001
1000
,  // measure 36
0200
0300
0000
0000
1000
0000
0010
0100
0000
M1MM
0010
0000
0001
0000
0100
0000
,  // measure 37
1000
0000
0100
0000
0001
0000
0010
0100
0000
M1MM
0010
0000
1000
0000
0001
0000
,  // measure 38
0010
0000
0100
0000
1000
0100
1000
0100
0000
1000
0001
0000
1000
0000
0010
0000
,  // measure 39
0100
0000
0001
0000
0010
0001
1000
0001
0100
0000
0100
0000
0100
0000
0100
0010
,  // measure 40
0200
0000
0000
0000
,  // measure 41
0000
0000
0000
0000
0000
0000
0000
0000
0000
0000
0000
0000
1300
0100
0010
0100
,  // measure 42
0001
0000
0100
0000
0010
0000
1000
0001
0000
1000
0100
0000
0010
0000
0010
0000
,  // measure 43
0001
0010
0100
1000
0001
0010
1000
0010
,  // measure 44
0001
0000
1000
0000
0010
0000
0100
0001
0000
1000
0001
0000
0010
0000
0010
0000
,  // measure 45
0100
0000
0010
0000
0001
0000
1000
0000
0001
0100
0010
0100
1000
0100
0010
0100
,  // measure 46
0001
0000
0000
0100
0010
0000
1000
0000
0001
0000
0000
0000
0010
0000
0000
0000
,  // measure 47
0100
0000
1000
0000
0001
0100
1000
0100
,  // measure 48
0001
0000
0100
0000
0010
1000
0000
0001
1000
0000
0100
1000
0000
0001
0010
0100
,  // measure 49
1000
0000
0001
0000
1000
0010
0100
0000
0001
0000
0010
0000
1000
0000
0010
0000
,  // measure 50
0100
0000
0010
0000
0001
1000
0001
0000
0100
0000
0010
0100
0000
0001
1000
0000
,  // measure 51
0001
0000
0010
0000
0100
0010
0100
0000
1000
0000
0010
0000
0001
0000
0010
0000
,  // measure 52
1000
0000
0010
0000
0100
0001
0000
1000
0001
0000
0010
0001
0000
0010
0100
1000
,  // measure 53
0001
0000
1000
0000
0001
0100
0010
0000
1000
0000
0100
0000
0001
0000
0100
0000
,  // measure 54
0010
0000
0100
0000
1000
0001
1000
0000
0010
0000
0100
0010
0000
1000
0001
0000
,  // measure 55
1000
0100
1000
0000
0100
0000
0010
0000
0001
0100
0001
0000
0100
0000
0010
0000
,  // measure 56
1000
0000
0100
0000
1000
0000
0001
0000
0100
0000
0000
0100
0000
0000
0100
0010
,  // measure 57
0000
0000
1010
0000
1000
0010
1000
0000
0001
0000
0100
0000
0010
0000
1000
0000
,  // measure 58
0001
0000
0010
0000
0001
0000
1000
0000
0100
0000
0000
0100
0000
0000
0100
0000
,  // measure 59
0110
0000
0011
0000
0010
0001
0010
0000
0001
0000
0010
0000
0100
0000
1000
0000
,  // measure 60
1010
0000
0010
0000
0000
0010
0000
0000
1000
0000
0000
1000
0000
0000
0010
1000
,  // measure 61
0000
0000
0001
0000
1000
0001
1000
0000
0001
0000
0010
0000
0100
0000
1000
0000
,  // measure 62
0000
0000
0001
0000
0010
0000
0001
0000
1000
0000
0000
0001
0000
0000
0100
0001
,  // measure 63
0000
0000
0100
0000
0010
0100
0010
0000
1000
0000
0010
0000
0100
0000
0001
0000
,  // measure 64
0010
0000
0000
0010
0000
0000
0001
0000
1000
0000
0000
1000
0000
0000
0001
0000
,  // measure 65
1000
0010
0100
0001
0100
0010
1000
0000
,  // measure 66
0010
0000
0000
0010
0000
0000
1000
0000
0001
0000
0000
0001
0000
0000
1000
0000
,  // measure 67
0100
0100
0010
0010
0002
0000
0003
1000
,  // measure 68
0100
0000
1000
0001
0000
0000
0100
0000
0100
0000
0000
0000
0001
0000
0100
0000
,  // measure 69
0220
0000
0330
0000
1000
0100
0010
0000
,  // measure 70
0220
0000
0330
0000
0001
0100
0010
0000
,  // measure 71
0220
0330
2002
3003
;

//---------------dance-single - ----------------
#NOTES:
     dance-single:
     :
     Easy:
     4:
     0.250931,0.283438,0.119762,0.191620,0.000000,220.000000,205.000000,15.000000,24.000000,0.000000,0.000000,0.250931,0.283438,0.119762,0.191620,0.000000,220.000000,205.000000,15.000000,24.000000,0.000000,0.000000:
// measure 0
0000
0000
0000
0000
,  // measure 1
0000
0000
0000
0000
,  // measure 2
0000
0000
0000
0000
,  // measure 3
0000
0000
0000
0000
,  // measure 4
0001
0100
0001
0001
,  // measure 5
1000
0001
1000
1000
,  // measure 6
0100
0010
0001
1000
,  // measure 7
0100
0010
0001
0000
,  // measure 8
0011
0000
1001
0000
,  // measure 9
0001
0100
0010
1000
,  // measure 10
1010
0000
1001
0000
,  // measure 11
0001
0010
0200
0300
,  // measure 12
0010
0000
0001
0001
,  // measure 13
0002
0003
1000
1000
,  // measure 14
2000
3000
0010
0010
,  // measure 15
0020
0030
0100
0100
,  // measure 16
0110
0000
1001
0000
,  // measure 17
1000
0001
1000
0100
,  // measure 18
0110
0000
1001
0000
,  // measure 19
0001
0100
0020
0030
,  // measure 20
0100
0000
0001
0001
,  // measure 21
0002
0003
1000
1000
,  // measure 22
2000
3000
0100
0100
,  // measure 23
0200
0300
0020
0030
,  // measure 24
0001
0010
0100
1000
,  // measure 25
0001
0010
0100
1000
,  // measure 26
0001
0100
0010
1000
,  // measure 27
0001
0100
0010
1000
,  // measure 28
0001
0001
1000
1000
,  // measure 29
0001
0001
1000
1000
,  // measure 30
0001
1000
0001
1000
,  // measure 31
2002
0000
0000
3003
,  // measure 32
1000
0100
0001
0100
,  // measure 33
1000
0100
0010
0001
,  // measure 34
1000
0010
0010
0010
,  // measure 35
0000
0100
0100
0100
,  // measure 36
0001
0100
1000
0100
,  // measure 37
0001
0100
0010
1000
,  // measure 38
0001
0010
0010
0010
,  // measure 39
0000
0100
0200
0300
,  // measure 40
0220
0000
0000
0000
,  // measure 41
0000
0000
0000
0330
,  // measure 42
0100
0010
0100
0010
,  // measure 43
0100
0010
0100
0100
,  // measure 44
1000
0001
1000
0001
,  // measure 45
1000
0001
1000
1000
,  // measure 46
0010
0100
0010
0100
,  // measure 47
0010
0100
0220
0330
,  // measure 48
0001
0001
0100
0100
,  // measure 49
0001
0100
0010
1000
,  // measure 50
0001
0001
0100
0100
,  // measure 51
2020
3030
0022
0033
,  // measure 52
1000
1000
0100
0100
,  // measure 53
1000
0100
0010
0001
,  // measure 54
1000
1000
0100
0100
,  // measure 55
0022
0033
2020
3030
,  // measure 56
1000
0000
0010
0000
,  // measure 57
1000
0010
1000
1000
,  // measure 58
0001
0000
1000
0000
,  // measure 59
0001
0001
0001
0000
,  // measure 60
0010
0000
0100
0100
,  // measure 61
0100
0000
1000
1000
,  // measure 62
1000
0000
0001
0001
,  // measure 63
0001
0000
1000
1000
,  // measure 64
1000
0000
1000
0000
,  // measure 65
1000
0000
0000
0000
,  // measure 66
0010
0000
0010
0000
,  // measure 67
0010
0000
0000
0000
,  // measure 68
0100
0000
0100
0000
,  // measure 69
0100
0000
0000
0000
,  // measure 70
0001
0000
0001
0000
,  // measure 71
0001
0000
0000
0000
;

//---------------dance-single - ----------------
#NOTES:
     dance-single:
     :
     Medium:
     6:
     0.374115,0.429648,0.239525,0.526955,0.000000,328.000000,298.000000,30.000000,66.000000,0.000000,0.000000,0.374115,0.429648,0.239525,0.526955,0.000000,328.000000,298.000000,30.000000,66.000000,0.000000,0.000000:
// measure 0
0000
0000
0000
0000
,  // measure 1
0000
0000
0000
0000
,  // measure 2
0000
0000
0000
0000
,  // measure 3
0000
0000
0000
0000
,  // measure 4
0001
0000
1000
0001
1000
0000
1001
0000
,  // measure 5
0010
0000
0100
0010
0100
0010
0100
0000
,  // measure 6
0010
0010
1000
1000
,  // measure 7
0100
0010
2002
3003
,  // measure 8
2010
0000
3010
2000
0001
0000
3001
1000
,  // measure 9
0200
0320
0002
0033
,  // measure 10
0012
0000
0013
0002
1000
0000
1003
0001
,  // measure 11
0200
0320
2000
3030
,  // measure 12
1000
0010
1000
0010
1000
0000
0010
0000
,  // measure 13
2020
3030
1000
0001
,  // measure 14
2002
3003
0001
0010
,  // measure 15
0022
0033
0220
0330
,  // measure 16
2200
3300
0000
0000
0000
0000
2002
3003
0000
0000
0000
0000
0000
0000
0000
0000
,  // measure 17
0102
0203
0320
1030
,  // measure 18
2020
3030
0000
0000
0000
0000
2002
3003
0000
0000
0022
0033
0000
0000
0220
0330
,  // measure 19
0120
0000
0032
0000
2003
0000
3000
0001
,  // measure 20
0202
0303
0000
0000
0000
0000
2200
3300
0000
0000
0000
0000
0100
0000
0010
0000
,  // measure 21
0022
0033
0000
0000
0000
0000
0000
0000
0001
0000
0100
0000
0010
0000
0000
0000
,  // measure 22
2020
3030
0000
0000
0000
0000
2002
3003
0000
0000
0000
0000
2200
3300
0000
0000
,  // measure 23
0220
0330
2002
3003
,  // measure 24
0001
0010
0100
1000
,  // measure 25
0001
0010
0100
1000
0001
0010
0100
0000
,  // measure 26
1000
0000
0010
0000
0100
0001
0100
0010
,  // measure 27
1000
0000
0010
0000
0100
0001
1000
0000
,  // measure 28
0001
0001
0010
0010
,  // measure 29
0100
0100
1000
1000
,  // measure 30
0001
0001
0100
0100
0010
0010
1000
1000
,  // measure 31
0100
0100
0100
0100
,  // measure 32
0020
0031
0100
0010
,  // measure 33
1000
0010
0100
0000
0001
0000
0100
0001
,  // measure 34
1000
0000
0001
0010
1000
0010
0001
0000
,  // measure 35
1000
0000
0001
0100
1000
0100
0001
0100
,  // measure 36
0010
1000
0100
0010
,  // measure 37
0001
0010
0100
0000
1000
0000
0100
1000
,  // measure 38
0001
0000
1000
0010
0001
0010
1000
0000
,  // measure 39
0001
0010
1000
0010
0001
0000
0000
0000
,  // measure 40
2002
0000
0000
0000
,  // measure 41
0000
0000
0000
3003
,  // measure 42
0001
0000
0100
0000
1000
0100
0010
0000
,  // measure 43
1000
0010
0100
0001
1000
0100
0010
0001
,  // measure 44
1000
0000
0100
0000
0001
0100
0010
0000
,  // measure 45
0001
0010
0100
1000
0001
0100
0010
1000
,  // measure 46
0001
0000
1000
1000
1000
0000
1000
0000
,  // measure 47
0001
1000
2002
3003
,  // measure 48
0001
0100
0010
1000
,  // measure 49
0001
0100
0010
1000
0001
0100
1000
0100
,  // measure 50
0001
0010
0100
1000
,  // measure 51
0001
0010
0100
1000
0001
0010
1000
0010
,  // measure 52
0001
0010
0001
1000
,  // measure 53
0001
0000
0100
0000
0010
1000
0010
0010
,  // measure 54
1000
0010
1000
0001
,  // measure 55
1000
0100
0010
0010
0001
0100
0010
0010
,  // measure 56
1000
0010
1000
1000
,  // measure 57
0010
1000
0010
1000
0010
0000
0010
0000
,  // measure 58
1000
1000
0001
0001
,  // measure 59
1000
0001
1000
0001
2000
0000
3000
0000
,  // measure 60
0100
0000
0100
0000
0010
0100
0010
0000
,  // measure 61
0220
0000
0330
0000
1000
0001
1000
0000
,  // measure 62
1001
0000
0000
0000
0100
0010
0100
0000
,  // measure 63
0220
0330
1000
0001
,  // measure 64
0100
0000
0100
0000
,  // measure 65
0100
0000
0000
0000
,  // measure 66
0010
0000
0010
0000
,  // measure 67
0010
1000
0010
0000
,  // measure 68
1000
0000
1000
0010
,  // measure 69
1000
0000
0001
1000
,  // measure 70
0001
0000
0010
0001
,  // measure 71
0010
0000
0220
0330
;
