#TITLE:maromi's theme;
#SUBTITLE:;
#ARTIST:goreshit;
#TITLETRANSLIT:;
#SUBTITLETRANSLIT:;
#ARTISTTRANSLIT:;
#GENRE:Lullabreaks;
#CREDIT:TiKAL;
#MUSIC:[You Won't See This In DDR VI] - maromi's theme.ogg;
#BANNER:[You Won't See This In DDR VI] - maromi's theme.png;
#BACKGROUND:[You Won't See This In DDR VI] - maromi's theme-bg.png;
#CDTITLE:cdtitle.png;
#SAMPLESTART:101.764;
#SAMPLELENGTH:15.652;
#SELECTABLE:YES;
#OFFSET:-0.025;
#BPMS:0.000=92.000
,27.000=122.667
,28.333=153.333
,30.000=184.000
,224.000=92.000
,230.000=184.000
;
#STOPS:;
#DISPLAYBPM:92.000:184.000;
#BGCHANGES:;
#FGCHANGES:;

//--------------- dance-single - TiKAL ----------------
#NOTES:
     dance-single:
     TiKAL:
     Easy:
     3:
     0,0,0,0,0:
0000
0000
0000
0000
,
0000
0000
0001
0000
,
0000
0100
0000
0000
,
0010
0000
0000
1000
,
0000
0000
0001
0000
,
0000
0010
0000
0000
,
0100
0000
0000
1001
,
0000
0000
0000
0000
,
1000
0000
0010
0000
,
0100
0000
0001
1000
,
0100
0000
0010
0100
,
1000
0001
0100
0000
,
0010
0100
0001
1000
,
0100
0000
0010
0000
,
0001
0000
0100
0010
,
1000
0001
0010
0100
,
1000
0000
0001
0000
,
1000
0010
0100
0000
,
0010
0000
1000
0000
,
0001
0000
0010
0000
,
0011
0000
0010
0000
,
0100
0000
1000
0001
,
0100
0000
0010
0100
,
0001
1000
0100
0000
,
0010
0100
1000
0001
,
0100
0000
0010
0000
,
1000
0000
0100
0010
,
0001
1000
0010
0100
,
0001
0000
1000
0000
,
0001
0010
0100
0000
,
0010
0000
0001
0000
,
1000
0000
0010
0000
,
0100
0000
0001
0000
,
0010
0000
1000
0000
,
0100
0000
0000
0000
,
0010
0000
1000
0000
,
0100
0000
0001
0000
,
0010
0000
0000
0000
,
0100
0000
0001
0000
,
0010
0000
1000
0000
,
0100
0000
0000
0000
,
0001
0000
0100
0000
,
0010
0000
1000
0000
,
0001
0000
0000
0000
,
0010
0000
0001
0000
,
0100
0000
1000
0000
,
0010
0000
0000
0000
,
0100
0000
1000
0000
,
0010
0000
0001
0000
,
0100
0000
0000
0000
,
0010
0000
0001
0000
,
0100
0000
1000
0000
,
0010
0000
0000
0000
,
0001
0000
0010
0000
,
0100
0000
1000
0000
,
0001
0000
0000
0000
,
1001
0000
0000
0000
,
0000
0000
1000
0010
,
0100
0010
1000
0001
,
1000
0100
0010
0000
,
0001
0010
0100
0010
,
0001
0000
1000
0010
,
0100
0010
1000
0000
,
0001
1000
0001
0010
,
0100
0010
0001
1000
,
0001
0100
0010
0000
,
1000
0010
0100
0010
,
1000
0000
0001
0010
,
0100
0010
0001
0000
,
1000
0001
1000
0100
,
0010
0100
1000
0001
,
1000
0010
0100
0000
,
0001
0100
0010
0100
,
0001
0000
1000
0100
,
0010
0100
1000
0000
,
0001
1000
0001
0100
,
0010
0100
0001
1000
,
0001
0010
0100
0000
,
1000
0000
0010
0100
,
0001
0000
1000
0000
,
0100
0010
0001
1000
,
0001
0000
1001
0000
;

//--------------- dance-single - sleeper TiKAL ----------------
#NOTES:
     dance-single:
     sleeper TiKAL:
     Hard:
     8:
     0,0,0,0,0:
0000
0000
0000
0000
,
0000
0000
1000
0001
,
0100
0000
0010
1000
0100
0000
0000
1000
,
0100
0010
0001
0000
0000
1000
0010
0100
,
0001
0000
0000
0000
0001
0000
1000
0100
,
0010
0001
0010
0100
1000
0000
0001
0000
,
0100
0010
1000
0000
0001
0000
0020
0000
,
0000
0000
0000
0030
,
1100
1000
1001
0001
,
0101
0100
0110
1010
,
1001
0001
0010
1100
,
1001
0101
1001
1000
,
0100
0110
0011
1001
,
1010
0010
0100
0001
,
0101
0001
1100
1001
,
0101
1001
0011
1001
,
1010
0010
0110
0100
,
0101
1001
1100
0100
,
0110
0010
0011
0001
,
1000
0010
0100
0010
,
0101
0000
1000
0000
0001
0100
0010
1000
,
0001
0000
0100
0001
1000
0000
0100
0000
,
0010
0001
1000
0001
0010
0000
0100
1000
,
0001
0000
0100
0010
0100
0001
0100
0000
,
0010
1000
0001
0000
1000
0000
0100
0010
,
0100
1000
0001
0000
0100
0010
1000
0000
,
0001
0011
0100
1100
,
0001
0000
0101
0000
1000
0100
0010
0100
,
0001
0100
0010
0100
1000
0000
0001
0100
,
0001
0000
1000
0000
0100
0010
0001
0000
,
0010
0100
1000
0000
0001
0000
1000
0000
,
0001
0100
0010
0000
1000
0010
0100
0001
,
1000
1100
1000
1001
,
1000
1010
1000
1001
,
1000
0000
1100
0000
0100
0010
0001
1000
,
0001
0101
0001
1001
,
0001
0011
0001
1001
,
0001
0000
0101
0000
0100
0010
1000
0001
,
0010
0011
0010
0110
,
0010
1010
0010
0110
,
0010
0000
0011
0000
0001
1000
0010
0100
,
0010
1010
0010
0110
,
0010
0011
0010
0110
,
0010
0000
0000
0000
1010
0000
0000
0000
1000
0000
0001
0000
0010
0000
0100
1000
,
0001
0011
0001
1001
,
0001
0101
0001
1001
,
0001
0000
0011
0000
0010
0100
1000
0001
,
1000
1010
1000
1001
,
1000
1100
1000
1001
,
1000
0000
1010
0000
0010
0100
0001
1000
,
0200
1300
0200
0310
,
0200
0301
0200
0310
,
0200
0000
1300
0000
1000
0100
0010
0001
,
0200
0301
0200
0310
,
0200
1300
0200
0310
,
0200
0000
0301
0000
0001
1000
0100
0010
,
1001
0000
0000
0000
,
0000
0000
1001
0101
,
0001
1000
0100
0000
1000
0001
0100
0000
,
1001
0000
1100
0000
1000
0001
0100
0000
,
0001
1000
0100
0000
1001
0000
0011
0000
,
0001
1000
0010
0000
1000
0001
0010
0000
,
1001
0000
1010
0000
1000
0001
0010
0000
,
0001
1000
0010
0000
0101
0000
1010
0000
,
1000
0100
0001
0000
0001
0100
1000
0000
,
1100
0000
0011
0000
0001
0100
1000
0000
,
1000
0100
0001
0000
0011
0000
1100
0000
,
0001
0010
1000
0000
1000
0010
0001
0000
,
0011
0000
1100
0000
1000
0010
0001
0000
,
0001
0010
1000
0000
1010
1000
1001
0000
,
0001
0010
0100
0000
0100
1000
0010
0000
,
0100
0001
1001
0000
0001
0010
0100
0000
,
0100
1000
0010
1000
0001
0100
1010
0000
,
1000
0100
0010
0000
0010
0001
0100
0000
,
0010
1000
1001
0000
1000
0100
0010
0000
,
0010
0001
0100
0001
1000
0000
0001
0100
,
0000
1000
0100
0001
1000
0100
1000
0000
,
1010
0000
0101
0000
0001
0010
0100
0000
,
0100
1000
0001
0000
0101
0000
1010
0000
,
1000
0100
0010
0000
0010
0001
1000
0000
,
0101
0000
1010
0000
1000
0100
0001
0000
,
0001
0100
1000
0001
1001
0000
0000
0000
;

//--------------- dance-single - eternal sleeper TiKAL ----------------
#NOTES:
     dance-single:
     eternal sleeper TiKAL:
     Challenge:
     12:
     0,0,0,0,0:
0000
0000
0000
0000
,
0000
0000
0000
0000
2000
3000
0002
0003
,
0200
0300
0020
2030
3200
0300
1000
0002
,
0203
0320
2030
3000
0001
2000
3200
0320
,
2030
3000
0010
0000
0002
0000
2003
3200
,
0320
0032
0203
0320
2030
3000
0200
0300
,
0020
0000
0000
0032
0000
0000
0203
0000
0000
0300
0000
0000
0020
0000
0000
0030
0000
0000
2000
0000
0000
0000
3000
0000
,
0000
0000
0200
0000
0000
0000
0000
0300
0000
0000
0000
0000
0020
0000
0000
0000
0000
0000
0030
0000
0000
0000
0000
0000
,
0001
0000
0001
0000
0100
0000
0001
0000
0001
0000
1000
0000
0001
0010
0001
0000
,
1000
0000
1000
0000
0010
0000
0100
0010
1000
0000
1000
0000
0001
0000
1000
0000
,
1000
0000
0100
0000
0010
0001
1000
0000
0010
0000
1000
0000
0001
0000
0010
0000
,
0001
0000
1000
0000
1000
0000
0010
0000
0100
0010
1000
0000
0001
0000
0010
0000
,
0001
0000
1000
0000
0010
0000
1000
0001
0010
0000
0100
0000
0100
0000
1000
0000
,
0100
0000
1000
0000
0001
0000
0100
0001
0100
0010
1000
0000
0100
0000
1000
0001
,
1000
0000
1000
0000
0010
0000
1000
0000
1000
0000
0001
0000
0010
0000
0100
0010
,
0001
0000
0001
0000
1000
0000
0001
1000
0010
0000
0010
0000
0100
0000
0010
0000
,
1000
0000
0001
0000
1000
0000
0100
0000
0010
0000
0010
0000
0100
0000
0010
0100
,
1000
0000
1000
0000
0010
0000
0100
0000
0100
0000
0001
0000
1000
0000
0001
1000
,
0100
0000
0100
0000
0010
0000
0001
0010
0100
0000
0100
0000
1000
0000
0001
0000
,
0100
0000
0001
0000
0010
0000
0100
0010
0001
0000
0010
0000
0100
1000
0001
0100
,
0020
0000
0000
0000
0130
0000
0001
0000
0001
0000
1000
0000
0100
1000
0001
0000
,
0100
0000
0010
0000
1000
0000
0001
1000
0200
0000
0310
0000
0001
0000
1000
0001
,
0200
0000
0310
0000
0100
0001
1000
0000
0200
0000
0310
0000
0010
0000
0004
0000
,
1003
0000
0010
1000
0001
0000
0010
0001
1000
0010
0100
0000
0001
0000
0010
0000
,
0100
0000
0100
0000
0010
0100
0010
0001
1000
0000
0001
1000
0010
0000
1000
0000
,
0001
0000
0010
0000
0100
0000
0010
0001
1000
0010
0100
0001
1000
0000
0001
1000
,
0010
0000
0010
0000
0100
0010
1000
0000
0001
0000
0001
0000
0010
0000
0100
0010
,
0001
0000
0001
0000
1000
0000
0001
1000
0010
0000
0100
0000
0001
0000
0100
0000
,
0010
0000
0100
0000
1000
0000
0100
0010
1000
0000
0001
0010
0001
1000
0100
1000
,
0001
0000
0001
0000
0100
0000
0010
0000
0010
0000
1000
0000
0100
0000
0010
0001
,
1000
0000
0001
0100
0010
0100
0001
1000
0001
0000
0001
0000
0010
0000
0100
0000
,
0100
0000
1000
0000
0010
0000
1000
0001
0010
0000
0100
0000
0010
0001
1000
0010
,
0200
0000
0000
0000
0310
0000
1000
0000
1000
0000
0001
0000
0010
0001
1000
0000
,
0010
0000
0100
0000
0001
0000
1000
0001
0010
0100
0010
0000
0001
0000
1000
0001
,
0010
0000
0100
0000
1000
0001
0100
0001
1000
0010
0100
0000
0010
0000
4000
0000
,
3001
0000
0100
0001
1000
0100
1000
0000
0001
0100
0010
0000
1000
0000
0100
0000
,
0010
0000
0010
0000
0100
0000
0010
0100
1000
0000
0001
1000
0100
0000
1000
0000
,
0001
0000
0100
0000
0010
0000
0100
0001
1000
0100
0010
0001
1000
0001
0400
0000
,
0310
1000
0001
0100
0010
0000
1000
0000
0001
0000
0001
0000
0010
0000
0100
0010
,
0001
0000
0001
0000
1000
0000
0001
1000
0100
0000
0010
0000
0001
0000
0010
0000
,
0100
0000
0010
0000
1000
0000
0010
0100
1000
0000
0001
0100
0001
1000
0010
1000
,
0001
0000
0001
0000
0010
0000
0100
0000
0100
0000
1000
0000
0010
0000
0100
0001
,
1000
0000
0001
0010
0100
0010
0001
1000
0001
0000
0001
0000
0100
0000
0010
0000
,
0010
0000
1000
0000
0100
0000
1000
0001
0100
0000
0010
0000
0100
0001
1000
0100
,
0020
0000
0000
0000
0130
0000
1000
0000
1000
0000
0001
0000
0100
0001
1000
0000
,
0100
0000
0010
0000
0001
0000
1000
0001
0100
0010
0100
0000
0001
0000
1000
0001
,
0100
0000
0010
0000
1000
0001
0010
0001
1000
0100
0010
0000
0100
0000
4000
0000
,
3001
0000
0010
0001
1000
0010
1000
0000
0001
0010
0100
0000
1000
0000
0010
0000
,
0100
0000
0100
0000
0010
0000
0100
0010
1000
0000
0001
1000
0010
0000
1000
0000
,
0001
0000
0010
0000
0100
0000
0010
0001
1000
0100
0010
0001
1000
0001
0400
0000
,
0320
0000
0000
0000
1030
0000
0000
0000
0002
0003
0000
0000
0010
0000
0000
0000
0200
0000
0000
0000
0310
0000
0000
0000
0002
0003
0000
0000
1000
0000
0000
0000
,
0020
0000
0000
0000
0130
0000
0000
0000
0002
0003
0000
0000
1000
0000
0000
0000
2000
0000
0000
0000
3100
0000
0000
0000
2000
3000
0001
0000
0100
0000
0000
0000
,
0020
0000
0000
0000
0130
0000
0000
0000
2000
3000
0100
0000
0010
0000
1000
0000
0002
0000
0000
0000
0013
0000
0100
0000
2000
3000
0001
0000
0100
0000
0000
0000
,
0020
0000
0000
0000
1030
0000
0000
0000
0002
0003
0000
0000
1000
0000
0000
0000
0200
0000
0000
0000
0310
0000
0000
0000
0002
0003
0000
0000
0100
0000
0000
0000
,
2000
0000
0000
0000
3100
0000
0000
0000
0002
0003
0000
0000
1000
0000
0000
0000
2000
0000
0000
0000
3100
0000
0000
0000
2000
3000
0000
0000
0001
0000
0000
0000
,
0020
0000
0000
0000
0130
0000
0000
0000
2000
3000
0000
0000
0001
0000
1000
0000
0010
0000
0000
0000
0100
0000
0010
0000
2000
3000
0001
0000
0040
0000
0000
0000
,
M23M
0300
2000
3000
0020
0030
0200
0302
,
0023
0000
0030
0000
0200
0000
0300
0000
M21M
0000
0000
0000
1300
0000
0001
0010
,
0001
1000
0001
0000
0100
0000
0010
0100
0001
0000
0100
0000
0100
0000
0010
1000
,
0100
0000
0010
0000
0001
0000
1000
0010
1000
0001
1000
0000
0100
0000
0010
0001
,
1000
0000
0100
0000
0100
0000
1000
0001
0100
0000
0010
0000
1000
0000
0001
0010
,
0100
0010
0001
0000
1000
0000
0010
0100
0010
0000
1000
0000
0001
0010
0001
1000
,
0001
0000
0100
0000
0010
0000
0100
0001
1000
0100
1000
0000
0010
0000
0100
0001
,
1000
0000
0100
0000
0010
0001
1000
0000
0010
0000
0100
0000
0001
0000
1000
0100
,
1000
0001
1000
0000
0010
0000
0100
0010
1000
0000
0010
0000
0010
0000
0100
0001
,
0010
0000
0100
0000
1000
0000
0001
0100
0001
1000
0001
0000
0010
0000
0100
1000
,
0001
0000
0010
0000
0010
0000
0001
1000
0010
0000
0100
0000
0001
0000
1000
0100
,
0010
0100
1000
0000
0001
0000
0100
0010
0100
0000
0001
0000
1000
0100
1000
0001
,
1000
0000
0010
0000
0100
0000
0010
1000
0001
0010
0001
0000
0100
0000
0010
1000
,
0001
0000
0010
0000
0100
0000
1000
0000
0020
0000
0000
0000
0130
0000
0001
0100
,
0001
1000
0001
0000
0010
0000
0100
0010
0001
0000
0010
0000
0010
0000
0100
1000
,
0010
0000
0100
0000
0001
0000
1000
0100
1000
0001
1000
0000
0010
0000
0100
0001
,
1000
0000
0010
0000
0010
0000
1000
0001
0010
0000
0100
0000
1000
0000
0001
0100
,
0010
0100
0001
0000
1000
0000
0100
0010
0100
0000
1000
0000
0001
0100
0001
1000
,
0001
0000
0010
0000
0100
0000
0010
0001
1000
0010
1000
0000
0100
0000
0010
0001
,
1000
0000
0010
0000
0100
0001
1000
0000
0100
0010
0001
0010
0100
0000
1000
0010
,
1000
0001
1000
0000
0100
0000
0010
0001
0100
0000
0010
0000
0010
0000
0100
0001
,
1000
0000
0100
0000
0010
0000
0001
0010
0001
1000
0001
0000
0100
0000
0010
1000
,
0001
0000
0100
0000
0100
0000
0001
1000
0100
0000
0010
0000
0001
0000
1000
0010
,
0100
0010
1000
0000
0001
0000
0010
0100
0010
0000
0001
0000
1000
0010
1000
0001
,
1000
0000
0100
0000
0010
0000
0100
1000
0001
0100
0001
0000
0010
0000
0100
1000
,
0001
0100
0010
1000
2002
0000
0000
0000
,
0000
0000
0000
0000
,
3003
0000
0000
0000
;
