#TITLE:Тримай;
#SUBTITLE:;
#ARTIST:Настя Каменских;
#TITLETRANSLIT:Trymaj;
#SUBTITLETRANSLIT:;
#ARTISTTRANSLIT:Nastya Kamenskyx;
#GENRE:;
#CREDIT:;
#BANNER:[VIP Room Round 2] - Trymaj.png;
#BACKGROUND:[VIP Room Round 2] - Trymaj-bg.png;
#LYRICSPATH:[VIP Room Round 2] - Trymaj.lrc;
#CDTITLE:cdtitle.png;
#MUSIC:[VIP Room Round 2] - Trymaj.ogg;
#OFFSET:0.000000;
#SAMPLESTART:39.743717;
#SAMPLELENGTH:18.285713;
#SELECTABLE:YES;
#BPMS:0.000000=80.000000
,50.000000=105.000000
;
#STOPS:
;
#BGCHANGES:0.850=[VIP Room Round 2] - Trymaj.avi=1.000=1=0=0=StretchNoLoop==CrossFade==,
99999=-nosongbg-=1.000=0=0=0 // don't automatically add -songbackground-
;
#KEYSOUNDS:;
#ATTACKS:;

//---------------dance-single - ----------------
#NOTES:
     dance-single:
     C 01 X 02:
     Beginner:
     1:
     0.101247,0.137535,0.021051,0.147359,0.000000,101.000000,98.000000,3.000000,21.000000,0.000000,0.000000,0.101247,0.137535,0.021051,0.147359,0.000000,101.000000,98.000000,3.000000,21.000000,0.000000,0.000000:
0000
0000
0000
0000
,
0000
0000
0000
0000
,
0000
0000
0000
0000
,
0000
0000
0000
0000
,
0000
0000
0000
0000
,
0000
0000
2000
0000
,
3000
0000
0002
0000
,
0003
0000
0200
0000
,
0300
0000
0010
0000
,
0020
0000
0030
0000
,
2000
0000
3000
0000
,
0001
0000
0001
0000
,
0010
0000
0020
0000
,
0030
0000
0100
0000
,
0100
0000
1000
0000
,
1000
0000
0010
0000
,
0010
0000
1000
0000
,
1000
0000
0001
0001
,
0001
0000
0010
0000
,
0010
0000
0100
0100
,
0100
0000
1000
0000
,
1000
0000
0002
0003
,
0020
0030
0200
0300
,
1000
1000
0002
0003
,
0200
0300
0020
0030
,
1000
0000
0000
0001
,
0001
0000
0001
0000
,
0100
0000
0010
0000
,
1000
0000
0002
0000
,
0003
0000
0000
1000
,
1000
0000
1000
0000
,
0010
0000
0100
0000
,
0001
0000
0001
0000
,
2000
0000
3000
0000
,
0020
0000
0030
0000
,
0200
0000
0300
0000
,
0001
0001
0002
0003
,
0000
0000
0000
0000
,
1001
0000
1000
0000
,
0100
0100
0100
0000
,
0010
0000
0010
0000
,
0001
1000
0001
0000
,
1000
0000
1000
0000
,
0100
0010
0100
0000
,
0010
0000
0010
0000
,
0000
0000
0000
0000
,
0110
0000
1000
0000
,
0001
0000
1000
0000
,
0010
0000
0100
0000
,
0010
0000
0100
0000
,
0001
1000
0002
0003
,
1000
0001
2000
3000
,
0002
0003
0200
0300
,
0001
0100
0001
0000
,
1000
0000
0001
0000
,
1000
0000
0001
0000
,
1001
0000
0000
0000
;

//---------------dance-single - ----------------
#NOTES:
     dance-single:
     C 03 X 05:
     Easy:
     3:
     0.182445,0.275070,0.126308,0.126308,0.000000,182.000000,164.000000,18.000000,18.000000,0.000000,0.000000,0.182445,0.275070,0.126308,0.126308,0.000000,182.000000,164.000000,18.000000,18.000000,0.000000,0.000000:
// measure 0
0000
0000
0000
0000
,  // measure 1
0000
0000
0000
0000
,  // measure 2
0000
0000
0000
0000
,  // measure 3
0000
0000
0000
0000
,  // measure 4
0000
0000
0000
0000
,  // measure 5
0000
0000
1000
0100
,  // measure 6
0010
0000
0001
0100
,  // measure 7
0010
0000
1000
0001
,  // measure 8
0010
0000
0001
0000
,  // measure 9
2000
0000
3100
0000
,  // measure 10
0002
0000
0103
0000
,  // measure 11
2000
0000
3010
0000
,  // measure 12
0002
0000
0023
0000
,  // measure 13
0030
0011
1000
0100
,  // measure 14
1000
0000
0001
0001
,  // measure 15
0001
0000
1000
0010
,  // measure 16
1000
0000
0001
0001
,  // measure 17
0001
0010
0010
0000
0110
0000
0100
0000
,  // measure 18
1000
0000
0001
1000
,  // measure 19
0001
1000
0010
0100
,  // measure 20
0010
0000
1000
0100
,  // measure 21
0010
0000
0002
0103
,  // measure 22
0020
0130
0002
0103
,  // measure 23
0020
0000
2030
3100
,  // measure 24
0020
0130
2000
3100
,  // measure 25
0010
0000
1001
0001
,  // measure 26
1000
0000
0001
0010
,  // measure 27
0100
0000
1000
0010
,  // measure 28
0100
0000
0001
1000
,  // measure 29
0100
0000
1000
1010
,  // measure 30
0010
0000
1000
1001
,  // measure 31
0001
0000
1000
1100
,  // measure 32
0100
0000
1000
0100
,  // measure 33
2000
0010
3002
0000
,  // measure 34
2003
0100
3002
0000
,  // measure 35
0023
0001
0230
0000
,  // measure 36
0310
0000
0010
0000
0010
0100
0010
0000
,  // measure 37
0000
0000
0000
0001
,  // measure 38
1001
1000
0010
0100
,  // measure 39
0001
0010
0100
1000
,  // measure 40
0100
0000
0010
0000
0001
1000
1000
0000
,  // measure 41
1001
0001
0100
0010
,  // measure 42
1000
0001
0010
0100
,  // measure 43
1000
0001
1000
0000
,  // measure 44
0100
0010
0100
0000
,  // measure 45
0000
0000
0000
0000
,  // measure 46
1000
1100
0001
0101
,  // measure 47
1000
1100
0001
0101
,  // measure 48
1000
1010
0001
0011
,  // measure 49
1000
1010
0001
0001
,  // measure 50
1000
0100
0010
0100
,  // measure 51
1000
0010
0100
0100
,  // measure 52
0001
0100
1000
0100
,  // measure 53
0001
0010
1000
0010
,  // measure 54
0110
0000
0000
1000
0000
0000
0000
0000
,  // measure 55
0110
0000
0000
0001
0000
0010
0010
0000
,  // measure 56
0110
0000
0000
0000
;

//---------------dance-single - ----------------
#NOTES:
     dance-single:
     C 06 X 08:
     Medium:
     6:
     0.292713,0.334014,0.168410,0.105257,0.129816,292.000000,268.000000,24.000000,15.000000,0.000000,0.000000,0.292713,0.334014,0.168410,0.105257,0.129816,292.000000,268.000000,24.000000,15.000000,0.000000,0.000000:
// measure 0
0000
0000
0000
0000
,  // measure 1
0000
0000
0000
0000
,  // measure 2
0000
0000
0000
0000
,  // measure 3
0000
0000
0000
0000
,  // measure 4
0000
0000
0000
0000
,  // measure 5
0000
0000
0000
0000
1000
0010
0200
0000
,  // measure 6
0301
0000
0000
0000
0001
0010
0200
0000
,  // measure 7
1300
0000
0100
0000
1000
0001
0200
0000
,  // measure 8
0310
0000
0100
0000
0001
0000
1000
1000
,  // measure 9
0002
0000
0000
0013
0100
0000
0000
1000
,  // measure 10
0001
0000
0001
1000
0001
0000
0000
0100
,  // measure 11
0010
0000
0000
0010
1000
0000
0001
0000
,  // measure 12
1000
0010
0100
0001
0020
0000
0000
0000
,  // measure 13
0030
0011
1000
0101
,  // measure 14
1000
0000
0101
0000
0001
0100
1000
0000
,  // measure 15
1000
0100
0001
0000
1000
0000
0011
0000
,  // measure 16
1000
0000
0011
0000
0001
0010
0100
1000
,  // measure 17
0010
0100
0100
0000
0001
0000
1100
0000
,  // measure 18
0001
0000
1100
0000
1000
0100
0001
0000
,  // measure 19
0001
0100
1000
0000
0001
0000
1010
0000
,  // measure 20
0001
0000
1010
0000
1000
0100
0010
0001
,  // measure 21
2000
0000
0000
0000
3002
0000
0000
0000
1003
0000
0000
0100
0000
0000
1000
0000
,  // measure 22
0001
0000
0000
0100
0000
0000
0001
0000
1000
0000
0000
0100
0000
0000
1000
0000
,  // measure 23
0001
0000
0000
0100
0000
0000
0100
0000
0010
0000
0000
0100
0000
0000
0001
0000
,  // measure 24
0010
0000
0000
0100
0000
0000
1000
0000
0001
0000
0000
0010
0000
0000
0001
0000
,  // measure 25
1000
0000
0000
0001
0000
0000
1000
0000
1001
0000
0000
0000
0001
0000
0000
0000
,  // measure 26
0010
0100
1000
0010
,  // measure 27
0100
0010
0000
0010
0100
0000
0000
0000
0001
0000
0000
0000
1000
0000
0000
0000
,  // measure 28
0100
1000
0010
0100
,  // measure 29
0001
0000
1000
0000
0100
1000
0100
0000
0010
0000
0000
0010
0001
0000
0010
0000
,  // measure 30
0000
0010
0000
0000
0011
0000
0000
0000
0100
0000
0000
0100
1000
0000
0100
0000
,  // measure 31
0000
0100
0000
0000
1100
0000
0000
0000
1000
0000
0000
1000
0010
0000
1000
0000
,  // measure 32
0000
1000
0000
0000
1010
0000
0000
0000
0001
0000
0100
0000
0010
0000
1000
0000
,  // measure 33
0002
0000
0000
0010
1003
0000
0000
0100
,  // measure 34
2000
0000
0000
0010
3001
0000
0000
0010
,  // measure 35
0002
0000
0000
0100
1003
0000
0010
0000
,  // measure 36
2000
0000
0000
0000
0100
0000
0000
0000
3001
0000
0001
1000
0001
0000
0000
0000
,  // measure 37
0000
0000
0000
1010
,  // measure 38
0001
0010
1000
0001
1000
0010
0001
0000
,  // measure 39
1000
0101
1000
0011
,  // measure 40
1000
0000
0000
0010
0000
0100
0000
0001
0000
0000
0010
0000
0010
0000
0000
0000
,  // measure 41
0001
1010
0001
1100
,  // measure 42
1000
0010
0001
1000
0001
0010
1000
0000
,  // measure 43
0001
0110
1000
1001
,  // measure 44
0001
0000
0000
1000
0000
0010
0000
0100
0000
0000
0000
0000
0001
0000
0000
0000
,  // measure 45
0020
2030
3200
0302
,  // measure 46
1003
0000
0000
0100
0000
0000
1000
0000
0001
0000
0000
0100
0000
0000
0001
0000
,  // measure 47
1000
0000
0000
0001
0000
0000
0100
0000
0001
0000
0000
1000
0000
0000
0100
0000
,  // measure 48
0010
0000
0000
0100
0000
0000
1000
0000
0010
0000
0000
0100
0000
0000
0001
0000
,  // measure 49
0100
0000
0000
0001
0000
0000
1000
0000
0010
0000
0000
0000
0110
0000
0000
0000
,  // measure 50
1000
0000
0000
0001
0000
0000
0100
0000
0001
0000
0100
0000
1000
0000
0100
0000
,  // measure 51
0001
0000
0000
1000
0000
0000
0100
0000
1000
0000
0100
0000
0001
0000
0100
0000
,  // measure 52
0010
0000
0000
0100
0000
0010
0001
0000
0010
0000
0000
0100
0000
0010
0001
0000
,  // measure 53
1000
0010
0001
0010
1000
0001
1000
0000
,  // measure 54
1001
0000
0100
0010
0000
0010
0100
0000
,  // measure 55
1001
0000
0010
0100
0000
0010
0010
0100
,  // measure 56
1001
0000
0000
0000
;

//---------------dance-single - ----------------
#NOTES:
     dance-single:
     C 09 X 13:
     Challenge:
     9:
     0.458116,0.510845,0.217530,0.140342,0.445586,457.000000,426.000000,31.000000,20.000000,0.000000,0.000000,0.458116,0.510845,0.217530,0.140342,0.445586,457.000000,426.000000,31.000000,20.000000,0.000000,0.000000:
// measure 0
0000
0000
0000
0000
,  // measure 1
0000
0000
0000
0000
,  // measure 2
0000
0000
0000
0000
,  // measure 3
0000
0000
0000
0000
,  // measure 4
0000
0000
0000
0000
,  // measure 5
0000
0000
0000
0000
0000
0000
0000
0000
1000
0100
0010
0100
1000
0000
0000
0000
,  // measure 6
0001
0000
0000
0000
0000
0000
0000
0000
0001
0100
0010
0100
0001
0000
0000
0000
,  // measure 7
1000
0000
0000
0000
0100
0000
0000
0000
1000
0001
0100
0001
1000
0000
0001
0000
,  // measure 8
0010
0000
0000
0000
0100
0000
0000
0000
2000
0000
0000
0000
3000
1000
0100
0010
,  // measure 9
0002
0000
0000
0000
0000
0000
1000
0000
0013
0000
0001
1000
0100
0000
1000
0000
,  // measure 10
0001
0000
0001
0001
0000
1000
0000
0010
0000
0100
0000
0100
0000
0000
0000
0000
,  // measure 11
0001
0010
0100
1000
0001
0000
0000
0000
1000
0010
0100
0001
1000
0000
0000
0000
,  // measure 12
0010
0100
1000
0100
0010
0000
1000
0000
0200
0000
0000
0000
0000
0000
0000
0000
,  // measure 13
0300
0000
0110
0000
0001
0100
0011
0100
,  // measure 14
0001
0010
0101
0010
0001
0100
1000
0001
,  // measure 15
1000
0100
0001
0001
1000
0100
1010
0100
,  // measure 16
1000
0010
1100
0010
1000
0100
0001
0100
,  // measure 17
1000
0000
0001
0000
0001
0000
0000
0000
0100
0000
0001
0010
0101
0000
0010
0000
,  // measure 18
0100
0000
1000
0010
1100
0000
0010
0000
1000
0000
0100
0000
0001
0000
1000
0000
,  // measure 19
0010
0000
0001
0000
1000
0000
1000
0000
0010
0000
1000
0100
1010
0000
0100
0000
,  // measure 20
0010
0000
0001
0100
0011
0000
0100
0000
0001
0000
0010
0000
1000
0000
0010
0000
,  // measure 21
0001
1000
0001
1000
0001
0000
0000
0000
1000
0000
0001
0100
0000
0100
0001
0000
,  // measure 22
0001
0000
1000
0100
0000
0100
1000
0000
1000
0000
0001
0100
0000
0001
1000
0000
,  // measure 23
0001
0000
1000
0100
0000
1000
0001
0000
0010
0000
0001
0100
0000
0010
1000
0000
,  // measure 24
0010
0000
1000
0100
0000
0010
0001
0000
1000
0000
0001
0010
0000
0010
0001
0000
,  // measure 25
1001
0000
0000
0110
0000
0000
1000
0010
0100
0000
0001
0010
0000
0000
0010
0100
,  // measure 26
0000
0000
0100
1000
0000
0000
1000
0001
0000
0000
1000
0010
0000
0000
0010
0100
,  // measure 27
0000
0000
0100
0001
0000
0000
0001
1000
0000
0000
0001
0100
0000
0000
0100
0010
,  // measure 28
0000
0000
0010
1000
0000
0000
1000
0001
0000
0000
1000
0100
0000
0000
0100
0010
,  // measure 29
0000
0000
0001
0000
1000
0001
1000
0000
0000
0000
1000
0100
1010
0000
0001
0100
,  // measure 30
0000
0000
0001
0100
0011
0000
1000
0100
0000
0000
1000
0010
1100
0000
0001
0010
,  // measure 31
0000
0000
0001
0010
0101
0000
1000
0010
0000
0000
0100
0001
1100
0000
1000
0001
,  // measure 32
0000
0000
0010
0001
1010
0000
0001
1000
0000
0000
0100
1000
0101
0000
0010
0100
,  // measure 33
2000
0000
0000
3200
0000
0000
0302
0000
0000
0023
0000
0000
1030
0000
0000
0000
,  // measure 34
0002
0000
0000
0203
0000
0000
2300
0000
0000
3020
0000
0000
0031
0000
0000
0000
,  // measure 35
2000
0000
0000
3020
0000
0000
0032
0000
0000
0203
0000
0000
1300
0000
0000
0000
,  // measure 36
0002
0000
0023
0000
2030
0000
3200
0000
0302
0000
1003
0001
1000
0000
0000
0000
,  // measure 37
0000
0000
0000
1001
,  // measure 38
0001
0000
0010
0000
0101
0000
1000
0001
0100
0000
0010
0000
1100
0000
0001
0000
,  // measure 39
1000
0000
0100
0000
1010
0000
0001
1000
0010
0000
0100
0000
0011
0000
1000
0100
,  // measure 40
0001
0000
0100
0000
0010
0000
0100
0000
1000
0000
0001
1000
0001
0000
0000
0000
,  // measure 41
0010
0000
0001
1000
0011
0000
1000
0010
0100
0000
0001
1000
0101
0000
0010
0000
,  // measure 42
0001
0010
1000
0001
0100
0001
1000
0010
,  // measure 43
0100
0000
1000
0001
1100
0000
0001
0100
0010
0000
1000
0001
1010
0000
0001
0000
,  // measure 44
1000
0010
0001
1000
0100
1000
0001
0010
,  // measure 45
0100
0110
0010
0110
,  // measure 46
0001
0000
1000
0100
0000
1000
0001
0000
1000
0000
0001
0100
0000
0001
1000
0000
,  // measure 47
0001
0000
0001
1000
0000
1000
0100
0000
1000
0000
1000
0001
0000
0100
0100
0000
,  // measure 48
0010
0000
1000
0100
0000
1000
0001
0000
0010
0000
0001
0100
0000
0001
1000
0000
,  // measure 49
0001
0000
1000
0100
0000
1000
0001
0000
1000
0000
0010
0001
0000
0010
0010
0000
,  // measure 50
1000
0000
0100
0001
0000
0100
1000
0000
0001
0000
1000
0100
1000
0000
1000
0000
,  // measure 51
0001
0000
0100
1000
0000
0100
0001
0000
1000
0000
0001
1000
0000
0100
0100
0000
,  // measure 52
0010
0000
0001
0100
1000
0001
0010
1000
0010
0000
1000
0100
0001
1000
0010
0001
,  // measure 53
1000
0000
0001
0010
0000
0001
1000
0000
0100
0000
0010
0000
0001
0000
1000
0000
,  // measure 54
1001
0000
0001
0001
0000
0000
0010
0010
0000
0000
0100
0100
0000
0000
1000
1000
,  // measure 55
0000
0000
0001
0001
0000
0000
0100
0100
0000
0000
0010
0010
0000
0000
1000
1000
,  // measure 56
0011
0000
0000
0000
;

//---------------dance-single - ----------------
#NOTES:
     dance-single:
     C 07 X 11:
     Hard:
     7:
     0.368899,0.412606,0.042103,0.315770,0.456112,368.000000,362.000000,6.000000,45.000000,0.000000,0.000000,0.368899,0.412606,0.042103,0.315770,0.456112,368.000000,362.000000,6.000000,45.000000,0.000000,0.000000:
// measure 0
0000
0000
0000
0000
,  // measure 1
0000
0000
0000
0000
,  // measure 2
0000
0000
0000
0000
,  // measure 3
0000
0000
0000
0000
,  // measure 4
0000
0000
0000
0000
,  // measure 5
0000
0000
0000
0002
,  // measure 6
2003
0000
0000
0000
3000
0000
0000
0000
0001
0000
0000
0100
0000
0000
0010
0000
,  // measure 7
1000
0000
0000
0001
1000
0100
0001
0100
,  // measure 8
1000
0000
0001
0000
0000
0000
0000
0000
1000
0000
1000
0000
0000
0100
0010
0000
,  // measure 9
0002
0000
0000
0103
0010
0000
1000
0001
,  // measure 10
0010
0000
0001
0010
0000
0100
0000
1000
0000
0001
0000
0001
0000
0000
1000
0000
,  // measure 11
0010
0000
0100
0100
0000
0001
0000
2000
0000
0000
0000
0000
3000
0000
0000
0000
,  // measure 12
0001
0000
0001
0000
1000
0000
0010
0100
0020
0000
0000
0000
0000
0000
0000
0000
,  // measure 13
0030
0000
1010
0000
2000
0001
3020
0000
,  // measure 14
2030
0000
0001
0000
3010
0000
0100
0000
0002
0000
0000
0013
0000
0100
0000
0100
,  // measure 15
0000
1000
0000
1000
0000
0001
0000
0001
0200
0000
0001
0000
0320
0000
0000
0000
,  // measure 16
0230
0000
0001
0000
0320
0000
1000
0000
0031
0000
0000
0010
0000
1000
0000
0010
,  // measure 17
0000
0001
0001
0000
2000
0100
3020
0000
,  // measure 18
0230
0000
1000
0000
0302
0000
1000
0000
0103
0000
0000
0100
0000
0001
0000
0100
,  // measure 19
0000
0010
0000
0010
0000
1000
0010
0000
0200
0000
1000
0000
0302
0000
0000
0000
,  // measure 20
2003
0000
0100
0000
3020
0000
1000
0000
0130
0000
0100
0000
0001
1000
0000
0002
,  // measure 21
0000
0000
0000
0000
0003
0000
0000
0000
1000
0000
0000
0100
0000
1000
0001
0000
,  // measure 22
1000
0000
0000
0100
0000
0100
1000
0000
0001
0000
0000
0100
0000
0001
1000
0000
,  // measure 23
0001
0000
0000
0100
0000
0001
0001
0000
0010
0000
0000
0100
0000
0010
0001
0000
,  // measure 24
0010
0000
0000
0100
0000
1000
0010
0000
1000
0000
0000
0010
0000
1000
0001
0000
,  // measure 25
1001
0000
0000
0110
0000
0000
0001
0010
0100
0000
0000
0000
2000
0000
0000
0000
,  // measure 26
3002
0000
0000
0000
0103
0000
0000
0000
0001
0000
0001
1000
0000
1000
0100
0000
,  // measure 27
0000
0010
0000
0000
0100
0000
0000
0000
1000
0000
1000
0001
0000
0001
0100
0000
,  // measure 28
0000
0010
0000
0000
0100
0000
0000
0000
0001
0000
0100
0010
0000
2000
0000
0200
,  // measure 29
0000
3000
0300
0000
1000
0000
0012
0000
,  // measure 30
0203
0000
0000
0000
0310
0000
0000
0000
1000
0000
0100
0010
0000
0100
1000
0000
,  // measure 31
0000
0000
0000
0001
0000
0000
0000
0000
0000
0000
0000
0000
0100
0000
0000
0000
0000
0000
0001
0000
0000
0000
0000
0000
1000
0000
0000
0000
0010
0000
0000
0000
1000
0000
0000
0000
0001
0000
0000
0000
0100
0000
0000
0000
0001
0000
0000
0000
,  // measure 32
2000
0000
0000
0000
0000
0000
0000
0000
3001
0000
0000
0000
0000
0000
0000
0000
0000
0000
0000
0000
0000
0000
0000
0000
0010
0000
0000
0000
0000
0000
0010
0000
0000
0000
0000
0000
0000
0000
0000
0100
0000
0000
1000
0000
0000
0001
0000
0000
,  // measure 33
0020
0000
0000
0000
0000
0000
0031
0100
0001
0000
0000
0000
0000
0000
1000
0000
,  // measure 34
0001
0000
1000
0001
0000
0010
0000
0100
0000
1000
0000
1000
0000
0000
0010
1000
,  // measure 35
0001
0000
0010
0010
0000
0100
0000
0020
0000
0000
0000
0000
0031
0000
0000
0000
,  // measure 36
1000
0000
0001
0010
0100
0000
1000
0100
0010
0000
0001
0100
0010
0000
0000
0000
,  // measure 37
2000
0000
0000
0000
3020
0000
0000
0032
0000
0000
0000
0000
0013
0000
0100
0010
,  // measure 38
0200
0000
0000
0301
0000
0010
0000
0010
0000
0100
0000
0100
0000
1000
0001
1000
,  // measure 39
0002
0000
0010
0000
0203
0000
0001
0300
0020
0000
0100
0000
1030
0000
0010
1000
,  // measure 40
0200
0000
0000
0001
0000
0010
0000
1300
0000
0001
1000
0000
1000
0000
0000
0000
,  // measure 41
0002
1000
0023
1000
0032
0100
1003
0010
,  // measure 42
0100
0000
0001
1000
0000
0100
0000
0010
0000
1000
0000
1000
0000
0010
0001
0000
,  // measure 43
2000
0001
3020
0001
2030
0100
3001
0010
,  // measure 44
0100
0000
1000
0001
0100
0010
0000
0100
0000
0000
0001
0000
0010
0000
0000
0000
,  // measure 45
0001
0100
1000
0100
,  // measure 46
0001
0000
0000
1000
0000
0100
1000
0000
0001
0000
0000
1000
0000
1000
0100
0000
,  // measure 47
1000
0000
0000
0001
0000
0100
0001
0000
1000
0000
0000
0001
0000
0100
0100
0000
,  // measure 48
0010
0000
0000
0100
0000
0010
1000
0000
0010
0000
0000
0100
0000
0001
0010
0000
,  // measure 49
0001
0100
1000
0100
0001
0010
1000
0010
,  // measure 50
0001
0000
0000
1000
0000
1000
0100
0000
1000
0001
0000
0001
0100
0000
0001
0000
,  // measure 51
1000
0000
0000
0001
0000
0001
0100
0000
0001
1000
0000
1000
0100
0000
1000
0000
,  // measure 52
0001
0010
0000
0100
0000
0010
0001
0000
1000
0010
0000
0100
0000
0010
1000
0000
,  // measure 53
0001
0010
0000
1000
0000
0010
0001
0000
1000
0000
0010
0000
0100
0000
0001
0000
,  // measure 54
0101
0001
0010
0100
1000
0001
0100
0010
,  // measure 55
0110
0000
1000
0000
0100
0000
0010
0000
0001
0000
0100
0000
0010
0000
1000
0001
,  // measure 56
1000
0000
0000
0000
;
