#TITLE:This game;
#SUBTITLE:;
#ARTIST:鈴木このみ;
#TITLETRANSLIT:;
#SUBTITLETRANSLIT:;
#ARTISTTRANSLIT:Konomi Suzuki;
#GENRE:J-pop;
#CREDIT:;
#BANNER:[VIP Room Round 2] - This game.png;
#BACKGROUND:[VIP Room Round 2] - This game-bg.png;
#LYRICSPATH:;
#CDTITLE:cdtitle.png;
#MUSIC:[VIP Room Round 2] - This game.ogg;
#OFFSET:-0.025000;
#SAMPLESTART:53.872002;
#SAMPLELENGTH:15.000000;
#SELECTABLE:YES;
#DISPLAYBPM:147.000000;
#BPMS:0.000000=147.000000
,60.000000=294.000000
,63.500000=147.000000
,76.000000=294.000000
,80.000000=147.000000
,204.000000=294.000000
,208.000000=147.000000
;
#STOPS:60.000000=0.153000,
60.750000=0.153000,
61.500000=0.153000,
62.250000=0.153000,
63.000000=0.102000,
76.000000=0.153000,
76.750000=0.153000,
77.500000=0.153000,
78.250000=0.153000,
79.000000=0.102000,
79.500000=0.102000,
204.000000=0.153000,
204.750000=0.153000,
205.500000=0.153000,
206.250000=0.153000,
207.000000=0.204000
;
#BGCHANGES:0.000=[VIP Room Round 2] - This game.avi=1.000=0=0=0=StretchNoLoop==CrossFade_Fastest==,
99999=-nosongbg-=1.000=0=0=0 // don't automatically add -songbackground-
;
#KEYSOUNDS:;
#ATTACKS:;

//---------------dance-single - ----------------
#NOTES:
     dance-single:
     :
     Beginner:
     2:
     0.139157,0.179705,0.055983,0.145556,0.000000,87.000000,82.000000,5.000000,13.000000,0.000000,0.000000,0.139157,0.179705,0.055983,0.145556,0.000000,87.000000,82.000000,5.000000,13.000000,0.000000,0.000000:
// measure 0
0000
0000
0000
0000
,  // measure 1
0000
0000
0000
0000
,  // measure 2
0000
0000
0000
0000
,  // measure 3
0000
0000
0000
0000
,  // measure 4
1001
0000
0000
0000
,  // measure 5
0110
0000
0000
0000
,  // measure 6
1001
0000
0000
0000
,  // measure 7
0110
0000
0000
0000
,  // measure 8
1000
0000
1000
0000
,  // measure 9
2000
0000
3000
0000
,  // measure 10
0001
0000
0010
0000
,  // measure 11
0020
0000
0030
0000
,  // measure 12
0001
0000
0001
0000
,  // measure 13
0002
0000
0003
0000
,  // measure 14
1000
0000
0010
0000
,  // measure 15
0020
0000
0000
0030
,  // measure 16
0010
0000
1000
0000
,  // measure 17
1000
0000
0001
0000
,  // measure 18
0001
0000
0010
0000
,  // measure 19
0020
0000
0000
0030
,  // measure 20
0010
0000
0001
0000
,  // measure 21
0001
0000
1000
0000
,  // measure 22
1000
0000
0100
0000
,  // measure 23
0200
0000
0000
0300
,  // measure 24
0100
0000
0000
1000
,  // measure 25
1000
0000
0001
0000
,  // measure 26
0001
0000
0000
0100
,  // measure 27
0100
0000
0010
0000
,  // measure 28
0010
0000
0010
0000
,  // measure 29
1000
0000
1000
0000
,  // measure 30
0001
0000
0001
0000
,  // measure 31
0010
0000
0010
0000
,  // measure 32
0001
0000
0001
0000
,  // measure 33
1000
0000
1000
0000
,  // measure 34
0001
0000
0001
0000
,  // measure 35
1000
0000
1000
0000
,  // measure 36
0001
0000
0001
0000
,  // measure 37
0020
0000
0030
0000
,  // measure 38
0200
0000
0300
0000
,  // measure 39
0010
0000
0010
0000
,  // measure 40
0100
0000
1000
0000
,  // measure 41
0001
0000
0001
0000
,  // measure 42
1000
0000
1000
0000
,  // measure 43
0001
0000
0001
0000
,  // measure 44
1000
0000
1000
0000
,  // measure 45
0020
0000
0030
0000
,  // measure 46
0200
0000
0300
0000
,  // measure 47
0010
0000
0010
0000
,  // measure 48
0100
0000
0001
0000
,  // measure 49
1000
0000
1000
0000
,  // measure 50
0001
0000
0001
0000
,  // measure 51
0200
0000
0000
0000
,  // measure 52
0000
0000
0300
0000
,  // measure 53
2002
0000
3003
0000
;

//---------------dance-single - ----------------
#NOTES:
     dance-single:
     :
     Easy:
     3:
     0.231929,0.299508,0.100769,0.425470,0.000000,145.000000,136.000000,9.000000,38.000000,0.000000,0.000000,0.231929,0.299508,0.100769,0.425470,0.000000,145.000000,136.000000,9.000000,38.000000,0.000000,0.000000:
// measure 0
0000
0000
0000
0000
,  // measure 1
0000
0000
0000
0000
,  // measure 2
0000
0000
0000
0000
,  // measure 3
0000
0000
0000
0000
,  // measure 4
2002
0000
3003
0000
,  // measure 5
0220
0000
0330
0000
,  // measure 6
2002
0000
3003
0000
,  // measure 7
0220
0000
0330
0000
,  // measure 8
2000
0000
3010
0100
,  // measure 9
0002
0000
1003
0100
,  // measure 10
0020
0000
0031
1000
,  // measure 11
0010
0001
0100
1000
,  // measure 12
0002
0000
0013
0100
,  // measure 13
2000
0000
3001
0100
,  // measure 14
0020
0000
1030
0001
,  // measure 15
2002
0000
0000
3003
,  // measure 16
1000
0100
0001
0010
,  // measure 17
0001
0100
1000
0010
,  // measure 18
1000
0100
0010
0001
,  // measure 19
2002
0000
0000
3003
,  // measure 20
0001
0100
1000
0010
,  // measure 21
1000
0100
0001
0010
,  // measure 22
0001
0100
0010
1000
,  // measure 23
0002
0000
1003
0000
,  // measure 24
2000
0000
3100
0001
,  // measure 25
0200
0000
0310
0000
,  // measure 26
0002
0000
0103
1000
,  // measure 27
0200
0000
0310
1000
,  // measure 28
0002
0000
0103
0000
,  // measure 29
0020
0000
1030
0000
,  // measure 30
2000
0000
3100
0000
,  // measure 31
0020
0000
0031
0000
,  // measure 32
0001
1000
1001
0000
,  // measure 33
0002
0000
0103
0010
,  // measure 34
2000
0000
3100
0010
,  // measure 35
0002
0000
1003
0100
,  // measure 36
0010
0001
1000
0000
,  // measure 37
0001
0100
1000
0000
,  // measure 38
1000
0010
0001
0000
,  // measure 39
0001
0100
0010
1000
,  // measure 40
0001
0010
0100
0100
,  // measure 41
2000
0000
3100
0010
,  // measure 42
0002
0000
0103
0010
,  // measure 43
2000
0000
3001
0100
,  // measure 44
0010
1000
0001
0000
,  // measure 45
1000
0100
0001
0000
,  // measure 46
0001
0010
1000
0000
,  // measure 47
1000
0100
0010
0001
,  // measure 48
1000
0010
0100
0100
,  // measure 49
0001
1000
0100
0010
,  // measure 50
0002
0000
1003
0000
,  // measure 51
2002
0000
0000
0000
,  // measure 52
0000
0000
0000
3003
,  // measure 53
0220
0000
0330
0000
;

//---------------dance-single - ----------------
#NOTES:
     dance-single:
     :
     Medium:
     6:
     0.398278,0.419312,0.145556,0.436667,0.151154,249.000000,236.000000,13.000000,39.000000,0.000000,0.000000,0.398278,0.419312,0.145556,0.436667,0.151154,249.000000,236.000000,13.000000,39.000000,0.000000,0.000000:
// measure 0
0000
0000
0000
0000
,  // measure 1
0000
0000
0000
0000
,  // measure 2
0000
0000
0000
0000
,  // measure 3
0000
0000
0000
0000
,  // measure 4
1000
0000
0000
0010
0000
0000
1000
0000
0000
0000
0010
0000
0100
0000
0000
0000
,  // measure 5
0001
0000
0000
0010
0000
0000
0001
0000
0000
0000
0010
0000
0100
0000
0000
0000
,  // measure 6
1000
0000
0000
0001
0000
0000
1000
0000
0000
0000
0001
0000
0100
0000
0000
0000
,  // measure 7
0001
0000
0000
1000
0000
0000
0001
0000
0000
0000
1000
0000
0100
0000
0000
0000
,  // measure 8
1000
0000
0000
0010
0000
0000
0100
0000
0000
0000
0001
0000
1000
0000
0001
0000
,  // measure 9
0010
0000
0001
1000
0100
0000
1000
0000
,  // measure 10
0001
0000
0000
0100
0000
0000
0010
0000
0000
0000
0100
0000
0001
0000
1000
0000
,  // measure 11
0002
0023
0230
2300
,  // measure 12
3001
0000
0000
0010
0000
0000
0100
0000
0000
0000
1000
0000
0001
0000
1000
0000
,  // measure 13
0010
0000
1000
0001
0100
0000
0001
0000
,  // measure 14
1000
0000
0000
0100
0000
0000
0010
0000
0000
0000
0100
0000
1000
0000
0001
0000
,  // measure 15
1000
0000
0000
0010
0000
0000
0100
0000
0000
0001
0000
0000
1000
0000
0000
0000
,  // measure 16
0001
0100
0001
0000
1000
0100
0010
0000
,  // measure 17
0001
0010
0001
0000
1000
0010
0100
0000
,  // measure 18
0001
1000
0001
0000
0010
0100
1000
0000
,  // measure 19
0001
0000
0000
0100
0000
0000
0010
0000
0000
1000
0000
0000
0001
0000
0000
0000
,  // measure 20
1000
0100
1000
0000
0001
0100
0010
0000
,  // measure 21
1000
0010
1000
0000
0001
0010
0100
0000
,  // measure 22
1000
0001
1000
0000
0010
0100
0001
0000
,  // measure 23
1000
0000
0000
0001
0000
0000
0200
0000
0000
0000
0010
0000
0310
0000
0000
0000
,  // measure 24
2002
0003
3020
0100
,  // measure 25
0230
0001
0002
0303
,  // measure 26
2002
3000
0023
0100
,  // measure 27
0230
1000
2300
3001
,  // measure 28
1002
1000
0200
0303
,  // measure 29
2001
0001
0200
3300
,  // measure 30
1002
1000
0010
0013
,  // measure 31
2001
0001
0010
3010
,  // measure 32
1000
0000
0000
0001
0000
0000
0200
0000
0000
0000
0000
0000
0310
0000
0000
0000
,  // measure 33
2000
0000
0000
0000
3010
0000
0000
0000
1000
0000
0000
0001
0000
0000
0010
0000
,  // measure 34
0002
0000
0000
0000
0103
0000
0000
0000
0001
0000
0000
1000
0000
0000
0010
0000
,  // measure 35
2000
0000
0000
0000
3001
0000
0000
0000
1000
0000
0000
0100
0000
0000
0010
0000
,  // measure 36
0001
0000
0000
1000
0000
0000
0010
0000
0200
0000
0000
0000
0301
0000
0000
0000
,  // measure 37
2001
0100
0001
3010
,  // measure 38
1002
0100
1000
0013
,  // measure 39
0001
0000
0000
1000
0000
0000
0010
0000
0200
0000
0000
0000
0301
0000
0000
0000
,  // measure 40
1000
0100
0010
0000
0001
0100
0010
1000
,  // measure 41
0002
0000
0000
0000
0013
0000
0000
0000
0001
0000
0000
1000
0000
0000
0010
0000
,  // measure 42
2000
0000
0000
0000
3100
0000
0000
0000
1000
0000
0000
0001
0000
0000
0010
0000
,  // measure 43
0002
0000
0000
0000
1003
0000
0000
0000
0001
0000
0000
0100
0000
0000
0010
0000
,  // measure 44
1000
0000
0000
0001
0000
0000
0010
0000
0200
0000
0000
0000
1300
0000
0000
0000
,  // measure 45
0001
0000
0000
0100
0000
0000
0010
0000
1000
0000
0000
0000
0001
0000
0000
0000
,  // measure 46
1000
0000
0000
0100
0000
0000
0010
0000
0001
0000
0000
0000
1000
0000
0000
0000
,  // measure 47
0001
0100
0001
0000
1000
0100
1000
0000
,  // measure 48
0001
0010
0001
0000
1000
0010
1000
0000
,  // measure 49
0001
0101
0010
1010
,  // measure 50
2002
3000
0100
0103
,  // measure 51
0001
0000
0000
0010
0000
0000
0100
0000
0000
1000
0000
0000
0001
0000
0000
0000
,  // measure 52
2002
0000
0000
3003
,  // measure 53
0220
0000
0330
0000
;

//---------------dance-single - ----------------
#NOTES:
     dance-single:
     :
     Hard:
     8:
     0.564627,0.599017,0.447863,0.559829,0.335897,353.000000,313.000000,40.000000,50.000000,0.000000,0.000000,0.564627,0.599017,0.447863,0.559829,0.335897,353.000000,313.000000,40.000000,50.000000,0.000000,0.000000:
// measure 0
0000
0000
0000
0000
,  // measure 1
0000
0000
0000
0000
,  // measure 2
0000
0000
0000
0000
,  // measure 3
0000
0000
0000
0000
,  // measure 4
2000
0000
0000
0001
0000
0000
3002
0000
0000
0000
0103
0000
0010
0000
1000
0000
,  // measure 5
0002
0000
0000
1000
0000
0000
2003
0000
0000
0000
3100
0000
0010
0000
0001
0000
,  // measure 6
2000
0000
0000
0010
0000
0000
3020
0000
0000
0000
0130
0000
0001
0000
1000
0000
,  // measure 7
0002
0000
0000
0010
0000
0000
0023
0000
0000
0000
0130
0000
2000
0000
0000
0000
,  // measure 8
3001
0000
0000
0100
0000
0000
0102
0000
0000
0000
1003
0000
0100
0000
0001
0000
,  // measure 9
0200
0000
0000
1000
0000
0000
2300
0000
0000
0000
3001
0000
0100
0000
0010
0000
,  // measure 10
1000
0000
0000
0001
0000
0000
0021
0000
0000
0000
0130
0000
1000
0000
0001
0000
,  // measure 11
1000
0010
0100
0002
0000
1000
1003
0000
,  // measure 12
1000
0000
0000
0100
0000
0000
2100
0000
0000
0000
3001
0000
0100
0000
1000
0000
,  // measure 13
0200
0000
0000
0001
0000
0000
0302
0000
0000
0000
1003
0000
0100
0000
0010
0000
,  // measure 14
0001
0000
0000
1000
0000
0000
1020
0000
0000
0000
0130
0000
0001
0000
1000
0000
,  // measure 15
0001
0000
0000
0101
0000
0000
0010
0000
0000
1010
0000
0000
1001
0000
0000
0000
,  // measure 16
0001
0000
1000
0000
0010
0000
0100
0010
0000
0100
0000
0001
1000
0000
0100
0000
,  // measure 17
0000
0000
1000
0000
0001
0000
0100
0010
0000
0100
0000
0010
1000
0000
0001
0000
,  // measure 18
0000
0000
0010
0000
0100
0000
1000
0001
0000
1000
0000
0001
0100
0000
0010
0000
,  // measure 19
1000
0000
0000
1100
0000
0000
0010
0000
0000
0011
0000
0000
0001
0000
1001
0000
,  // measure 20
1000
0000
0001
0000
0010
0000
0100
1000
0000
0100
0000
1000
0001
0000
0100
0000
,  // measure 21
0000
0000
0001
0000
1000
0000
0100
0010
0000
0100
0000
0010
0001
0000
1000
0000
,  // measure 22
0000
0000
0010
0000
0100
0000
0001
1000
0000
0001
0000
1000
0100
0000
0010
0000
,  // measure 23
0002
0000
0000
0203
0000
0000
0320
0000
0000
0000
1000
0000
1030
0000
0000
0000
,  // measure 24
1002
0000
0013
0100
2000
0000
3010
0100
,  // measure 25
0002
0000
1003
0100
0020
0000
0031
0000
,  // measure 26
2001
0000
3010
0100
0001
0010
0100
1000
,  // measure 27
0010
0000
0001
0000
0010
0000
1000
0000
0001
0000
0000
0010
0000
0000
0100
0000
,  // measure 28
2000
0000
0000
0010
0000
0000
3010
0000
0200
0000
0000
0000
0301
0000
1000
0000
,  // measure 29
0002
0000
0000
0010
0000
0000
0013
0000
0200
0000
0000
0000
1300
0000
0001
0000
,  // measure 30
1000
0000
0000
0010
0000
0000
0100
0000
0001
0000
1000
0000
0100
0000
1000
0000
,  // measure 31
0001
0000
0000
0010
0000
0000
0100
0000
1000
0000
0000
0010
0000
0000
0100
0000
,  // measure 32
0001
0000
0000
1000
0000
0000
0010
0000
0000
0000
1001
0000
1001
0000
0000
0000
,  // measure 33
0101
0000
0000
0000
1010
0000
0000
0000
1001
0000
0000
0001
0010
0000
0100
0000
,  // measure 34
1100
0000
0000
0000
0011
0000
0000
0000
1001
0000
0000
1000
0001
0000
0100
0000
,  // measure 35
0110
0000
0000
0000
1001
0000
0000
0000
1100
0000
0000
1000
0001
0000
0010
0000
,  // measure 36
1000
0000
0010
0000
0001
0000
1000
0000
0020
0000
0000
0000
0130
0000
0001
0100
,  // measure 37
0002
0000
0000
0000
1003
0000
0100
0000
0020
0000
0000
0000
0031
0000
1000
0001
,  // measure 38
2000
0000
0000
0000
3001
0000
0100
0000
0020
0000
0000
0000
1030
0000
0001
1000
,  // measure 39
0002
0000
0000
0100
0000
0000
0103
0000
0010
0000
1000
0000
0100
0000
0010
0000
,  // measure 40
0011
0000
0000
0001
1000
0000
0010
0000
0100
0000
0001
0000
1001
0000
0000
0000
,  // measure 41
1100
0000
0000
0000
0011
0000
0000
0000
1001
0000
0000
1000
0010
0000
0100
0000
,  // measure 42
0101
0000
0000
0000
1010
0000
0000
0000
1001
0000
0000
0001
1000
0000
0100
0000
,  // measure 43
0110
0000
0000
0000
1001
0000
0000
0000
0101
0000
0000
0001
1000
0000
0010
0000
,  // measure 44
0001
0000
0010
0000
1000
0000
0001
0000
0020
0000
0000
0000
0130
0000
1000
0100
,  // measure 45
2000
0000
0000
0001
0000
0000
3002
0000
0000
0000
0103
0000
0010
0000
1000
0000
,  // measure 46
0002
0000
0000
1000
0000
0000
2003
0000
0000
0000
3100
0000
0010
0000
0001
0000
,  // measure 47
2000
0000
0000
0010
0000
0000
3020
0000
0000
0000
0130
0000
0001
0000
1000
0000
,  // measure 48
0002
0000
0000
0010
0000
0000
0023
0000
0000
0000
0130
0000
1000
0000
0001
0000
,  // measure 49
1000
0010
0100
0001
0010
0100
1000
0001
,  // measure 50
0100
0000
0010
0100
0010
0000
1000
0000
0002
0000
0000
1000
0000
0000
1003
0000
,  // measure 51
0001
0000
0000
0101
0000
0000
0110
0000
0000
1010
0000
0000
1001
0000
0000
0000
,  // measure 52
0220
0000
0000
0330
,  // measure 53
2002
0000
3003
0000
;

//---------------dance-single - ----------------
#NOTES:
     dance-single:
     :
     Challenge:
     9:
     0.703785,0.688869,0.492649,0.380684,0.604615,440.000000,396.000000,44.000000,34.000000,0.000000,0.000000,0.703785,0.688869,0.492649,0.380684,0.604615,440.000000,396.000000,44.000000,34.000000,0.000000,0.000000:
// measure 0
0000
0000
0000
0000
,  // measure 1
0000
0000
0000
0000
,  // measure 2
0000
0000
0000
0000
,  // measure 3
0000
0000
0000
0000
,  // measure 4
2001
0000
0000
3010
0000
0000
0210
0000
0000
0000
0301
0000
0010
0000
0100
0000
,  // measure 5
2100
0000
0000
3001
0000
0000
0201
0000
0000
0000
0310
0000
1000
0000
0001
0000
,  // measure 6
1002
0000
0000
0013
0000
0000
0210
0000
0000
0000
1300
0000
0010
0000
0100
0000
,  // measure 7
0102
0000
0000
1003
0000
0000
1200
0000
0000
0000
0310
0000
0012
0000
0000
0000
,  // measure 8
2003
0000
0000
3010
0000
0000
0102
0000
0000
0000
0013
0000
0100
0000
1000
0100
,  // measure 9
2000
0000
0000
0001
0000
0000
3002
0000
0000
0000
0103
0000
0010
0000
1000
0010
,  // measure 10
1000
0000
0001
0010
0000
0000
0012
0000
0000
0000
1003
0000
0010
0000
0100
0000
,  // measure 11
0001
1000
0001
1000
0000
0100
0010
0000
0001
1000
0001
1000
0000
0010
0100
0000
,  // measure 12
0001
0000
1000
0100
0000
0000
2100
0000
0000
0000
3010
0000
0100
0000
0001
0100
,  // measure 13
0002
0000
0000
1000
0000
0000
1003
0100
1000
0000
0100
0000
0010
0000
0001
0010
,  // measure 14
0001
0000
1000
0010
0000
0000
2010
0000
0000
0000
3001
0000
0010
0000
0100
0000
,  // measure 15
1100
0000
0000
0011
0000
0000
0101
0000
0000
1010
0000
0000
2002
0000
3003
0000
,  // measure 16
0001
0000
0100
0000
0010
0000
1000
0001
0000
0001
0000
1000
0010
0000
0100
0000
,  // measure 17
0001
0000
1000
0000
0100
0000
0010
0001
0000
0001
0000
1000
0010
0000
0100
0000
,  // measure 18
0001
0000
0010
0000
1000
0000
0010
0100
0000
0100
0000
1000
0001
0000
0100
0000
,  // measure 19
0101
0000
0000
1010
0000
0000
1100
0000
0000
0011
0000
0000
1001
0000
1001
0000
,  // measure 20
1000
0000
0100
0000
0010
0000
0001
1000
0000
1000
0000
0001
0010
0000
0100
0000
,  // measure 21
1000
0000
0001
0000
0100
0000
0010
1000
0000
1000
0000
0001
0010
0000
0100
0000
,  // measure 22
1000
0000
0010
0000
0001
0000
0010
0100
0000
0100
0000
0001
1000
0000
0100
0000
,  // measure 23
1100
0000
0000
0011
0000
0000
2001
0000
0000
0000
3010
0000
0100
0000
0001
0000
,  // measure 24
2001
0000
0000
0000
3100
0000
0100
0010
0001
0000
1000
0000
0010
0000
0100
0000
,  // measure 25
0002
0000
0000
0000
1003
0000
1000
0100
0020
0000
0000
0000
0031
0000
1000
0000
,  // measure 26
1002
0000
0000
0000
0103
0000
0100
0010
1000
0000
0100
0000
0010
0000
0001
0000
,  // measure 27
0100
0000
1000
0000
0100
0000
0001
0000
1000
0000
0100
0010
0000
0010
0001
0000
,  // measure 28
2001
0000
0000
0001
0000
0000
3100
1000
0200
0000
0000
0000
0310
0000
0001
0010
,  // measure 29
0002
0000
0000
0100
0000
0000
0103
0001
0200
0000
0000
0000
0310
0000
1000
0000
,  // measure 30
1002
0000
0000
1000
0000
0000
0013
0001
0010
0000
0100
0000
1000
0000
0001
0000
,  // measure 31
2000
0000
0000
0010
0000
0000
3010
1000
0010
0000
0100
0001
0000
0001
1000
0000
,  // measure 32
1010
0000
0000
0101
0000
0000
0110
0000
0000
0000
1001
0000
1001
0000
0000
0000
,  // measure 33
1100
0000
0000
1000
0001
0000
0100
0000
0010
0000
1000
0100
0000
0100
0010
0000
,  // measure 34
0001
0000
0000
0001
0010
0000
0100
0000
1000
0000
0001
0100
0000
0100
0010
0000
,  // measure 35
1000
0000
0000
1000
0001
0000
0100
0000
0010
0000
1000
0100
0000
0100
0010
0000
,  // measure 36
0001
0000
1000
0001
1000
0000
0100
0000
0001
0000
0100
0000
1000
0000
0001
1000
,  // measure 37
0001
0000
0000
0100
0001
0000
1000
0000
0010
0000
0001
0000
0010
0000
1000
0001
,  // measure 38
1000
0000
0000
0100
1000
0000
0001
0000
0010
0000
1000
0000
0010
0000
0001
0000
,  // measure 39
1000
0010
0000
0100
0010
0000
1000
0000
0001
0000
0010
0000
0100
0000
1000
0000
,  // measure 40
0001
0000
0100
0001
0100
0000
0010
0000
1000
0000
0001
0000
0100
0001
0100
0001
,  // measure 41
0100
0000
0000
0001
1000
0000
0100
0000
0010
0000
0001
0100
0000
0100
0010
0000
,  // measure 42
1000
0000
0000
1000
0010
0000
0100
0000
0001
0000
1000
0100
0000
0100
0010
0000
,  // measure 43
0001
0000
0000
0001
1000
0000
0100
0000
0010
0000
0001
0100
0000
0100
0010
0000
,  // measure 44
1000
0000
0001
1000
0001
0000
0100
0000
1000
0000
0100
0000
0001
0000
1000
0001
,  // measure 45
1000
0000
0010
0100
0000
0010
1000
0000
0001
0000
0100
0000
1000
0000
0100
0000
,  // measure 46
0001
0000
0010
0100
0000
0010
0001
0000
1000
0000
0100
0000
0001
0000
0100
0000
,  // measure 47
1000
0000
0001
0100
0000
0010
0100
0000
0001
0000
1000
0100
0000
0010
0100
0000
,  // measure 48
1000
0000
0001
1000
0001
0000
0010
0000
0100
0010
0100
0010
0100
0000
1000
0000
,  // measure 49
0010
0001
1000
0100
0001
0010
1000
0001
,  // measure 50
0100
0000
1000
0001
1000
0001
0100
0000
0010
1000
0000
1000
0001
0000
0010
0000
,  // measure 51
0011
0000
0000
1010
0000
0000
0101
0000
0000
1100
0000
0000
1001
0000
0000
0000
,  // measure 52
0220
0000
0000
0330
,  // measure 53
2002
0000
3003
0000
;
