#TITLE:ソープラグーン;
#SUBTITLE:;
#ARTIST:-MASA WORKS DESIGN-;
#TITLETRANSLIT:SOAP LAGOON;
#SUBTITLETRANSLIT:;
#ARTISTTRANSLIT:MASA WORKS DESIGN;
#GENRE:;
#CREDIT:;
#BANNER:;
#BACKGROUND:;
#LYRICSPATH:;
#CDTITLE:;
#MUSIC:[VIP Room Round 2] - Soap Lagoon.ogg;
#OFFSET:-0.138065;
#SAMPLESTART:88.760300;
#SAMPLELENGTH:14.769234;
#SELECTABLE:YES;
#BPMS:0.000000=130.000000
;
#STOPS:
;
#BGCHANGES:;
#KEYSOUNDS:;
#ATTACKS:;

//---------------dance-single - ----------------
#NOTES:
     dance-single:
     :
     Hard:
     9:
     0.673825,0.820914,0.435508,0.110722,0.391219,639.000000,580.000000,59.000000,15.000000,24.000000,0.000000,0.673825,0.820914,0.435508,0.110722,0.391219,639.000000,580.000000,59.000000,15.000000,24.000000,0.000000:
0000
0000
0000
0000
,
0000
0000
0000
0000
,
0000
0000
0000
0000
,
0000
0000
0000
0000
,
1000
0000
1001
0000
0001
0100
0010
1000
,
0001
0000
1001
0000
1000
0010
0001
0010
,
1000
0000
1001
0000
1000
0100
0010
0001
,
1000
0000
1001
0000
0001
0010
1000
0010
,
0001
0000
0011
0000
0001
0010
0011
0001
,
1000
0000
1010
0000
1000
0010
1010
1000
,
0001
0000
1001
0000
0001
1000
1001
0001
,
0010
0000
0000
0010
0100
0000
1000
0000
0001
0000
0100
0000
0020
0000
0000
0000
,
1030
0000
0010
1000
0001
0000
0010
0001
1000
0000
0020
0000
0230
0000
0302
0000
,
1003
0000
0100
1000
0001
0000
0100
0001
1000
0000
0200
0000
0320
0000
0032
0000
,
1003
0000
0010
1000
0001
0000
0010
0001
1000
0000
0020
0000
0230
0000
0302
0000
,
1003
0000
0000
1000
0001
0000
0000
0001
1000
0000
0001
0000
1001
0000
0000
0000
,
1000
0000
0100
0010
0001
0000
1000
0000
0001
0000
0100
0001
0100
0000
0001
0000
,
1000
0000
0001
0100
0010
0000
1000
0000
0001
0000
1000
0100
1000
0000
0100
0000
,
0010
0000
0001
1000
0010
0000
0100
0000
0001
0000
1000
0001
1000
0000
0001
0000
,
1000
0000
0000
1000
0100
0000
0000
0100
0010
0000
0001
0000
1001
0000
0000
0000
,
1000
0000
0010
0100
0010
0000
0100
0000
0001
0000
0001
0000
1000
0000
1000
0000
,
0001
0000
0010
0000
1000
0000
0010
0000
0002
0000
0000
0000
0013
0001
0010
0001
,
0010
0000
0001
1000
0001
0000
0100
0000
0010
0000
0010
0000
1000
0000
1000
0000
,
0002
0000
0000
0000
0013
0000
0001
0000
2000
0000
0001
0000
0001
0000
3001
0100
,
0001
1000
0001
0010
0001
0000
0011
0000
0010
0000
0100
0000
1000
0001
0000
0100
,
0010
0000
1000
0001
0010
0000
0010
0000
0001
0000
1000
0010
0100
0000
0000
0000
,
0110
0100
0001
0010
0110
0100
1000
0010
,
1010
0000
1001
0000
0011
0010
0110
0000
,
1000
0100
0001
0100
0010
0100
1000
0001
,
1000
0010
0001
0010
0110
0100
0110
0000
,
0001
0100
1000
0100
0010
1000
1001
0000
,
1000
0100
0010
0001
1000
0010
0110
0000
,
1000
0010
0100
0010
0001
0000
0010
0100
0010
0000
1000
0000
0010
1000
0000
0001
,
1000
0000
0001
0010
0100
0000
0100
0000
0010
0000
0100
1000
0001
0000
0000
0000
,
1001
0000
0001
0010
1000
0010
0001
0010
,
0011
0000
1001
0000
1010
0010
0110
0000
,
1000
0010
0100
0010
0001
0010
0110
0000
,
1000
0100
0010
0100
0001
0100
0110
0000
,
0001
0100
1000
0100
0001
1000
1001
0000
,
0001
0010
1000
0010
0001
1000
1001
0000
,
0001
1000
0010
0000
1000
0001
0010
0100
1000
0001
0100
0001
1000
0000
0000
0000
,
1001
0000
0001
1000
0100
1000
0100
0010
0001
0000
0011
0000
1001
0000
0000
0001
,
1000
0000
0001
0100
0010
1000
0010
1000
0001
0010
0100
0000
1000
0100
1000
0001
,
0100
0010
1000
0001
0100
0010
1000
0001
0010
0100
1000
0001
0000
0001
1000
0000
,
1010
1000
1100
0100
0110
0010
0001
1000
,
1010
0001
0011
0010
0110
0100
1000
0001
,
1010
0000
0010
1000
0010
1000
0001
0010
0001
0100
0010
0000
1000
0001
0010
0100
,
1000
0001
0100
0010
1000
0001
0100
0010
1000
0001
0010
0100
0000
0100
0010
0000
,
0011
0000
0001
0000
1001
0000
1000
0000
1100
0000
0100
0010
0001
0000
1000
0000
,
1010
1000
1001
0001
0101
0001
0100
0010
,
1010
0000
1000
0001
0010
0000
0001
1000
0100
0000
1000
0001
0100
0000
0001
0100
,
0010
1000
0010
1000
0001
0000
1000
0001
0010
0100
1000
0001
0100
0001
1000
0000
,
0001
0000
0000
1000
0001
0000
0000
1000
0001
0000
0001
0000
0001
0000
0001
0000
,
1000
0100
0000
0010
0000
0001
0010
0100
1000
0000
0001
0100
0010
0000
1000
0100
,
1000
0000
0001
1000
0001
0000
0100
0001
0100
0000
0010
0100
0010
0000
1000
0000
,
0010
0000
0100
0000
0001
0000
1000
0001
1000
0001
0010
0100
0010
0100
1000
0000
,
0001
0010
0100
0010
1000
0010
0011
0000
,
1000
0010
0100
0010
0001
0010
1010
0000
,
1100
0100
0010
0001
0101
0100
0010
1000
,
0001
0100
1000
0100
0010
0010
0010
0010
,
1000
0000
0010
0100
0001
0000
1000
0000
0100
0000
M1MM
0000
0010
0000
MM1M
0000
,
0001
0000
0000
0100
0000
0000
1000
0000
0000
0100
0000
0000
0020
0000
0000
0000
0000
0000
0130
0000
0010
0000
0100
0000
,
0001
0000
0100
0010
1000
0000
0001
0000
0100
0000
M1MM
0000
0010
0000
MM1M
0000
,
1000
0000
0010
0100
0001
0000
1000
0000
1010
0000
1001
0000
0011
0000
0000
0000
,
0001
0000
0010
0001
1000
0000
0100
0000
0010
0000
MM1M
0000
0100
0000
M1MM
0000
,
1000
0000
0000
0100
0000
0000
0001
0000
0000
0100
0000
0000
0020
0000
0000
0000
0000
0000
0130
0000
0010
0000
0100
0000
,
1000
0000
0001
0100
0010
0000
1000
0000
0100
0000
M1MM
0000
0010
0000
MM1M
0000
,
0001
0000
0100
0010
1000
0000
0001
0000
0101
0000
1001
0000
1100
0000
0000
0000
,
1000
0000
0100
0000
0010
0000
0001
1000
,
0001
0000
0100
0000
0010
0000
1000
1000
,
1000
0000
0010
0000
0100
0000
0001
1000
,
0001
0000
0010
0000
0100
0100
0100
0000
;

//---------------dance-single - ----------------
#NOTES:
     dance-single:
     :
     Medium:
     7:
     0.424963,0.448610,0.103341,0.169774,0.011072,403.000000,389.000000,14.000000,23.000000,0.000000,0.000000,0.424963,0.448610,0.103341,0.169774,0.011072,403.000000,389.000000,14.000000,23.000000,0.000000,0.000000:
0000
0000
0000
0000
,
0000
0000
0000
0000
,
0000
0000
0000
0000
,
0000
0000
0000
0000
,
0001
0000
0001
0000
0100
0010
1000
0001
,
0010
0000
0010
0000
0100
0010
0001
1000
,
0010
0000
0010
0000
0100
0001
0100
0010
,
1000
0000
1000
0000
0001
0010
0100
1000
,
0001
0011
0010
0011
,
0001
0000
1001
0000
1000
0000
1001
0001
,
1000
1010
0010
1010
,
1000
0000
0100
0000
0010
0001
2000
0000
,
3100
1000
0100
1000
0200
0000
0300
0000
,
1000
0001
1000
0001
2000
0000
3000
0000
,
0001
0100
0001
0100
0002
0000
0003
0000
,
0200
0000
0320
0000
0130
0010
0200
0000
,
0310
0000
0000
0010
0000
0000
0010
0000
0000
0000
0100
0000
0010
0000
0100
0000
,
0001
0000
0000
0001
0000
0000
0001
0000
0000
0000
1000
0000
0001
0000
1000
0000
,
0100
0000
0000
0100
0000
0000
0100
0000
0000
0000
0010
0000
0100
0000
0010
0000
,
0001
0000
1000
0000
0001
0001
0001
0000
,
1000
0010
0100
0010
1000
0010
0100
0010
,
1000
0010
0100
0010
1000
0010
0010
0010
,
1000
0100
0010
0100
1000
0100
0010
0100
,
1000
0100
0010
0100
1000
0100
0100
0100
,
0010
0001
0010
0000
0001
1000
0001
0000
,
1000
0000
0100
0000
1000
0010
1000
0000
,
0001
0000
0100
0000
0010
1000
0001
1000
,
0200
0320
0032
0003
,
1000
0100
1000
0100
1000
0100
1000
0000
,
0001
0100
0001
0100
0001
0100
0001
0000
,
1000
0010
1000
0010
1000
0010
1000
0000
,
0001
0010
0001
0010
0001
0010
0001
0000
,
1000
0100
1000
0000
0100
0000
0010
0000
,
0001
0100
0001
0000
0100
0010
0100
0000
,
0010
0000
1000
0000
0001
1000
0001
1000
,
0200
0320
0032
0003
,
0100
0010
0100
0010
0100
0010
0100
0000
,
0001
1000
0001
1000
0001
1000
0001
0000
,
0010
0100
0010
0100
0010
0100
0010
0000
,
0001
1000
0001
1000
0001
1000
0001
0000
,
1000
0000
0100
0000
0001
0100
1000
0000
,
0001
0000
0100
0000
1000
0100
0001
0000
,
0001
0100
0010
0000
0100
0010
1000
0000
,
0010
1000
0001
1000
0100
0010
0001
0000
,
1000
0000
0010
0000
0001
0010
1000
0000
,
0001
0000
0010
0000
1000
0010
0001
0000
,
1000
0100
0010
0000
0001
0100
0010
0000
,
1000
0100
1000
0001
1000
0010
0100
0000
,
0101
0110
1010
1001
,
0001
0010
0100
0000
1000
0010
0100
0000
,
0001
0001
0100
0100
0010
0010
1000
1000
,
0001
0010
0100
0000
1000
0010
0100
0000
,
0011
0110
1100
1001
,
0001
0010
0100
0000
1000
0010
0100
0000
,
0001
0001
0100
0100
0010
0010
1000
1000
,
0001
0010
0100
0000
1000
0010
0100
0000
,
0001
0000
0001
0000
0001
0100
0001
0001
,
1000
0000
1000
0000
1000
0100
1000
1000
,
0100
0010
0100
0000
1000
0001
1000
0000
,
0010
0010
0100
0100
0010
0100
0010
0100
,
0001
0100
1000
0000
1000
0100
0001
0000
,
0200
0320
2030
3000
,
0001
0010
1000
0000
1000
0010
0001
0000
,
0020
0000
0230
0000
1300
0100
1000
0000
,
0001
0010
1000
0000
1000
0010
0001
0000
,
0020
0230
2300
3000
,
0001
0100
1000
0000
1000
0100
0001
0000
,
2000
0000
3020
0000
0130
0001
0100
0000
,
0010
0000
0010
0000
0010
0100
0010
0000
,
1000
0001
1000
0000
,
0100
0000
0100
0000
0100
0010
0100
0000
,
1000
0001
1000
0000
;

//---------------dance-single - ----------------
#NOTES:
     dance-single:
     :
     Easy:
     4:
     0.242535,0.316666,0.044289,0.000000,0.000000,230.000000,224.000000,6.000000,0.000000,0.000000,0.000000,0.242535,0.316666,0.044289,0.000000,0.000000,230.000000,224.000000,6.000000,0.000000,0.000000,0.000000:
// measure 0
0000
0000
0000
0000
,  // measure 1
0000
0000
0000
0000
,  // measure 2
0000
0000
0000
0000
,  // measure 3
0000
0000
0000
0000
,  // measure 4
1000
1000
0000
0000
,  // measure 5
0010
0010
0000
0000
,  // measure 6
0100
0100
0000
0000
,  // measure 7
0001
0001
0000
0000
,  // measure 8
0010
0010
0000
0010
,  // measure 9
0000
0010
0000
0010
,  // measure 10
0100
0100
0000
0100
,  // measure 11
0100
1000
0001
0001
,  // measure 12
1000
0001
1000
1000
,  // measure 13
0001
1000
0001
0001
,  // measure 14
0100
0010
0100
0100
,  // measure 15
0010
0100
0010
0010
,  // measure 16
1000
0000
1000
1000
,  // measure 17
1000
0000
0001
0001
,  // measure 18
0001
0000
0010
0010
,  // measure 19
0010
0100
0010
0010
,  // measure 20
0100
0100
0100
0100
,  // measure 21
0100
0100
0100
0000
,  // measure 22
0010
0010
0010
0010
,  // measure 23
0010
0010
0010
0000
,  // measure 24
0001
0001
1000
1000
,  // measure 25
0001
1000
0001
0000
,  // measure 26
0100
0000
0100
0000
,  // measure 27
0100
0100
0100
0000
,  // measure 28
0010
0100
0010
0100
,  // measure 29
0001
1000
0001
0001
,  // measure 30
0010
0100
0010
0100
,  // measure 31
1000
1000
0001
0001
,  // measure 32
1000
1000
0001
0001
,  // measure 33
1000
0001
1000
0000
,  // measure 34
0100
0000
0100
0000
,  // measure 35
0100
0100
0100
0000
,  // measure 36
0010
0100
0010
0100
,  // measure 37
1000
0001
1000
1000
,  // measure 38
0010
0100
0010
0100
,  // measure 39
0001
0001
1000
1000
,  // measure 40
0010
0010
0010
0000
,  // measure 41
0100
0100
0100
0000
,  // measure 42
0001
0000
1000
0000
,  // measure 43
0001
1000
0001
0000
,  // measure 44
0010
0010
0010
0000
,  // measure 45
0100
0100
0100
0000
,  // measure 46
0010
0000
0100
0000
,  // measure 47
1000
0001
1000
0000
,  // measure 48
1100
1100
1100
0000
,  // measure 49
0100
0010
0001
0000
,  // measure 50
1000
1000
0001
0001
,  // measure 51
1000
0001
1000
1000
,  // measure 52
0101
0101
0101
0000
,  // measure 53
0100
0010
1000
0000
,  // measure 54
0001
0001
1000
1000
,  // measure 55
0001
1000
0001
0001
,  // measure 56
0010
0010
0010
0010
,  // measure 57
0100
0100
0100
0100
,  // measure 58
1000
1000
0001
0001
,  // measure 59
0100
0010
0100
0100
,  // measure 60
0010
0010
0010
0010
,  // measure 61
1000
0001
1000
0000
,  // measure 62
0100
0100
0100
0100
,  // measure 63
0010
0100
0010
0010
,  // measure 64
0001
0001
0001
0001
,  // measure 65
1000
0001
1000
0000
,  // measure 66
0010
0010
0010
0010
,  // measure 67
0100
0010
0100
0000
,  // measure 68
0001
0000
1000
0000
,  // measure 69
0001
1000
0001
0000
,  // measure 70
0010
0000
0100
0000
,  // measure 71
0010
0100
0010
0000
;
