#VERSION:0.82;
#TITLE:Schranz K;
#SUBTITLE:;
#ARTIST:kors k;
#TITLETRANSLIT:;
#SUBTITLETRANSLIT:;
#ARTISTTRANSLIT:;
#GENRE:;
#ORIGIN:;
#CREDIT:;
#BANNER:Schranz K.png;
#BACKGROUND:Schranz K-bg.png;
#PREVIEWVID:;
#JACKET:Schranz K-jacket.png;
#CDIMAGE:;
#DISCIMAGE:;
#LYRICSPATH:;
#CDTITLE:;
#MUSIC:Schranz K.ogg;
#OFFSET:-0.222000;
#SAMPLESTART:89.494141;
#SAMPLELENGTH:15.000000;
#SELECTABLE:YES;
#DISPLAYBPM:156.000000;
#BPMS:0.000=156.000,
112.000=624.000,
112.750=156.000,
213.000=624.000,
214.000=156.000,
228.000=78.000,
228.250=156.000,
228.375=312.000,
228.750=156.000,
229.000=78.000,
229.250=156.000,
229.375=312.000,
229.750=156.000,
230.000=624.000,
231.500=156.000,
304.000=78.000,
304.250=156.000,
304.500=312.000,
307.000=78.000,
307.250=156.000,
307.500=312.000,
308.000=156.000,
308.500=312.000,
309.000=156.000,
309.250=312.000,
310.750=156.000;
#STOPS:112.000=0.068,
112.250=0.068,
112.500=0.068,
213.000=0.040,
213.250=0.040,
213.500=0.040,
213.750=0.180,
230.000=0.132,
230.500=0.132,
231.000=0.132,
305.000=0.160,
305.750=0.100,
306.250=0.140,
308.500=0.090,
309.250=0.090,
309.750=0.090,
310.250=0.090;
#DELAYS:;
#WARPS:118.250=16.000;
#TIMESIGNATURES:0.000=4=4;
#TICKCOUNTS:0.000=4;
#COMBOS:0.000=1;
#SPEEDS:0.000=1.000=0.000=0,
65.500=1.100=0.000=0,
66.250=1.200=0.000=0,
67.000=1.300=0.000=0,
67.750=1.400=0.000=0,
68.500=1.300=0.000=0,
69.250=1.200=0.000=0,
70.000=1.100=0.000=0,
70.750=1.000=0.750=0,
102.500=1.700=0.500=0,
103.000=1.000=0.500=0,
148.000=0.500=2.250=0,
150.250=0.300=0.000=0,
151.500=1.000=0.000=0,
152.000=1.800=28.000=0,
180.000=1.000=3.000=0,
214.000=1.300=0.500=0,
214.500=1.000=0.500=0,
240.750=1.200=0.000=0,
241.500=1.000=0.000=0,
242.250=0.800=0.000=0,
243.000=1.500=0.000=0,
243.750=0.500=0.000=0,
244.500=3.000=0.000=0,
245.250=1.500=0.000=0,
246.000=1.000=1.000=0,
280.000=1.800=16.000=0,
296.000=1.000=0.500=0,
297.000=3.000=5.500=0,
302.500=1.000=1.500=0;
#SCROLLS:0.000=1.000;
#FAKES:;
#LABELS:0.000=Song Start;
#BGCHANGES:;
#KEYSOUNDS:;
#ATTACKS: TIME=51.86:LEN=0.58:MODS=*200 -100% Mini: TIME=52.34:LEN=5.00:MODS=*200 0% Mini: TIME=36.19:LEN=0.96:MODS=*100 invert: TIME=36.29:LEN=0.96:MODS=*100 50% flip: TIME=36.38:LEN=0.96:MODS=*100 no flip: TIME=36.48:LEN=0.96:MODS=*10 no invert: TIME=33.21:LEN=0.96:MODS=*4 stealth: TIME=33.50:LEN=0.97:MODS=*10 no stealth: TIME=31.67:LEN=0.38:MODS=*4 25% tornado: TIME=38.21:LEN=0.38:MODS=*2 30% confusion: TIME=40.13:LEN=10.76:MODS=*3 50% bumpy: TIME=52.43:LEN=1.54:MODS=*3 10% drunk: TIME=53.97:LEN=1.54:MODS=*3 18% drunk: TIME=55.51:LEN=1.54:MODS=*3 26% drunk: TIME=57.04:LEN=1.54:MODS=*3 34% drunk: TIME=58.58:LEN=1.54:MODS=*3 42% drunk: TIME=60.12:LEN=1.54:MODS=*3 50% drunk: TIME=61.66:LEN=1.54:MODS=*3 70% drunk: TIME=63.20:LEN=0.38:MODS=*100 500% drunk: TIME=64.06:LEN=0.30:MODS=*10 10% drunk: TIME=63.68:LEN=0.30:MODS=*10 100% drunk: TIME=64.74:LEN=10.50:MODS=*10 50% beat: TIME=45.70:LEN=0.03:MODS=*100 70% dark: TIME=45.73:LEN=0.03:MODS=*100 no dark: TIME=45.76:LEN=0.03:MODS=*100 70% dark: TIME=45.79:LEN=0.03:MODS=*100 no dark: TIME=77.06:LEN=4.61:MODS=*10 50% beat: TIME=100.25:LEN=0.19:MODS=*3 90% stealth: TIME=100.63:LEN=0.19:MODS=*5 stealth: TIME=101.02:LEN=0.19:MODS=*5 stealth: TIME=100.44:LEN=0.19:MODS=*100 no stealth: TIME=100.82:LEN=0.19:MODS=*100 no stealth: TIME=101.21:LEN=0.19:MODS=*100 no stealth: TIME=114.08:LEN=1.15:MODS=stealth: TIME=89.42:LEN=0.05:MODS=*100 stealth: TIME=89.47:LEN=2.00:MODS=*2 no stealth: TIME=92.50:LEN=0.05:MODS=*100 stealth: TIME=92.55:LEN=2.00:MODS=*2 no stealth: TIME=95.58:LEN=0.05:MODS=*100 stealth: TIME=95.62:LEN=2.00:MODS=*2 no stealth: TIME=98.65:LEN=0.05:MODS=*100 stealth: TIME=98.70:LEN=1.00:MODS=*2 no stealth: TIME=89.42:LEN=3.08:MODS=*100 50% wave: TIME=92.50:LEN=3.08:MODS=*100 50% dizzy: TIME=95.58:LEN=3.08:MODS=*100 20% tornado: TIME=92.50:LEN=1.00:MODS=*100 no wave: TIME=95.58:LEN=1.00:MODS=*100 no dizzy: TIME=98.65:LEN=1.00:MODS=*100 no tornado;

//---------------dance-single - ----------------
#NOTEDATA:;
#CHARTNAME:;
#STEPSTYPE:dance-single;
#DESCRIPTION:;
#CHARTSTYLE:;
#DIFFICULTY:Challenge;
#METER:10;
#RADARVALUES:0.688117,0.747437,0.355923,0.403379,0.747437,513.000000,45.000000,51.000000,23.000000,0.000000,6.000000,0.000000,21.000000,0.688117,0.747437,0.355923,0.403379,0.747437,513.000000,45.000000,51.000000,23.000000,0.000000,6.000000,0.000000,21.000000;
#CREDIT:;
#ATTACKS:TIME=51.860001:LEN=0.580000:MODS=*200 -100% Mini:TIME=52.340000:LEN=5.000000:MODS=*200 0% Mini:TIME=36.189999:LEN=0.960000:MODS=*100 invert:TIME=36.290001:LEN=0.960000:MODS=*100 50% flip:TIME=36.380001:LEN=0.960000:MODS=*100 no flip:TIME=36.480000:LEN=0.960000:MODS=*10 no invert:TIME=33.209999:LEN=0.960000:MODS=*4 stealth:TIME=33.500000:LEN=0.970000:MODS=*10 no stealth:TIME=31.670000:LEN=0.380000:MODS=*4 25% tornado:TIME=38.209999:LEN=0.380000:MODS=*2 30% confusion:TIME=40.130001:LEN=10.760000:MODS=*3 50% bumpy:TIME=52.430000:LEN=1.540000:MODS=*3 10% drunk:TIME=53.970001:LEN=1.540000:MODS=*3 18% drunk:TIME=55.509998:LEN=1.540000:MODS=*3 26% drunk:TIME=57.040001:LEN=1.540000:MODS=*3 34% drunk:TIME=58.580002:LEN=1.540000:MODS=*3 42% drunk:TIME=60.119999:LEN=1.540000:MODS=*3 50% drunk:TIME=61.660000:LEN=1.540000:MODS=*3 70% drunk:TIME=63.200001:LEN=0.380000:MODS=*100 500% drunk:TIME=64.059998:LEN=0.300000:MODS=*10 10% drunk:TIME=63.680000:LEN=0.300000:MODS=*10 100% drunk:TIME=64.739998:LEN=10.500000:MODS=*10 50% beat:TIME=45.700001:LEN=0.030000:MODS=*100 50% dark:TIME=45.730000:LEN=0.030000:MODS=*100 no dark:TIME=45.759998:LEN=0.030000:MODS=*100 50% dark:TIME=45.790001:LEN=0.030000:MODS=*100 no dark:TIME=77.059998:LEN=4.610000:MODS=*10 50% beat:TIME=100.250000:LEN=0.190000:MODS=*3 90% stealth:TIME=100.629997:LEN=0.190000:MODS=*5 stealth:TIME=101.019997:LEN=0.190000:MODS=*5 stealth:TIME=100.440002:LEN=0.190000:MODS=*100 no stealth:TIME=100.820000:LEN=0.190000:MODS=*100 no stealth:TIME=101.209999:LEN=0.190000:MODS=*100 no stealth:TIME=114.080002:LEN=1.150000:MODS=stealth:TIME=89.419998:LEN=0.050000:MODS=*100 stealth:TIME=89.470001:LEN=2.000000:MODS=*2 no stealth:TIME=92.500000:LEN=0.050000:MODS=*100 stealth:TIME=92.550003:LEN=2.000000:MODS=*2 no stealth:TIME=95.580002:LEN=0.050000:MODS=*100 stealth:TIME=95.620003:LEN=2.000000:MODS=*2 no stealth:TIME=98.650002:LEN=0.050000:MODS=*100 stealth:TIME=98.699997:LEN=1.000000:MODS=*2 no stealth:TIME=89.419998:LEN=3.080000:MODS=*100 50% wave:TIME=92.500000:LEN=3.080000:MODS=*100 50% dizzy:TIME=95.580002:LEN=3.080000:MODS=*100 20% tornado:TIME=92.500000:LEN=1.000000:MODS=*100 no wave:TIME=95.580002:LEN=1.000000:MODS=*100 no dizzy:TIME=98.650002:LEN=1.000000:MODS=*100 no tornado:TIME=51.860001:LEN=0.580000:MODS=*200 -100% Mini:TIME=52.340000:LEN=5.000000:MODS=*200 0% Mini:TIME=36.189999:LEN=0.960000:MODS=*100 invert:TIME=36.290001:LEN=0.960000:MODS=*100 50% flip:TIME=36.380001:LEN=0.960000:MODS=*100 no flip:TIME=36.480000:LEN=0.960000:MODS=*10 no invert:TIME=33.209999:LEN=0.960000:MODS=*4 stealth:TIME=33.500000:LEN=0.970000:MODS=*10 no stealth:TIME=31.670000:LEN=0.380000:MODS=*4 25% tornado:TIME=38.209999:LEN=0.380000:MODS=*2 30% confusion:TIME=40.130001:LEN=10.760000:MODS=*3 50% bumpy:TIME=52.430000:LEN=1.540000:MODS=*3 10% drunk:TIME=53.970001:LEN=1.540000:MODS=*3 18% drunk:TIME=55.509998:LEN=1.540000:MODS=*3 26% drunk:TIME=57.040001:LEN=1.540000:MODS=*3 34% drunk:TIME=58.580002:LEN=1.540000:MODS=*3 42% drunk:TIME=60.119999:LEN=1.540000:MODS=*3 50% drunk:TIME=61.660000:LEN=1.540000:MODS=*3 70% drunk:TIME=63.200001:LEN=0.380000:MODS=*100 500% drunk:TIME=64.059998:LEN=0.300000:MODS=*10 10% drunk:TIME=63.680000:LEN=0.300000:MODS=*10 100% drunk:TIME=64.739998:LEN=10.500000:MODS=*10 50% beat:TIME=45.700001:LEN=0.030000:MODS=*100 50% dark:TIME=45.730000:LEN=0.030000:MODS=*100 no dark:TIME=45.759998:LEN=0.030000:MODS=*100 50% dark:TIME=45.790001:LEN=0.030000:MODS=*100 no dark:TIME=77.059998:LEN=4.610000:MODS=*10 50% beat:TIME=100.250000:LEN=0.190000:MODS=*3 90% stealth:TIME=100.629997:LEN=0.190000:MODS=*5 stealth:TIME=101.019997:LEN=0.190000:MODS=*5 stealth:TIME=100.440002:LEN=0.190000:MODS=*100 no stealth:TIME=100.820000:LEN=0.190000:MODS=*100 no stealth:TIME=101.209999:LEN=0.190000:MODS=*100 no stealth:TIME=114.080002:LEN=1.150000:MODS=stealth:TIME=89.419998:LEN=0.050000:MODS=*100 stealth:TIME=89.470001:LEN=2.000000:MODS=*2 no stealth:TIME=92.500000:LEN=0.050000:MODS=*100 stealth:TIME=92.550003:LEN=2.000000:MODS=*2 no stealth:TIME=95.580002:LEN=0.050000:MODS=*100 stealth:TIME=95.620003:LEN=2.000000:MODS=*2 no stealth:TIME=98.650002:LEN=0.050000:MODS=*100 stealth:TIME=98.699997:LEN=1.000000:MODS=*2 no stealth:TIME=89.419998:LEN=3.080000:MODS=*100 50% wave:TIME=92.500000:LEN=3.080000:MODS=*100 50% dizzy:TIME=95.580002:LEN=3.080000:MODS=*100 20% tornado:TIME=92.500000:LEN=1.000000:MODS=*100 no wave:TIME=95.580002:LEN=1.000000:MODS=*100 no dizzy:TIME=98.650002:LEN=1.000000:MODS=*100 no tornado;
#NOTES:
// measure 0
0000
0000
0000
0000
,  // measure 1
0000
0000
0000
0000
,  // measure 2
0000
0000
0000
0000
,  // measure 3
0000
0000
0000
0000
,  // measure 4
0000
0000
0000
0000
,  // measure 5
0000
0000
0000
0000
,  // measure 6
1000
0100
0010
0001
0020
0000
0130
1000
,  // measure 7
0001
0001
0100
0100
0010
1000
0010
0100
,  // measure 8
0001
0000
0000
0101
0000
0000
1001
0000
0000
1100
0000
0000
1001
0000
0000
0101
,  // measure 9
0000
0000
1001
0000
0000
1100
0000
0000
1001
0000
0001
0000
0100
0010
0100
0010
,  // measure 10
1000
0010
0100
0010
1000
0001
0010
0001
,  // measure 11
0100
0000
0100
0000
0010
0000
1000
0000
0001
0000
0100
0000
0001
0010
0001
0000
,  // measure 12
1000
0100
0001
0100
2100
0000
3100
1000
,  // measure 13
0040
0000
0000
0030
0010
0100
0010
0100
0001
0000
0001
1000
0100
0000
0100
0000
,  // measure 14
1000
0100
1000
0001
4000
0000
3004
0000
,  // measure 15
0103
0001
1000
0010
1000
0100
0010
0001
,  // measure 16
1000
0000
0000
1010
0000
0000
1001
0000
0000
0011
0000
0000
1001
0000
0000
1010
,  // measure 17
0000
0000
1001
0000
0000
0011
0000
0000
1001
0000
0000
1010
0000
0000
1000
0000
,  // measure 18
0002
0000
0203
0320
,  // measure 19
1030
0000
0100
0000
0011
0000
1000
0100
0000
0100
0010
0000
1001
0000
0000
0000
,  // measure 20
0001
0100
0110
0010
2000
0000
3001
0100
,  // measure 21
0001
0010
0000
0100
0000
0010
0001
0000
0020
0000
0000
0030
0110
0000
0100
0000
,  // measure 22
1000
0000
0010
0000
1000
0000
0001
0000
0200
0000
0301
0000
0020
0130
0000
0100
,  // measure 23
2000
0000
3000
0000
0001
2000
0000
0000
0000
0000
0000
3001
0000
0000
0000
0001
,  // measure 24
0200
0302
2003
3200
0310
0000
1001
0000
,  // measure 25
0110
0000
1001
0000
1000
0001
0000
0020
0000
0000
0200
0000
0000
0000
0330
0000
,  // measure 26
2000
0000
0000
0100
0000
0000
3002
0000
0000
0100
0000
0000
0023
0000
0230
0000
,  // measure 27
0310
0000
0000
0011
0000
0000
1001
0000
0000
1100
0000
0100
0010
0100
0010
0000
,  // measure 28
0004
0000
0000
0203
0000
0000
0320
0000
0000
2030
0000
0000
3001
0100
0001
0000
,  // measure 29
0010
0000
0000
0100
1000
0100
0000
2000
0000
3002
0000
0000
0103
0000
0001
0100
,  // measure 30
0010
0000
0000
1000
0000
0000
0100
0000
0000
0010
0000
0000
0100
0000
1000
0001
,  // measure 31
0010
0000
0000
0001
0000
0000
0100
0000
0000
0010
0000
0000
1000
0000
0001
0010
,  // measure 32
0100
1100
0000
0000
,  // measure 33
0000
0000
0000
0000
0000
0000
0000
0000
0000
0002
0000
0000
0103
0000
0001
0100
,  // measure 34
00M0
0000
0000
1000
0000
0000
0100
0000
0000
0010
0000
0000
0100
0000
1000
0001
,  // measure 35
0010
0000
0000
0001
0000
0000
0100
0000
0000
0010
0000
0000
1000
0000
0001
0010
,  // measure 36
0100
0000
0000
0000
1100
0000
0000
0001
0000
0101
0000
0000
1000
0000
1000
0200
,  // measure 37
0020
0000
0000
0000
0000
0000
0000
0330
,  // measure 38
0100
1000
0001
1000
0010
1000
0001
0100
,  // measure 39
0010
1000
0010
0100
0010
0001
0010
1000
,  // measure 40
0001
0001
0010
0010
0100
0010
0001
1000
,  // measure 41
0010
1000
0001
0100
0001
0010
0100
1000
,  // measure 42
0001
0100
1000
0100
0001
0100
0010
1000
,  // measure 43
0001
0010
1000
0010
0001
1000
0010
0100
,  // measure 44
0001
0010
0001
0010
0100
1000
0100
1000
0010
1000
0010
1000
0001
0100
0001
0100
,  // measure 45
0020
0000
0000
0000
0000
0000
0130
0100
,  // measure 46
0001
1000
0000
1000
0000
0010
0000
0010
0000
0100
0000
0010
1000
0000
0001
0000
,  // measure 47
1000
0100
0000
0100
0000
0010
0000
0010
0000
0001
0000
0100
0001
0000
1000
0000
,  // measure 48
0010
0100
0000
0100
0000
0001
0000
0001
0000
1000
0000
0100
0010
0000
0001
0000
,  // measure 49
0100
0010
0000
0010
0000
1000
0000
1000
0000
0001
0000
1000
0020
0000
0230
0000
,  // measure 50
0301
1000
0000
0010
0000
0010
0000
1000
0000
0001
0000
1000
0010
0000
0100
0000
,  // measure 51
0001
0010
0000
0100
0000
0100
0000
0010
0000
0001
0000
0001
0010
0000
0100
0000
,  // measure 52
1000
0001
0000
0100
0000
0100
0000
0010
0000
0010
0000
1000
0001
0000
0100
0000
,  // measure 53
0010
0000
1000
0001
0020
0000
0000
0000
0000
0000
0000
0000
0130
0000
1000
0000
,  // measure 54
0001
0100
0000
0010
0000
1000
0000
0010
0000
0100
0000
0001
0010
0000
0110
0000
,  // measure 55
0100
1000
0000
0001
0000
0010
0000
0001
0000
1000
0000
0100
1000
0000
1010
0000
,  // measure 56
0010
1000
0000
0001
0000
0100
0000
0001
0000
1000
0000
0010
0100
0000
0101
0000
,  // measure 57
0001
0000
0000
1000
0001
0000
0000
1000
0001
0000
0001
0000
0001
0000
1000
0000
,  // measure 58
0100
1000
0000
0010
0000
1000
0000
0100
0000
1000
0000
0001
1000
0000
0010
0000
,  // measure 59
0100
0001
0000
0010
0000
0001
0000
0100
0000
0001
0000
1000
0001
0000
0010
0000
,  // measure 60
0100
0000
0000
1100
0000
0000
1001
0000
0000
0101
0000
0000
1001
0000
0000
1100
,  // measure 61
0000
0000
1001
0000
0000
0101
0000
0000
2002
0000
3003
0000
0001
1000
0001
1000
,  // measure 62
0100
0010
0001
0010
0100
1000
0010
1000
,  // measure 63
0001
0000
0000
0201
0000
0000
0320
0000
0000
2030
0000
0000
3001
0000
0001
0000
,  // measure 64
0010
0000
0000
0001
1000
0000
0100
0000
1000
0010
0000
0010
0100
0000
0001
0000
,  // measure 65
1000
0000
0000
0001
1000
0001
0000
0010
0000
0110
0000
0100
1000
0000
2000
0000
,  // measure 66
3002
0103
0002
1003
0040
0000
0430
0000
,  // measure 67
0301
0010
1000
0010
0001
0100
0010
1000
,  // measure 68
0100
0000
1000
0000
0001
0000
0100
0000
0010
0000
1000
0000
0001
0010
0001
0000
,  // measure 69
0200
0000
0000
0300
0200
0000
0000
0300
0200
0000
0000
0300
0020
0030
0020
0030
,  // measure 70
1000
0100
0010
0001
1000
0100
0010
0001
,  // measure 71
0100
0000
0001
0000
1000
0010
1000
0000
0100
0000
0010
0001
0010
0000
0100
0000
,  // measure 72
1000
0100
0000
1000
0001
1000
0000
0001
0010
0001
0000
0010
0100
0010
0000
0100
,  // measure 73
1000
0000
0010
0000
0100
0010
0100
0010
0100
0000
0001
0000
1000
0001
1000
0001
,  // measure 74
1000
0000
0220
0000
000M
M000
000M
M000
,  // measure 75
000M
0000
M000
0000
000M
0000
M000
0000
000M
0000
M000
0000
000M
0000
M000
0000
000M
0000
M000
0000
000M
0000
M000
0000
000M
M000
000M
M000
033M
M000
0000
0000
,  // measure 76
0001
0000
0000
0000
0200
0000
0000
0310
0000
2000
0000
0000
3010
0000
0000
0000
,  // measure 77
1000
0010
1000
0000
0001
0010
0000
0001
0000
0100
0000
0100
0001
0000
1000
0000
,  // measure 78
2002
0000
0000
3003
;
