#TITLE:Catch Me If You Can;
#SUBTITLE:;
#ARTIST:Girls' Generation;
#TITLETRANSLIT:;
#SUBTITLETRANSLIT:;
#ARTISTTRANSLIT:;
#GENRE:K-POP;
#CREDIT:;
#BANNER:[VIP Room Round 2] - Catch Me If You Can.png;
#BACKGROUND:[VIP Room Round 2] - Catch Me If You Can-bg.png;
#LYRICSPATH:;
#CDTITLE:CDTitle.png;
#MUSIC:[VIP Room Round 2] - Catch Me If You Can.ogg;
#OFFSET:-0.000000;
#SAMPLESTART:63.112499;
#SAMPLELENGTH:15.001156;
#SELECTABLE:YES;
#BPMS:0.000000=133.996002
;
#STOPS:139.500000=1.791000
;
#BGCHANGES:0.000=[VIP Room Round 2] - Catch Me If You Can.avi=1.000=0=0=0=StretchNoLoop====,
99999=-nosongbg-=1.000=0=0=0 // don't automatically add -songbackground-
;
#KEYSOUNDS:;
#ATTACKS:;

//---------------dance-single - ----------------
#NOTES:
     dance-single:
     :
     Hard:
     9:
     0.612501,0.803907,0.421376,0.937563,0.379239,407.000000,367.000000,40.000000,89.000000,0.000000,0.000000,0.612501,0.803907,0.421376,0.937563,0.379239,407.000000,367.000000,40.000000,89.000000,0.000000,0.000000:
// measure 0
0000
0000
0000
0000
,  // measure 1
0000
0000
0000
0000
,  // measure 2
0000
0000
0000
0000
,  // measure 3
0000
0000
0000
0000
,  // measure 4
0120
0000
0000
1030
0001
0000
0100
0000
0010
0000
1000
0000
1001
0000
0010
0000
,  // measure 5
0120
0000
0000
1030
0001
0000
0010
0000
0100
0000
0010
0000
1001
0000
0001
0000
,  // measure 6
0102
0000
0000
1003
0100
0000
1000
0000
0010
0000
0100
0000
0110
0000
0010
0000
,  // measure 7
2020
3030
2002
3003
0022
0033
2200
3300
,  // measure 8
1002
0000
0000
0103
0010
0000
1000
0000
0100
0000
0010
0000
1001
0000
0001
0000
,  // measure 9
0102
0000
0000
0103
0010
0000
1000
0000
0100
0000
0010
0000
0110
0000
0100
0000
,  // measure 10
1200
0000
0000
1300
0010
0000
1000
0000
0100
0000
1000
0000
1010
0000
0100
0000
,  // measure 11
0220
0330
2002
3003
0022
0033
1200
0310
,  // measure 12
0001
0100
1000
0100
0001
0001
1000
0010
,  // measure 13
0001
0010
1000
0100
0020
0000
0031
0001
,  // measure 14
0100
0001
0010
0100
1000
0010
0100
0001
,  // measure 15
2002
3003
2020
3030
2002
3003
0202
0303
,  // measure 16
0011
0100
0010
0001
0100
0010
0001
1000
,  // measure 17
0100
0010
1000
0100
0020
0000
0031
0001
,  // measure 18
1000
0100
1000
0010
0100
0001
0010
0001
,  // measure 19
0202
0303
2200
3300
2020
3030
0021
0031
,  // measure 20
1002
1000
1000
2003
0010
0010
3010
0100
,  // measure 21
0010
1000
0100
0020
0001
0001
0031
1000
,  // measure 22
0100
1000
0001
0200
0010
0010
0310
1000
,  // measure 23
0002
0000
0013
0020
0000
0230
0000
0000
,  // measure 24
1300
0010
1000
0200
0010
0010
0310
0001
,  // measure 25
1000
0010
0100
0002
0010
0010
0013
0100
,  // measure 26
1000
0001
0100
0020
0100
0100
0130
0010
,  // measure 27
0020
1000
2030
3002
0010
0023
0100
0130
,  // measure 28
1001
0000
0000
1000
0100
0000
2000
0000
0010
0000
0000
0001
0000
0000
3200
0000
,  // measure 29
0310
0000
0000
0001
1000
0000
0002
0000
0100
0000
0000
1000
0000
0000
0023
0000
,  // measure 30
1030
0000
0000
0010
0001
0000
0200
0000
0010
0000
0000
0001
0000
0000
0302
0000
,  // measure 31
2003
0000
3010
0020
0100
0230
0301
1000
,  // measure 32
1200
0000
0000
1300
0001
0000
0200
0000
1000
0000
0000
0001
0000
0000
0320
0000
,  // measure 33
1030
0000
0000
0001
0010
0000
0200
0000
0010
0000
0000
0001
0000
0000
2300
0000
,  // measure 34
3010
0000
0000
1000
0100
0000
0020
0000
0001
0000
0000
0100
0000
0000
1030
0000
,  // measure 35
1002
0000
0000
0103
0010
0000
1000
0000
0002
0000
0000
0103
0010
0000
1000
0000
,  // measure 36
0002
0000
0000
0103
0010
0000
1000
0000
0002
0000
0000
1003
0000
0010
0100
0001
,  // measure 37
0102
0000
0000
1003
0010
0000
1000
0000
0200
0000
0000
1300
0010
0000
1000
0000
,  // measure 38
1200
0000
0000
0000
1300
0000
0100
0000
0010
0000
0000
0001
0000
0000
1000
0000
,  // measure 39
2001
0000
0000
3010
0100
0000
0001
0000
2000
0000
0000
3010
0100
0000
0001
0000
,  // measure 40
2000
0000
0000
3010
0100
0000
0001
0000
2000
0000
0000
3001
0000
0100
0010
1000
,  // measure 41
2010
0000
0000
3001
0100
0000
0001
0000
0020
0000
0000
0031
0100
0000
0001
0000
,  // measure 42
2001
0000
0000
0000
3001
0000
0010
0000
0100
0000
0000
1000
0000
0000
0001
0000
,  // measure 43
2001
0000
3001
1000
0000
0010
1000
0000
0200
0000
1300
0001
0000
0100
0001
0000
,  // measure 44
0020
0000
0031
1000
0000
0010
1000
0000
0002
0000
1003
0100
0000
0100
0010
0100
,  // measure 45
2000
0000
3010
0100
0000
0010
1000
0000
0002
0000
0103
0010
0000
0100
0001
0000
,  // measure 46
0210
0000
0000
0000
0310
0000
1000
0000
0001
0000
0000
0010
0000
0000
0100
0000
,  // measure 47
1000
0010
1000
0001
0000
0100
0001
0000
0010
0100
0010
0001
0000
0100
0001
0000
,  // measure 48
0100
0010
0100
0001
0000
0010
0100
0000
1000
0001
0100
0010
0000
0010
1000
0100
,  // measure 49
1000
0010
1000
0010
0100
0001
0100
0010
1000
0100
1000
0100
0010
0001
1000
0001
,  // measure 50
0200
0000
0000
0000
0010
0000
0010
0000
0010
0000
0000
0010
0000
0000
0301
0000
;

//---------------dance-single - ----------------
#NOTES:
     dance-single:
     :
     Medium:
     5:
     0.406327,0.428751,0.337101,0.695271,0.084275,270.000000,238.000000,32.000000,66.000000,0.000000,0.000000,0.406327,0.428751,0.337101,0.695271,0.084275,270.000000,238.000000,32.000000,66.000000,0.000000,0.000000:
0000
0000
0000
0000
,
0000
0000
0000
0000
,
0000
0000
0000
0000
,
0000
0000
0000
0000
,
2002
3003
0000
0100
0010
1000
0001
0000
,
2002
3003
0000
0010
0100
0001
1000
0000
,
2002
3003
0000
1000
0001
0100
0010
0000
,
1010
1001
0101
1001
,
0220
0330
0000
0010
0001
0100
0010
0000
,
0220
0330
0000
0010
1000
0100
0010
0000
,
0220
0330
0000
0100
1000
0001
1000
0000
,
1001
0101
1001
1100
,
1000
0010
1000
0000
0001
0100
0001
0000
,
1000
0001
0100
0010
2000
0000
3001
0000
,
0010
0100
0010
0000
0001
0100
0001
0000
,
1001
1010
1001
0101
,
1000
0100
1000
0000
0001
0010
0001
0000
,
0100
0010
1000
0001
2000
0000
3001
0000
,
0010
0100
0010
0000
0001
0100
0001
0000
,
0101
1001
1100
1001
,
1000
0100
1000
0200
0000
0000
0000
0310
,
0010
0001
0010
0002
0000
0000
0000
1003
,
1000
0010
1000
0020
0000
0000
0030
0100
,
0020
0000
1000
2030
0000
3002
0000
0000
,
0013
0100
0010
0002
0000
0000
0000
1003
,
1000
0010
1000
0200
0000
0000
0000
1300
,
1000
0010
0100
0020
0000
0000
0000
1030
,
2000
0000
3100
0200
0000
0320
0000
0000
,
0032
0000
0000
1003
0100
0000
1000
0001
,
0200
0000
0000
0310
1000
0000
0001
0010
,
0002
0000
0000
1003
1000
0000
0100
0010
,
0002
0000
0010
0023
0000
0230
0000
0000
,
2300
0000
0000
3020
0000
0000
0130
0001
,
2000
0000
0000
3200
0000
0000
0310
0001
,
0200
0000
0000
0002
0000
0000
0000
0303
,
1002
0103
2001
3100
,
1002
0000
0013
0000
1002
0000
1003
0010
,
0120
1030
0210
0301
,
0120
0000
0000
0000
1030
0000
0100
0000
0010
0000
0000
0001
0000
0000
0100
0000
,
0120
0000
1030
0001
0200
0000
0301
0010
,
0200
0000
0310
0001
2000
0000
3100
0000
,
0021
0000
0031
1000
0200
0000
1300
0000
,
1020
0000
0000
0000
0130
0000
0001
0000
1000
0000
0000
0100
0000
0000
0010
0000
,
0002
0000
0000
0013
0000
0000
0010
0000
0200
0000
0000
1300
0000
0000
1000
0000
,
0020
0000
0000
0130
0000
0000
0100
0000
0002
0000
0000
1003
0000
0000
0100
0000
,
0020
0000
0000
0031
0000
0000
0001
0000
2000
0000
0000
3100
0000
0000
0100
0000
,
2000
0000
0000
0000
3001
0000
0100
0000
0010
0000
0000
1000
0000
0000
0001
0000
,
0020
0000
0000
0031
0000
0000
0100
0000
0020
0000
0000
1030
0000
0000
0100
0000
,
0020
0000
0000
0130
0000
0000
1000
0000
0020
0000
0000
0130
0000
0000
0001
0000
,
2000
0000
0000
3100
0000
0000
1000
0000
0002
0000
0000
0013
0000
0000
0010
0000
,
0200
0000
0000
0000
0010
0000
0010
0000
0010
0000
0000
0010
0000
0000
1300
0000
;

//---------------dance-single - ----------------
#NOTES:
     dance-single:
     :
     Easy:
     3:
     0.248311,0.267969,0.084275,0.684737,0.000000,165.000000,157.000000,8.000000,65.000000,0.000000,0.000000,0.248311,0.267969,0.084275,0.684737,0.000000,165.000000,157.000000,8.000000,65.000000,0.000000,0.000000:
0000
0000
0000
0000
,
0000
0000
0000
0000
,
0000
0000
0000
0000
,
0000
0000
0000
0000
,
2002
3003
1000
0001
,
2002
3003
0001
1000
,
2002
3003
1000
0001
,
0100
0100
0100
0100
,
0220
0330
0010
0100
,
0220
0330
0100
0010
,
0220
0330
0010
0100
,
0001
0001
0001
0001
,
1000
0100
0001
0100
,
1000
0010
0002
0003
,
0010
1000
0100
0010
,
0001
0001
0001
0001
,
0010
0100
1000
0100
,
0001
0100
2000
3000
,
0001
0100
0010
0100
,
0001
0001
0001
0001
,
2000
0000
0000
0200
0000
0000
3300
0000
,
0020
0000
0000
0002
0000
0000
0033
0000
,
0002
0000
0000
0200
0000
0000
0303
0000
,
0020
0000
0000
1000
0000
2000
0030
0000
,
3200
0000
0000
0020
0000
0000
0330
0000
,
0002
0000
0000
2000
0000
0000
3003
0000
,
0020
0000
0000
0200
0000
0000
0330
0000
,
0002
0000
0000
1000
0000
2000
0003
0000
,
3200
0000
0010
0310
,
0002
0000
1000
1003
,
0020
0000
0100
0130
,
0010
1000
0001
1000
,
0200
0000
1000
1300
,
0020
0000
0100
0130
,
0002
0000
1000
1003
,
2001
3100
0020
0130
,
2000
3100
0020
0031
,
0200
1300
0200
0301
,
0020
0001
0001
0031
,
2000
3010
0002
0013
,
2000
3100
0002
0103
,
2000
3010
0200
0301
,
2000
0001
0001
3001
,
0020
0130
0002
0103
,
2000
3010
0200
1300
,
0200
0310
2000
3001
,
2000
0100
0100
3100
,
0020
0031
0200
0310
,
2000
3100
0002
0103
,
2000
3010
0200
0301
,
2002
0000
0000
0000
0000
0000
0000
3003
;
