#TITLE:80's Fitness;
#SUBTITLE:;
#ARTIST:KOAN Sound;
#TITLETRANSLIT:;
#SUBTITLETRANSLIT:;
#ARTISTTRANSLIT:;
#GENRE:;
#CREDIT:;
#BANNER:80sfitness_bn.png;
#BACKGROUND:80sfitness_bg.png;
#LYRICSPATH:;
#CDTITLE:cdtitle.png;
#MUSIC:80sfitness.ogg;
#OFFSET:0.000000;
#SAMPLESTART:52.363636;
#SAMPLELENGTH:17.454548;
#SELECTABLE:YES;
#BPMS:0.000000=110.000000
;
#STOPS:
;
#BGCHANGES:;
#KEYSOUNDS:;
#ATTACKS:;

//---------------dance-single - ----------------
#NOTES:
     dance-single:
     Hard:
     Hard:
     8:
     0.470030,0.496682,0.014001,0.231015,0.374524,470.000000,468.000000,2.000000,33.000000,0.000000,0.000000,0.470030,0.496682,0.014001,0.231015,0.374524,470.000000,468.000000,2.000000,33.000000,0.000000,0.000000:
0000
0000
0000
0000
,
0000
0000
0000
0000
,
0000
0000
0000
0000
,
0000
0000
0000
0000
,
0001
0000
0100
0000
0010
0100
0000
0000
0100
0000
0000
0000
0010
0000
0000
0000
,
1000
0000
0100
0010
0100
0100
1000
1000
,
0001
0000
1000
0000
0010
0100
0000
0000
0100
0000
0001
0000
1000
0000
0100
0000
,
0010
0100
0000
0000
0010
0000
0100
0000
0010
0000
0100
0000
0010
0000
0000
0000
,
0001
0000
0000
0000
0100
0010
0100
0010
0000
0000
0010
0000
1000
0000
0001
0000
,
0010
0000
0000
0000
0100
0010
0100
0010
0000
0000
0001
0000
1000
0000
0010
0000
,
1000
0000
0000
0000
1000
0010
1000
0010
0000
0000
0100
0000
0001
0000
1000
0000
,
0100
0000
0000
0000
0000
0000
0010
0100
0010
0000
0001
0000
1000
0010
0100
0010
,
1000
0000
0000
0000
0001
1000
0001
1000
0000
0000
0001
0000
1000
0000
0100
0000
,
0010
0000
0000
0000
0001
1000
0001
1000
0000
0000
0010
0000
1000
0000
0001
0000
,
0100
0000
0000
0000
0001
0010
0001
0010
0000
0000
0100
0000
1000
0000
0100
0000
,
0010
0000
0000
0000
0000
0000
0001
1000
0001
0000
0100
0000
0010
1000
0001
1000
,
0020
1000
1000
1000
,
2030
0001
0001
0001
,
3002
0010
0010
0010
,
0023
0100
0100
0100
,
0130
0100
1000
1000
0001
0001
0100
0100
,
0010
0010
1000
1000
0001
0001
0010
0010
,
0001
0100
0010
0001
0010
1000
0100
0001
,
0100
0000
0000
1000
0000
0001
0100
0000
0000
0001
0000
1000
0100
0000
0000
1000
0000
0001
0100
0000
0000
0010
0000
0000
,
0220
0000
0330
0000
0010
0100
0010
1000
0001
0000
0010
0000
0100
0000
0010
0000
,
0001
0000
0000
0000
0001
0100
0001
1000
0000
0000
0010
0000
0100
0000
0010
0000
,
2000
0000
3000
0000
1000
0100
1000
0001
0100
0000
0010
0000
1000
0000
0010
0000
,
0100
0000
0000
0000
0040
0000
0000
0000
0130
0000
0010
0000
1000
0100
0010
0100
,
2000
0000
3000
0000
0001
0100
0001
0010
0100
0000
1000
0000
0010
0000
0100
0000
,
0010
0000
0000
0000
0010
1000
0001
0010
0000
0000
0100
0000
1000
0000
0001
0000
,
0200
0000
0300
0000
0010
0100
0010
1000
0100
0000
0010
0000
1000
0000
0010
0000
,
0200
0000
0000
0000
0000
0000
0000
0000
0000
0000
0000
0000
0310
0000
0010
0000
0100
0000
0200
0000
0000
0320
0000
0000
,
0032
0000
0003
0000
0001
0100
0001
0100
0000
0010
0000
0100
0000
0001
1000
0000
,
0100
0000
0000
0000
1000
0100
1000
0001
0000
0100
0000
0010
0000
0100
0001
0000
,
0100
0000
0000
0000
0001
1000
0001
0010
0000
0100
0000
0010
0000
0001
1000
0000
,
0010
0000
0000
0000
0040
0000
0000
0000
0130
0000
0001
0000
1000
0100
0010
0001
,
0200
0000
0300
0000
0010
1000
0010
0100
0000
0001
0000
1000
0000
0100
0010
0000
,
0001
0000
0010
0001
0010
0001
0100
0010
0000
0100
0000
0001
0000
1000
0001
0000
,
0001
0000
0000
0000
1000
0100
1000
0001
0000
0010
0000
0100
0000
0010
0001
0000
,
0010
0100
0000
0000
0010
0000
0100
0000
0010
0000
0100
0000
0010
0000
0000
0000
,
2200
3300
1000
0100
0001
0000
0001
0100
,
0010
0000
0000
0000
0001
0000
1000
0000
0010
0100
0010
1000
0010
0000
0100
0000
,
0002
0003
0001
0100
1000
0000
1000
0100
,
0010
0000
0000
0000
1000
0000
0001
0100
0010
0000
1000
0010
0100
0000
0001
0010
,
0200
0300
0100
0001
1000
0000
0010
0001
,
1000
0000
0000
0000
0001
0000
0100
0000
0100
0010
0100
1000
0100
0000
0010
0000
,
0200
0300
0100
1000
0001
0000
0010
1000
,
0002
0000
0000
0000
0000
0000
1003
0100
0010
0000
0001
0010
0100
0000
1000
0010
,
0200
0000
0310
0100
0010
0001
0010
0000
,
1000
0100
0001
1000
0010
0100
1000
0000
,
0002
0203
2300
3002
,
0013
0000
0100
0000
1000
0000
0100
0010
0100
0000
0001
1000
0100
0000
0010
0100
,
2000
0000
3001
0010
1000
0010
0100
0000
,
1000
0010
0001
0010
0100
1000
0100
0000
,
0002
0023
2030
3002
,
0103
1000
0001
0010
0200
0000
0320
0000
,
0031
0000
0000
0000
0100
0000
0001
0000
0001
0000
0010
0000
0100
0000
1000
0100
,
1000
0001
1000
0001
1000
0010
1000
0010
0100
0000
0001
0000
1000
0000
0001
0000
,
0010
0000
0000
0000
0010
0000
0001
0000
0001
0000
0100
0000
0010
0000
0100
0001
,
0100
0010
0100
0010
1000
0010
1000
0010
0100
0000
0010
0000
1000
0000
0001
0000
,
0100
0000
0000
0000
0000
0000
0100
0000
0100
0000
0000
0000
0000
0000
0100
0010
,
1000
0100
1000
0100
0010
0100
0010
0001
0010
0000
0001
0000
1000
0000
0100
0000
,
0001
0000
0000
0000
0000
0000
0100
0000
0100
0000
0000
0000
0000
0000
0100
0010
,
0001
0100
0001
0100
0010
0100
0010
1000
0010
0000
1000
0000
0010
0000
0002
0000
,
0000
0000
0003
0000
;

//---------------dance-single - ----------------
#NOTES:
     dance-single:
     Easy:
     Easy:
     3:
     0.242015,0.314845,0.189012,0.217014,0.000000,242.000000,215.000000,27.000000,31.000000,4.000000,0.000000,0.242015,0.314845,0.189012,0.217014,0.000000,242.000000,215.000000,27.000000,31.000000,4.000000,0.000000:
0000
0000
0000
0000
,
0000
0000
0000
0000
,
0000
0000
0000
0000
,
0000
0000
0000
0000
,
1100
0000
1100
0000
,
1000
0000
0001
0000
,
0101
0000
0101
0000
,
1001
0110
1001
0110
,
1000
0100
0000
0100
,
0010
0001
0001
1000
,
0010
0100
0000
0100
,
0010
1000
0002
1003
,
0001
0100
0000
0100
,
0010
1000
1000
0100
,
0010
0001
0000
0001
,
0100
0010
2000
3001
,
2000
0010
3002
0010
,
2003
0010
3002
0010
,
2003
0010
3002
0010
,
2003
0010
3002
0010
,
1003
0001
1000
0001
,
0100
0010
0100
0010
,
1000
0001
1000
0001
,
0010
00M0
0010
00M0
0010
00M0
0010
00M0
,
0220
0330
0001
1000
,
0100
1000
0010
0010
,
0220
0330
0010
1000
,
0001
2000
0100
3001
,
2002
3003
0001
0100
,
0010
1000
0001
0010
,
2002
3003
0001
0010
,
0200
0000
0310
0000
,
1100
0100
1000
1000
,
0011
0001
0010
0010
,
0110
0100
0010
0001
,
1000
0020
1000
0130
,
0101
0100
0001
0001
,
1010
0010
1000
1000
,
1100
0100
0010
0001
,
1000
1001
0110
1001
,
2100
3001
0100
1000
,
0100
0000
0010
0010
,
1020
0130
0001
0010
,
0100
0000
0000
0100
0010
0100
0010
0000
,
0012
1003
0100
0001
,
0100
0000
0010
0010
,
0021
0130
1000
0010
,
0100
0000
0000
0010
0100
0010
0100
0000
,
2002
3003
1000
0000
0010
0000
0100
0000
,
0001
0010
0100
1000
,
0010
0100
0001
0010
,
0100
0000
1000
0001
1000
0001
1000
0000
,
2002
3003
0001
0000
0100
0000
1000
0000
,
0001
0010
1000
0100
,
0001
1000
0010
0001
,
2000
0000
0000
0000
,
3010
0000
0010
0000
,
0010
1000
0001
0100
,
0010
0000
0100
0000
,
0001
0010
0100
1000
,
0001
0000
0001
0000
,
0001
0001
0010
0100
,
0010
0000
0010
0000
,
0001
0001
0100
0020
,
0000
0030
0000
0000
;

//---------------dance-single - ----------------
#NOTES:
     dance-single:
     Normal:
     Medium:
     6:
     0.401026,0.402438,0.147009,0.084005,0.014001,401.000000,380.000000,21.000000,12.000000,0.000000,0.000000,0.401026,0.402438,0.147009,0.084005,0.014001,401.000000,380.000000,21.000000,12.000000,0.000000,0.000000:
// measure 0
0000
0000
0000
0000
,  // measure 1
0000
0000
0000
0000
,  // measure 2
0000
0000
0000
0000
,  // measure 3
0000
0000
0000
0000
,  // measure 4
1000
0100
1000
0000
0001
0000
0100
0000
,  // measure 5
0010
0000
0100
0001
0100
0010
0100
0001
,  // measure 6
0010
0001
0010
0000
0100
1000
0100
0000
,  // measure 7
0010
0100
0000
0000
0110
0000
0000
0000
1001
0000
0000
0000
1001
0000
0000
0000
,  // measure 8
1000
0000
0100
1000
0100
0010
0001
0000
,  // measure 9
1100
0000
0001
0100
0010
1000
0001
0000
,  // measure 10
0101
0000
1000
0010
0100
0001
1000
0000
,  // measure 11
0011
0000
0001
0010
0100
1000
0001
0000
,  // measure 12
1010
0000
0100
0001
0100
0010
0100
0000
,  // measure 13
1010
0000
1000
0100
0010
0100
1000
0000
,  // measure 14
0011
0000
0001
1000
0100
1000
0001
0000
,  // measure 15
0101
0000
0001
0010
0001
1000
0001
0000
,  // measure 16
1000
0010
0001
0010
,  // measure 17
1000
0010
0001
0010
,  // measure 18
1000
0100
0001
0100
,  // measure 19
1000
0100
0001
0100
,  // measure 20
1000
0001
1000
0001
0100
0010
0100
0010
,  // measure 21
1000
0001
1000
0001
0010
0100
0010
0100
,  // measure 22
1000
0100
0010
0001
0100
0010
1000
0001
,  // measure 23
0100
0100
0010
0010
0100
0100
0010
0100
,  // measure 24
2002
3003
0001
1000
0100
1000
0010
0100
,  // measure 25
0001
0000
1000
0001
0010
0001
0100
0010
,  // measure 26
0200
0000
0301
1000
0100
1000
0001
0010
,  // measure 27
0001
0000
0002
0000
0103
0010
0100
0001
,  // measure 28
2000
0000
3001
0010
0100
0010
0001
1000
,  // measure 29
0010
0000
1000
0010
0100
0010
1000
0001
,  // measure 30
0200
0000
0301
1000
0100
0010
0100
1000
,  // measure 31
0002
0000
0000
0000
0000
0000
0000
0000
0000
0000
0000
0000
0013
0000
0001
0000
1000
0000
0100
0000
0000
1000
0000
0000
,  // measure 32
0100
0000
0100
1000
0100
0001
0100
0010
,  // measure 33
0001
0000
0001
0100
1000
0100
0010
1000
,  // measure 34
0001
0000
0010
1000
0010
0001
1000
0010
,  // measure 35
0100
0000
0020
0000
1030
0010
0100
0001
,  // measure 36
1000
0000
0100
0001
0100
0010
0001
1000
,  // measure 37
0010
0000
0100
0010
0100
0000
0010
0000
1000
0000
0100
0000
0001
0000
0100
0000
,  // measure 38
0010
0000
0010
0001
0100
1000
0100
0010
,  // measure 39
1000
0000
1000
0001
1000
0001
1000
0000
,  // measure 40
0110
0000
0001
0100
0010
0000
0010
0100
,  // measure 41
0001
0000
0001
1000
0100
0100
0010
0100
,  // measure 42
2000
0000
3100
1000
0010
0000
0010
1000
,  // measure 43
0100
0000
0000
0100
0010
0100
1000
0001
,  // measure 44
0200
0000
0301
0100
1000
0000
1000
0100
,  // measure 45
0010
0000
0010
1000
0100
0001
0100
0010
,  // measure 46
0002
0000
0013
1000
0010
0000
0001
0100
,  // measure 47
1000
0000
0000
0010
0100
0001
1000
0001
,  // measure 48
0020
0000
0031
0100
0001
0010
0001
0000
,  // measure 49
1000
0100
1000
0010
1000
0100
1000
0000
,  // measure 50
1010
0101
0011
1100
,  // measure 51
0100
1000
0010
0100
0001
0010
0100
0000
,  // measure 52
0110
0000
1000
0100
0001
0100
1000
0000
,  // measure 53
0001
0100
1000
0100
0001
0100
0010
0000
,  // measure 54
0101
0011
1100
1010
,  // measure 55
1000
0010
0001
1000
0100
0000
0001
0000
,  // measure 56
0010
0000
0001
0010
0010
0001
0100
0010
,  // measure 57
1000
0100
0001
0100
1000
0001
0100
0010
,  // measure 58
0100
0000
0001
0100
0100
0001
1000
0001
,  // measure 59
0010
1000
0010
0001
1000
0010
0100
0001
,  // measure 60
1000
0000
0000
0001
1000
0000
0000
0001
,  // measure 61
1000
0010
0001
1000
0100
0001
0100
0010
,  // measure 62
1000
0000
0000
1000
0001
0000
0000
0001
,  // measure 63
0010
1000
0001
0100
1000
0001
0100
0010
;
