#VERSION:0.83;
#TITLE:Love You Love You Love;
#SUBTITLE:(Vocal Mix);
#ARTIST:Adriana Figueroa & virt;
#TITLETRANSLIT:;
#SUBTITLETRANSLIT:;
#ARTISTTRANSLIT:;
#GENRE:;
#ORIGIN:;
#CREDIT:;
#BANNER:[VIP Room Round 2] - Love You Love You Love (Vocal Mix).png;
#BACKGROUND:[VIP Room Round 2] - Love You Love You Love (Vocal Mix)-bg.png;
#PREVIEWVID:;
#JACKET:[VIP Room Round 2] - Love You Love You Love (Vocal Mix)-jacket.png;
#CDIMAGE:;
#DISCIMAGE:;
#LYRICSPATH:;
#CDTITLE:;
#MUSIC:[VIP Room Round 2] - Love You Love You Love (Vocal Mix).ogg;
#OFFSET:-5.668001;
#SAMPLESTART:72.871651;
#SAMPLELENGTH:14.544350;
#SELECTABLE:YES;
#BPMS:0.000=132.000;
#STOPS:;
#DELAYS:;
#WARPS:;
#TIMESIGNATURES:0.000=4=4;
#TICKCOUNTS:0.000=4;
#COMBOS:0.000=1;
#SPEEDS:0.000=1.000=0.000=0;
#SCROLLS:0.000=1.000;
#FAKES:;
#LABELS:0.000=Song Start;
#BGCHANGES:;
#KEYSOUNDS:;
#ATTACKS:
;

//---------------dance-single - ----------------
#NOTEDATA:;
#CHARTNAME:;
#STEPSTYPE:dance-single;
#DESCRIPTION:;
#CHARTSTYLE:;
#DIFFICULTY:Hard;
#METER:7;
#RADARVALUES:0.405548,0.443467,0.300105,0.283884,0.218996,350.000000,313.000000,37.000000,35.000000,0.000000,0.000000,0.000000,0.000000,0.000000,0.405548,0.443467,0.300105,0.283884,0.218996,350.000000,313.000000,37.000000,35.000000,0.000000,0.000000,0.000000,0.000000,0.000000;
#CREDIT:;
#NOTES:
// measure 0
0000
0000
0000
0000
,  // measure 1
1000
0000
0001
0000
1000
0000
0001
0010
0000
0010
0000
0001
0000
0000
1000
0000
,  // measure 2
0010
0000
0100
0000
0010
0000
0100
0001
0000
0001
0000
1000
0000
0000
0000
0000
,  // measure 3
0000
0000
0000
0000
,  // measure 4
0000
0000
0000
0000
0000
0000
0001
0100
0010
1000
0001
0100
,  // measure 5
0020
0100
0100
0130
,  // measure 6
2000
0001
0001
3001
,  // measure 7
0200
0010
0010
0310
,  // measure 8
0110
1001
0101
0011
,  // measure 9
2100
0100
0100
3100
,  // measure 10
0002
0010
0010
0013
,  // measure 11
2000
0001
0001
3001
,  // measure 12
0101
0011
1100
1100
,  // measure 13
1002
1000
1000
1003
,  // measure 14
0200
0010
0010
0310
,  // measure 15
0002
1000
1000
1003
,  // measure 16
1001
0110
1010
0101
,  // measure 17
0021
0001
0001
0031
,  // measure 18
0200
0010
0010
0310
,  // measure 19
2000
0001
0001
3001
,  // measure 20
0101
0011
1100
1001
,  // measure 21
0000
0000
1000
0010
0000
0010
1000
0000
0010
0000
0100
0000
0001
0000
0010
0000
,  // measure 22
0001
0000
1000
0000
0010
0000
1000
0001
0000
0001
1000
0000
0100
0000
0000
0000
,  // measure 23
0000
0000
0010
0001
0000
0001
0100
0000
0010
0000
1000
0000
0001
0000
0010
0000
,  // measure 24
0001
0100
1000
0100
0001
0010
0100
0000
,  // measure 25
0000
0000
0010
0100
0000
0100
0010
0000
0001
0000
1000
0000
0010
0000
1000
0000
,  // measure 26
0001
0000
1000
0001
0000
0001
1000
0000
0010
0000
0100
0000
0010
0000
0000
0000
,  // measure 27
0000
0100
0010
1000
0001
0010
0001
1000
,  // measure 28
0100
0000
1000
0000
0010
0100
1001
0000
,  // measure 29
0000
0001
0010
0001
,  // measure 30
1000
0001
0010
1000
0100
0001
1000
0000
,  // measure 31
0000
0010
0100
0020
0000
0000
0030
0000
,  // measure 32
0000
0010
0100
0020
0000
0000
0030
0000
,  // measure 33
0000
1000
0100
1000
,  // measure 34
0001
1000
0100
0001
0010
1000
0001
0000
,  // measure 35
0000
0100
0001
0020
0000
0031
0010
0200
,  // measure 36
0000
1300
0010
2000
0000
0000
3000
0000
,  // measure 37
0001
0000
0100
0000
0001
0000
1000
0010
0000
1000
0000
1000
0000
0000
0001
0000
,  // measure 38
0010
0000
0100
0000
0010
0000
0100
1000
0000
0001
0000
0001
0000
0000
1000
0000
,  // measure 39
0200
0000
0000
1300
0000
0000
0100
0000
0020
0000
0000
0031
0000
0000
0010
0000
,  // measure 40
0200
0000
0020
0330
,  // measure 41
0100
0000
0010
0000
0001
0000
1000
0010
0000
1000
0000
1000
0000
0000
0001
0000
,  // measure 42
0010
0000
0001
0000
0100
0000
0010
0100
0000
0100
0000
0001
0000
0000
1000
0000
,  // measure 43
0002
0000
0000
0013
0000
0000
0001
0000
2000
0000
0000
3010
0000
0000
1000
0000
,  // measure 44
1001
0000
0000
0000
0000
0000
0010
0100
0010
0000
0000
0000
0110
0000
0000
0000
,  // measure 45
1000
0000
0001
0000
0010
0000
0100
0010
0000
0001
0000
0001
0000
0000
0010
0000
,  // measure 46
0001
0000
0100
0000
0001
0000
1000
0010
0000
0100
0000
0100
0000
0000
0010
0000
,  // measure 47
2000
0000
0000
3001
0000
0000
0010
0000
0200
0000
0000
0310
0000
0000
0001
0000
,  // measure 48
2000
0000
0002
3003
,  // measure 49
0001
0000
0100
0000
0010
0000
1000
0001
0000
0010
0000
0010
0000
0000
0100
0000
,  // measure 50
0010
0000
0001
0000
1000
0000
0010
1000
0000
0100
0000
0100
0000
0000
1000
0000
,  // measure 51
0002
0000
0000
0013
0000
0000
0100
0000
2000
0000
0000
3010
0000
0000
0100
0000
,  // measure 52
0110
0000
0000
0000
0000
0000
0001
1000
0001
0000
0000
0000
0100
0000
0000
0000
,  // measure 53
1002
0010
0010
0013
,  // measure 54
2001
0010
0010
3010
,  // measure 55
1002
0100
0100
0103
,  // measure 56
0101
1010
1100
0011
,  // measure 57
2010
0010
0010
3010
,  // measure 58
0102
0100
0100
0103
,  // measure 59
2001
0001
0001
3001
,  // measure 60
0101
1100
0011
1001
;

//---------------dance-single - ----------------
#NOTEDATA:;
#CHARTNAME:;
#STEPSTYPE:dance-single;
#DESCRIPTION:;
#CHARTSTYLE:;
#DIFFICULTY:Easy;
#METER:2;
#RADARVALUES:0.136728,0.197096,0.032444,0.202774,0.000000,118.000000,114.000000,4.000000,25.000000,0.000000,0.000000,0.000000,0.000000,0.000000,0.136728,0.197096,0.032444,0.202774,0.000000,118.000000,114.000000,4.000000,25.000000,0.000000,0.000000,0.000000,0.000000,0.000000;
#CREDIT:;
#NOTES:
0000
0000
0000
0000
,
0000
0000
0000
0000
,
0000
0000
0000
0000
,
0000
0000
0000
0000
,
0000
0000
0000
0000
,
2000
0000
0000
3000
,
0002
0000
0000
0003
,
2000
0000
0000
3000
,
0010
1000
0001
0100
,
0020
0000
0000
0030
,
0200
0000
0000
0300
,
0020
0000
0000
0030
,
0100
0001
0010
0010
,
0002
0000
0000
0003
,
2000
0000
0000
3000
,
0002
0000
0000
0003
,
0100
0010
1000
0001
,
0020
0000
0000
0030
,
0200
0000
0000
0300
,
0020
0000
0000
0030
,
0100
0010
0001
1000
,
0001
0100
0000
0001
,
0000
1000
0000
0100
,
0000
1000
0000
0010
,
0100
0010
1000
0001
,
0000
0100
0000
0001
,
0000
0010
0000
0100
,
0000
0010
0000
0001
,
0000
1000
0001
1001
,
0000
0001
0000
1000
,
0010
0000
0100
0000
,
0010
1000
0200
0300
,
0010
0001
0200
0300
,
0010
0000
1000
0000
,
0001
1000
0010
0100
,
0000
0010
0000
1000
,
0000
0100
0000
0000
,
0010
0000
0001
0000
,
1000
0000
0100
0000
,
1000
0000
0001
0000
,
0200
0000
0020
0330
,
0010
0000
0100
0000
,
0001
0000
1000
0000
,
0001
0000
0100
0000
,
0020
0030
0110
0110
,
0100
0000
0010
0000
,
0001
0000
1000
0000
,
0100
0000
1000
0000
,
0002
0000
2000
3003
,
0001
0000
0010
0000
,
0100
0000
0010
0000
,
0001
0000
1000
0000
,
0010
0000
1001
0000
,
0200
0000
0000
0300
,
0020
0000
0000
0030
,
0200
0000
0000
0300
,
1000
0001
0100
0010
,
2000
0000
0000
3000
,
0002
0000
0000
0003
,
2000
0000
0000
3000
,
0001
1000
0010
0100
;

//---------------dance-single - ----------------
#NOTEDATA:;
#CHARTNAME:;
#STEPSTYPE:dance-single;
#DESCRIPTION:;
#CHARTSTYLE:;
#DIFFICULTY:Medium;
#METER:5;
#RADARVALUES:0.281566,0.320281,0.218996,0.291994,0.000000,243.000000,216.000000,27.000000,36.000000,0.000000,0.000000,0.000000,0.000000,0.000000,0.281566,0.320281,0.218996,0.291994,0.000000,243.000000,216.000000,27.000000,36.000000,0.000000,0.000000,0.000000,0.000000,0.000000;
#CREDIT:;
#NOTES:
0000
0000
0000
0000
,
0000
0000
0000
0000
,
0000
0000
0000
0000
,
0000
0000
0000
0000
,
0000
0000
0000
0000
,
2000
0010
0000
3010
,
0200
0001
0000
0301
,
2000
0001
0000
3001
,
1001
0110
1001
0110
,
0020
1000
0000
1030
,
0200
0010
0000
0310
,
0002
1000
0000
1003
,
0101
1010
1100
1100
,
0002
0010
0000
0013
,
2000
0010
0000
3010
,
0200
0001
0000
0301
,
0101
0011
1100
1010
,
0200
0010
0000
0310
,
2000
0001
0000
3001
,
0020
0100
0000
0130
,
0011
0110
1100
0001
,
1000
0010
0100
0001
,
0010
0000
0001
0000
1000
0001
1000
0000
,
0001
0100
0010
1000
,
0100
0000
0010
0001
0100
0010
1000
0000
,
0001
0010
0001
1000
,
0100
0000
0010
0000
0100
0010
0001
0000
,
1000
0001
0100
0010
,
1000
0000
0001
0000
0100
0010
0110
0000
,
0000
0001
1000
0001
,
1000
0100
0001
0100
1000
0100
0001
0000
,
0000
0100
0010
0200
0000
0000
0300
0000
,
0000
0100
0010
0200
0000
0000
0300
0000
,
0000
0010
0001
1000
,
0001
0010
1000
0010
0001
0010
1000
0000
,
0000
0010
0100
0010
0000
0100
0010
0100
,
0000
0010
0100
0020
0000
0000
0030
0000
,
1001
0000
0010
0000
0001
1000
0001
0000
,
1000
0000
0010
0000
0100
0001
0100
0000
,
0002
1003
0002
0013
,
0002
0000
0200
0303
,
0010
0000
1000
0000
0100
1000
0100
0000
,
1000
0000
0001
0000
0100
0000
0010
0100
,
0020
1030
0020
0130
,
0002
0003
0101
0011
,
0010
0000
0100
0000
1000
0100
0010
0000
,
0100
0000
0010
0000
0001
1000
0010
0000
,
0200
0310
0020
1030
,
0002
0000
0020
0033
,
1000
0000
0001
0000
0100
0010
1000
0000
,
0010
0000
1000
0000
0001
0010
0100
0000
,
0020
0031
0020
0130
,
2000
3000
0002
1003
,
0002
0100
0000
0103
,
0020
1000
0000
1030
,
0002
0100
0000
0103
,
0101
1010
1100
0011
,
2000
0100
0000
3100
,
0002
1000
0000
1003
,
0200
0010
0000
0310
,
0110
0011
0101
1001
;

//---------------dance-single - ----------------
#NOTEDATA:;
#CHARTNAME:;
#STEPSTYPE:dance-single;
#DESCRIPTION:;
#CHARTSTYLE:;
#DIFFICULTY:Beginner;
#METER:1;
#RADARVALUES:0.092697,0.121664,0.113553,0.000000,0.000000,80.000000,66.000000,14.000000,0.000000,0.000000,0.000000,0.000000,0.000000,0.000000,0.092697,0.121664,0.113553,0.000000,0.000000,80.000000,66.000000,14.000000,0.000000,0.000000,0.000000,0.000000,0.000000,0.000000;
#CREDIT:;
#NOTES:
0000
0000
0000
0000
,
0000
0000
0000
0000
,
0000
0000
0000
0000
,
0000
0000
0000
0000
,
0000
0000
0000
0000
,
1000
0000
0000
0000
,
0001
0000
0000
0000
,
1000
0000
0000
0000
,
0110
0000
0000
0000
,
0010
0000
0000
0000
,
0100
0000
0000
0000
,
0010
0000
0000
0000
,
1001
0000
0000
0000
,
1000
0000
0000
0000
,
0100
0000
0000
0000
,
1000
0000
0000
0000
,
1001
0000
0000
0000
,
0001
0000
0000
0000
,
0010
0000
0000
0000
,
0001
0000
0000
0000
,
1001
0000
0000
0000
,
0010
0000
0000
0000
,
0100
0000
0001
0000
,
1000
0000
0000
0000
,
0100
0000
1000
0000
,
0001
0000
0000
0000
,
0100
0000
0010
0000
,
1000
0000
0000
0000
,
0001
0000
1000
1000
,
0000
0001
0000
0000
,
0100
0000
0000
0000
,
0000
0010
0000
0000
,
0000
0010
0000
0000
,
0000
1000
0000
0000
,
0100
0000
0000
0000
,
1000
0000
0001
0000
,
0100
0000
0000
0000
,
0110
0000
0000
0000
,
0110
0000
0000
0000
,
1000
0000
0001
0000
,
1000
0000
0000
0000
,
1001
0000
0000
0000
,
1001
0000
0000
0000
,
0001
0000
1000
0000
,
0001
0000
0000
0000
,
0110
0000
0000
0000
,
0110
0000
0000
0000
,
0010
0000
1000
0000
,
0001
0000
0000
0000
,
1001
0000
0000
0000
,
0110
0000
0000
0000
,
0100
0000
0010
0000
,
0100
0000
0000
0000
,
0001
0000
0000
0000
,
1000
0000
0000
0000
,
0001
0000
0000
0000
,
0110
0000
0000
0000
,
0100
0000
0000
0000
,
0010
0000
0000
0000
,
0100
0000
0000
0000
,
1001
0000
0000
0000
;
