#VERSION:0.83;
#TITLE:Up & Up;
#SUBTITLE:;
#ARTIST:Skizzo;
#TITLETRANSLIT:;
#SUBTITLETRANSLIT:;
#ARTISTTRANSLIT:;
#GENRE:;
#ORIGIN:;
#CREDIT:;
#BANNER:[VIP Room Round 1] - Up & Up.png;
#BACKGROUND:[VIP Room Round 1] - Up & Up-bg.png;
#PREVIEWVID:;
#JACKET:[VIP Room Round 1] - Up & Up-jacket.png;
#CDIMAGE:;
#DISCIMAGE:;
#LYRICSPATH:;
#CDTITLE:cdtitle.png;
#MUSIC:[VIP Room Round 1] - Up & Up.ogg;
#OFFSET:2.665000;
#SAMPLESTART:26.132000;
#SAMPLELENGTH:15.000000;
#SELECTABLE:YES;
#DISPLAYBPM:150.000000;
#BPMS:0.000=75.000,
20.000=150.000,
244.000=18.750;
#STOPS:;
#DELAYS:;
#WARPS:;
#TIMESIGNATURES:0.000=4=4;
#TICKCOUNTS:0.000=4;
#COMBOS:0.000=1;
#SPEEDS:0.000=1.000=0.000=0;
#SCROLLS:0.000=1.000;
#FAKES:;
#LABELS:0.000=Song Start;
#BGCHANGES:3.250=[VIP Room Round 1] - Up & Up.avi=1.000=0=0=0=StretchNoLoop====,
99999=-nosongbg-=1.000=0=0=0 // don't automatically add -songbackground-
;
#KEYSOUNDS:;
#ATTACKS:
;

//---------------dance-single - ----------------
#NOTEDATA:;
#CHARTNAME:9646_CSP;
#STEPSTYPE:dance-single;
#DESCRIPTION:;
#CHARTSTYLE:Dance;
#DIFFICULTY:Challenge;
#METER:10;
#RADARVALUES:0.743750,0.919854,0.309462,0.382277,0.910183,572.000000,538.000000,34.000000,42.000000,64.000000,0.000000,0.000000,0.000000,0.000000,0.743750,0.919854,0.309462,0.382277,0.910183,572.000000,538.000000,34.000000,42.000000,64.000000,0.000000,0.000000,0.000000,0.000000;
#CREDIT:9646;
#DISPLAYBPM:150.000000;
#NOTES:
// measure 0
0000
0000
0000
0000
,  // measure 1
0000
0000
0000
0000
,  // measure 2
0000
0000
0000
0000
,  // measure 3
0000
0000
0000
0000
,  // measure 4
0000
0000
0000
0000
,  // measure 5
1000
0100
0000
0000
0001
0100
0000
0000
1001
0000
0000
0000
0100
0010
0000
0000
,  // measure 6
0001
0010
0000
0000
1000
0100
0000
0000
0110
0000
0000
0000
MMMM
0000
0000
0000
,  // measure 7
0001
0010
0000
0000
1000
0010
0000
0000
1001
0000
0000
0000
0010
0100
0000
0000
,  // measure 8
1000
0100
0000
0000
0001
0010
0000
0000
0110
0000
0000
0000
MMMM
0000
0000
0000
,  // measure 9
0001
0100
0000
0000
1000
0100
0000
0000
1001
0000
0000
0000
0100
0010
0000
0000
,  // measure 10
1000
0010
0000
0000
0001
0100
0000
0000
0110
0000
0000
0000
MMMM
0000
0000
0000
,  // measure 11
1000
0010
0000
0000
0001
0010
0000
0000
1001
0000
0000
0000
0010
0100
0000
0000
,  // measure 12
0001
0100
0000
0000
0100
1000
0000
0000
0001
0000
0000
0000
0110
0000
0000
0000
,  // measure 13
1001
0000
0001
0100
0001
0010
0100
0010
0001
1000
0100
1000
0001
0100
0010
1000
,  // measure 14
0002
0000
1003
0100
2000
0000
3001
0100
0002
0000
1003
0100
0010
0100
1000
0001
,  // measure 15
MMMM
0000
0001
1000
0010
0100
0001
0100
0010
1000
0001
0010
0100
1000
0001
1000
,  // measure 16
0020
0000
1030
0001
0020
0000
0130
1000
0002
0000
1003
0100
0001
0100
1000
0001
,  // measure 17
MMMM
0000
0001
1000
0001
0100
0001
1000
0001
0010
0100
0010
0002
0000
1003
0000
,  // measure 18
MMMM
0000
0010
0000
0020
0000
0031
1000
0001
1000
0010
0100
0002
0000
1003
0000
,  // measure 19
MMMM
0000
1000
0100
0010
0000
0100
1000
0001
1000
0001
1000
0001
0100
0010
1000
,  // measure 20
0002
0000
0013
0100
0020
0000
0031
1000
0002
0000
0103
0010
1000
0001
0020
0030
,  // measure 21
MMMM
0000
1000
0100
1000
0100
0010
0001
MMMM
0000
0001
0010
0001
0010
0100
1000
,  // measure 22
MMMM
0000
1000
0100
1000
0000
0002
0000
0013
0100
1000
0001
0100
0010
0000
0000
,  // measure 23
2010
0000
3001
0000
0001
0000
0001
0000
1000
0100
1000
0001
2000
0000
3010
0000
,  // measure 24
MMMM
0000
0001
0000
0001
0000
1000
0001
0100
0001
0010
0100
2000
0000
3001
0000
,  // measure 25
MMMM
0000
0001
1000
0001
0000
0101
0000
MMMM
0000
1000
0001
1000
0010
0100
0000
,  // measure 26
MMMM
0000
2000
0000
3001
0010
0100
0000
0001
0100
0010
0001
1000
0000
0000
0000
,  // measure 27
0010
0010
0001
0100
0100
1000
0010
0001
0010
1000
0000
1000
,  // measure 28
0100
0100
0001
0010
0010
1000
0100
0001
0100
0010
0000
0000
,  // measure 29
0012
0000
0000
0000
,  // measure 30
0010
0000
0000
0000
,  // measure 31
0100
0000
0100
0000
0000
0000
0000
0000
0000
0000
0000
0000
,  // measure 32
1003
0000
1000
0010
0000
0010
0001
0000
0001
0100
0000
0000
,  // measure 33
1100
1000
0010
0001
0011
0001
0010
1000
,  // measure 34
1100
1000
1001
0001
0101
0001
1001
1000
,  // measure 35
1100
0000
0100
0010
0001
0000
0010
0100
1000
0000
0001
0100
0010
1000
0100
0010
,  // measure 36
0200
0000
0000
0310
,  // measure 37
2001
0000
3001
0100
0010
1000
0001
0010
0100
0010
0001
0010
0100
1000
0001
0010
,  // measure 38
0100
1000
0100
1000
0001
1000
0001
1000
0100
1000
0001
1000
0010
0100
0010
0001
,  // measure 39
0010
0100
0010
1000
0001
0100
0001
1000
0001
0010
0100
1000
0100
0001
0100
1000
,  // measure 40
0001
0010
0100
0010
0001
1000
0001
1000
0100
0010
0100
1000
0001
0010
0100
0000
,  // measure 41
2100
0000
3001
0000
1000
0100
1000
0010
0100
0010
0100
0001
0010
0100
0010
0000
,  // measure 42
0001
0000
1000
0000
0020
0000
0130
0010
1000
0001
0100
0001
1000
0100
0010
0000
,  // measure 43
0001
0000
1000
0000
0200
0000
0310
0100
1000
0001
0010
0001
1000
0010
0100
0000
,  // measure 44
0001
1000
0100
0010
0001
0010
0100
1000
0001
1000
0100
0010
0001
1000
0100
0000
,  // measure 45
0120
0000
0031
0000
0001
0000
0001
0000
1001
0000
1000
0020
0000
0000
0030
0000
,  // measure 46
MMMM
0000
0001
0000
1000
0100
1000
0010
0100
0000
0010
2000
0000
0000
3000
0000
,  // measure 47
2100
0000
3001
0000
0001
0000
0001
0000
0101
0000
0010
2000
0000
0000
3000
0000
,  // measure 48
1002
0000
0013
0100
0010
0000
1000
0000
0010
0000
0100
0020
0000
0000
0030
0000
,  // measure 49
0120
0000
0031
0000
0001
0000
0001
0000
1001
0000
1000
0020
0000
0000
0030
0000
,  // measure 50
MMMM
0000
0001
0000
1000
0100
1000
0010
0100
0000
0010
2000
0000
0000
3000
0000
,  // measure 51
2100
0000
3001
0000
0001
0000
0001
0000
0101
0000
0010
1000
0000
0001
1000
0000
,  // measure 52
1002
0000
0013
0100
0010
0000
1000
0000
0010
0000
0100
0020
0000
0000
0030
0000
,  // measure 53
2001
0000
0000
0000
3010
0000
0100
0000
0001
1000
0010
0000
1000
0100
1000
0001
,  // measure 54
1000
0000
0001
0100
0001
1000
0001
0000
0010
0100
0010
0001
1000
0000
0000
0000
,  // measure 55
2001
0000
0000
0000
3010
0000
0001
0010
0000
0100
0010
0000
1000
0001
1000
0000
,  // measure 56
0100
0010
0001
1000
0001
0000
0010
0100
1000
0001
1000
0000
0010
0000
0001
0010
,  // measure 57
2000
0000
0000
0000
3100
0000
0010
0000
0001
1000
0100
0000
1000
0010
1000
0001
,  // measure 58
1000
0000
0001
0010
0001
1000
0001
0000
0100
0010
0100
0001
1000
0000
0000
0000
,  // measure 59
2001
0000
0000
0000
3100
0000
0001
0100
0000
0010
0100
0000
1000
0001
1000
0000
,  // measure 60
0010
0100
0001
1000
0001
0000
0100
0010
1000
0001
1000
0000
0100
0000
0001
0100
,  // measure 61
2000
3001
0000
0000
;

//---------------dance-single - ----------------
#NOTEDATA:;
#CHARTNAME:9646_BEG;
#STEPSTYPE:dance-single;
#DESCRIPTION:;
#CHARTSTYLE:Dance;
#DIFFICULTY:Beginner;
#METER:3;
#RADARVALUES:0.162533,0.222085,0.109222,0.045509,0.000000,125.000000,113.000000,12.000000,5.000000,0.000000,0.000000,0.000000,0.000000,0.000000,0.162533,0.222085,0.109222,0.045509,0.000000,125.000000,113.000000,12.000000,5.000000,0.000000,0.000000,0.000000,0.000000,0.000000;
#CREDIT:9646;
#DISPLAYBPM:150.000000;
#NOTES:
0000
0000
0000
0000
,
0000
0000
0000
0000
,
0000
0000
0000
0000
,
0000
0000
0000
0000
,
0000
0000
0000
0000
,
1000
0000
1000
0000
,
1000
1000
1000
0000
,
0001
0000
0001
0000
,
0001
0001
0001
0000
,
1000
0000
1000
0000
,
1000
1000
1000
0000
,
0001
0000
0001
0000
,
0001
0000
0000
0000
,
1000
0000
0001
0000
,
0010
0010
0010
0000
,
0001
0000
1000
0000
,
0010
0010
0010
0000
,
0100
0000
1000
0000
,
0010
0000
0001
0000
,
0100
0000
0010
0000
,
1000
1000
1000
0000
,
0002
0000
0003
0000
,
2000
0000
3000
0000
,
0020
0000
0030
0000
,
0002
0000
0003
0000
,
0010
0000
0010
0000
,
1000
0000
1000
0000
,
0100
0100
0100
0000
,
0010
0010
0010
0000
,
1001
0000
0000
0000
,
0000
0000
0000
0000
,
0000
0000
0000
0000
,
0000
0000
0000
0000
,
0010
0000
0010
0000
,
0100
0000
0100
0000
,
0010
0010
0010
0010
,
0020
0000
0000
0030
,
0010
0000
0100
0000
,
1000
0000
0001
0000
,
1000
0000
0010
0000
,
0001
0000
0010
0000
,
1000
0000
0001
0000
,
0001
0000
1000
0000
,
1000
0000
0001
0000
,
0010
0010
0010
0000
,
0100
0000
0110
0000
,
0001
0000
1001
0000
,
0010
0000
0110
0000
,
1000
0000
1001
0000
,
0010
0000
0110
0000
,
1000
0000
1001
0000
,
0100
0000
0110
0000
,
0001
0000
1001
0000
,
1001
0000
0010
0000
,
0100
0100
0100
0000
,
0010
0000
0001
0000
,
1000
0000
0001
0000
,
1001
0000
0100
0000
,
0010
0010
0010
0000
,
0100
0000
1000
0000
,
0001
0000
1000
0000
,
1001
0000
0000
0000
;

//---------------dance-single - ----------------
#NOTEDATA:;
#CHARTNAME:9646_ESP;
#STEPSTYPE:dance-single;
#DESCRIPTION:;
#CHARTSTYLE:Dance;
#DIFFICULTY:Hard;
#METER:8;
#RADARVALUES:0.531807,0.668985,0.218444,0.236648,0.150180,409.000000,385.000000,24.000000,26.000000,0.000000,0.000000,0.000000,0.000000,0.000000,0.531807,0.668985,0.218444,0.236648,0.150180,409.000000,385.000000,24.000000,26.000000,0.000000,0.000000,0.000000,0.000000,0.000000;
#CREDIT:9646;
#DISPLAYBPM:150.000000;
#NOTES:
0000
0000
0000
0000
,
0000
0000
0000
0000
,
0000
0000
0000
0000
,
0000
0000
0000
0000
,
0000
0000
0000
0000
,
1000
0100
0000
0000
0001
0100
0000
0000
1100
0000
0000
0000
1000
0001
0000
0000
,
0100
0001
0000
0000
0010
0100
0000
0000
0110
0000
0000
0000
0000
0000
0000
0000
,
0001
0010
0000
0000
0100
1000
0000
0000
1100
0000
0000
0000
1000
0001
0000
0000
,
0010
1000
0000
0000
0010
0001
0000
0000
1001
0000
0000
0000
0000
0000
0000
0000
,
0001
0010
0000
0000
1000
0010
0000
0000
0011
0000
0000
0000
0001
1000
0000
0000
,
0010
1000
0000
0000
0100
0010
0000
0000
0110
0000
0000
0000
0000
0000
0000
0000
,
1000
0100
0000
0000
0010
0001
0000
0000
0011
0000
0000
0000
0001
1000
0000
0000
,
0100
0001
0000
0000
0100
1000
0000
0000
1001
0000
0000
0000
0101
0000
0000
0000
,
2010
3001
0100
0001
0010
0100
0010
0002
,
1003
0200
1300
0020
1030
0002
0103
0010
,
2000
3001
0010
0001
0100
0010
0100
0002
,
1003
0020
1030
0200
1300
0002
0013
0100
,
1000
0001
0010
0010
0001
0100
0010
1000
,
0001
1000
0100
0100
1000
0010
0100
0001
,
0010
0100
0010
0001
1000
0100
0010
0100
,
1000
1000
0001
0001
0100
0010
1000
0001
,
0000
1000
0100
1000
0000
0001
0100
0001
,
0000
1000
0100
1000
0010
0001
0010
0000
,
1010
1000
0100
0001
1000
0010
0002
1003
,
0000
1000
0001
1000
0010
0001
0020
1030
,
0000
1000
0100
0001
0000
0001
0100
1000
,
0000
0001
0010
1000
0010
0001
1000
0000
,
0010
0001
1000
0001
0010
1000
0001
0000
,
0010
1000
0001
1000
0010
0001
1000
0000
,
0110
0000
0000
0000
,
0100
0000
0000
0000
,
0100
0000
0100
0000
0000
0000
0000
0000
0000
0000
0000
0000
,
0100
0000
0100
0010
0000
0010
1000
0000
1000
0001
0000
0000
,
0101
0001
1000
0100
1100
1000
0001
0100
,
0101
0001
0011
0010
0110
0100
1100
1000
,
1001
0001
0100
0100
1000
1000
0010
0010
,
0002
0000
0000
1003
,
1100
0001
0100
0010
0001
0010
0100
0001
,
1000
0100
1000
0001
1000
0010
0100
0001
,
0010
0100
0010
1000
0010
0001
1000
0100
,
1000
0001
1000
0010
0100
0010
0001
0001
,
0020
1030
0001
0001
0010
0100
1000
1000
,
0001
0100
0001
0001
1000
0100
0010
0010
,
0001
1000
0001
0001
0100
0010
1000
0100
,
0010
0010
0001
0001
1000
0100
0010
0100
,
1000
0000
0001
0000
0001
0000
0001
0000
1000
0000
0100
0020
0000
0000
0030
0000
,
0100
0000
1000
0000
0001
0000
1000
0000
0010
0000
0010
0002
0000
0000
0003
0000
,
0100
0000
0100
0000
1000
0000
0001
0000
0100
0000
0001
2000
0000
0000
3000
0000
,
0100
0000
0001
0000
0100
0000
1000
0000
0010
0000
0100
0020
0000
0000
0030
0000
,
1000
0000
0001
0000
0001
0000
0001
0000
1000
0000
0100
0020
0000
0000
0030
0000
,
0100
0000
1000
0000
0001
0000
1000
0000
0010
0000
0010
0002
0000
0000
0003
0000
,
0100
0000
0100
0000
1000
0000
0001
0000
0100
0000
0001
1000
0000
0001
1000
0000
,
0100
0000
0001
0000
0100
0000
1000
0000
0010
0000
0100
0020
0000
0000
0030
0000
,
2010
0000
3100
0100
0010
0001
1000
0100
,
1000
0001
0100
0001
1000
0100
0010
0000
,
2100
0000
3010
0010
0001
0010
1000
0001
,
0010
0100
0010
0001
0100
0001
0010
0100
,
0012
0000
0103
0100
0010
1000
0001
0100
,
0001
1000
0100
1000
0001
0100
0010
0000
,
0102
0000
0013
0010
1000
0010
0001
1000
,
0010
0100
0010
1000
0100
1000
0010
0100
,
0002
1003
0000
0000
;

//---------------dance-single - ----------------
#NOTEDATA:;
#CHARTNAME:9646_BSP;
#STEPSTYPE:dance-single;
#DESCRIPTION:;
#CHARTSTYLE:Dance;
#DIFFICULTY:Easy;
#METER:4;
#RADARVALUES:0.291259,0.445990,0.455092,0.336768,0.000000,224.000000,174.000000,50.000000,37.000000,0.000000,0.000000,0.000000,0.000000,0.000000,0.291259,0.445990,0.455092,0.336768,0.000000,224.000000,174.000000,50.000000,37.000000,0.000000,0.000000,0.000000,0.000000,0.000000;
#CREDIT:9646;
#DISPLAYBPM:150.000000;
#NOTES:
0000
0000
0000
0000
,
0000
0000
0000
0000
,
0000
0000
0000
0000
,
0000
0000
0000
0000
,
0000
0000
0000
0000
,
0100
0100
1100
0100
,
0010
0010
0011
0000
,
0001
0001
0101
0001
,
0010
0010
1100
0000
,
0100
0100
0101
0100
,
0010
0010
1010
0000
,
1000
1000
1100
1000
,
0010
0010
0100
0110
,
1001
0010
0100
0010
,
1000
0100
0001
0010
,
1001
0100
0010
0100
,
1000
0010
0001
0100
,
1000
0001
0010
0010
,
0100
1000
0001
0001
,
0010
1000
1000
0010
,
0001
0001
1000
0001
,
0202
0303
1100
0000
,
2002
3003
0110
0000
,
2020
3030
0011
0000
,
0220
0330
1001
0000
,
0102
0000
0013
0010
,
2000
0000
3001
0000
,
0010
0010
0010
0000
,
0100
0100
0100
0000
,
1001
0000
0000
0000
,
0000
0000
0000
0000
,
0000
0000
0000
0000
,
0000
0000
0000
0000
,
1100
0100
0101
0100
,
1100
1001
0101
1001
,
1100
0001
0100
1000
,
0020
0000
0000
0031
,
0110
1000
1000
0001
,
1000
0010
0100
0001
,
0010
0100
0100
0010
,
0001
0100
0010
1000
,
1001
0001
0100
0100
,
0001
1000
0100
0100
,
1000
0010
0100
0001
,
1000
0100
0010
0010
,
0001
0001
2020
3030
,
1000
1000
0202
0303
,
0010
0010
2200
3300
,
0100
0100
0022
0033
,
1000
1000
0022
0033
,
0001
0001
2200
3300
,
0010
0010
0202
0303
,
0100
0100
2020
3030
,
2002
3003
0101
0000
,
0001
0010
1100
0000
,
2002
3003
1010
0000
,
0100
0100
0110
0010
,
2002
3003
0011
0000
,
0001
0100
1010
0000
,
2002
3003
1100
0000
,
0010
0010
0110
0100
,
2002
3003
0000
0000
;

//---------------dance-single - ----------------
#NOTEDATA:;
#CHARTNAME:9646_DSP;
#STEPSTYPE:dance-single;
#DESCRIPTION:;
#CHARTSTYLE:Dance;
#DIFFICULTY:Medium;
#METER:6;
#RADARVALUES:0.378376,0.501738,0.364073,0.273055,0.004551,291.000000,251.000000,40.000000,30.000000,0.000000,0.000000,0.000000,0.000000,0.000000,0.378376,0.501738,0.364073,0.273055,0.004551,291.000000,251.000000,40.000000,30.000000,0.000000,0.000000,0.000000,0.000000,0.000000;
#CREDIT:9646;
#DISPLAYBPM:150.000000;
#NOTES:
0000
0000
0000
0000
,
0000
0000
0000
0000
,
0000
0000
0000
0000
,
0000
0000
0000
0000
,
0000
0000
0000
0000
,
1000
0001
0101
0001
,
0010
0100
0110
0000
,
0001
1000
1100
1000
,
0010
0100
0110
0000
,
1000
0001
0101
0001
,
0010
0100
0110
0000
,
0001
1000
1100
1000
,
0010
0010
0100
0110
,
1001
0000
0100
0000
0010
0100
0010
0000
,
0001
0000
0001
0000
1000
0100
1000
0010
,
0000
0100
0001
0000
0010
0100
0010
0000
,
0001
0000
0001
0000
1000
0010
0100
0001
,
0000
0010
0100
0000
1000
0100
1000
0001
,
0000
0100
0010
0000
1000
0010
1000
0001
,
0000
0010
0100
0000
0010
0001
0010
0100
,
1000
0000
1000
0000
0001
0100
0010
1000
,
0000
1000
0001
0100
0000
0001
1000
0100
,
0000
1000
0001
1000
0001
0100
0010
0000
,
0000
1000
0001
1000
0001
0010
0100
1000
,
0000
0001
1000
0001
1000
0010
0100
0001
,
0000
1000
0100
0010
0000
0001
0100
0010
,
0000
1000
0100
0010
0100
1000
0001
0000
,
1000
1000
1100
0010
,
0001
0001
0101
0010
,
0100
0000
0000
0000
,
0100
0000
0000
0000
,
0100
0000
0100
0000
0000
0000
0000
0000
0000
0000
0000
0000
,
0100
0100
0010
0010
,
1100
1000
0011
0001
,
1100
0101
0011
1010
,
1100
1001
0101
1001
,
0220
0000
0000
0330
,
0011
0000
1000
0000
0001
0100
0010
0000
,
1000
0000
1000
0000
0001
0010
0100
0000
,
0010
0010
0001
1100
,
0001
1000
0010
0220
,
0330
0000
1000
0000
0001
0100
0001
1000
,
0000
1000
0001
0000
1000
0100
1000
0001
,
0000
0001
0100
0000
0010
1000
0001
0000
,
0010
0100
0010
0000
0001
1000
0001
0000
,
1001
0100
0220
0330
,
1000
0001
0100
0000
2200
0000
3300
0000
,
0100
0100
0202
0303
,
0001
1000
0100
0000
0220
0000
0330
0000
,
1001
0010
0220
0330
,
0001
1000
0010
0000
0022
0000
0033
0000
,
0010
0010
2020
3030
,
1000
0001
0010
0000
0220
0000
0330
0000
,
2002
0000
3003
0000
0001
0100
0010
0000
,
0100
1000
0100
0000
0001
0010
0100
0000
,
2200
0000
3300
0000
0001
1000
0010
0000
,
0001
0010
0001
0000
0010
1000
0001
0000
,
2002
0000
3003
0000
1000
0100
0010
0000
,
0100
0001
0100
0000
1000
0010
0100
0000
,
0202
0000
0303
0000
1000
0001
0010
0000
,
1000
0010
1000
0000
0010
0001
1000
0000
,
2002
3003
0000
0000
;
