#TITLE:The Blitz;
#SUBTITLE:;
#ARTIST:Neuropa;
#TITLETRANSLIT:;
#SUBTITLETRANSLIT:;
#ARTISTTRANSLIT:;
#GENRE:New Wave;
#CREDIT:;
#BANNER:[VIP Room Round 1] - The Blitz.png;
#BACKGROUND:[VIP Room Round 1] - The Blitz-bg.png;
#LYRICSPATH:;
#CDTITLE:cdtitle.png;
#MUSIC:[VIP Room Round 1] - The Blitz.ogg;
#OFFSET:0.000000;
#SAMPLESTART:42.350;
#SAMPLELENGTH:12.000;
#SELECTABLE:YES;
#BPMS:0.000000=136.000;
#STOPS:;
#BGCHANGES:;
#KEYSOUNDS:;
#ATTACKS:;

//---------------dance-single - It's a nightmare.----------------
#NOTES:
     dance-single:
     ITG 08 X 11:
     Challenge:
     8:
     0.518710,0.561238,0.335767,0.749619,0.132745,465.000000,422.000000,43.000000,96.000000,75.000000,0.000000,0.518710,0.561238,0.335767,0.749619,0.132745,465.000000,422.000000,43.000000,96.000000,75.000000,0.000000:
// measure 0
0000
0000
0000
0000
,  // measure 1
0000
0000
0000
0000
,  // measure 2
0000
0000
0000
0000
,  // measure 3
0M00
00M0
0M00
00M0
0M00
00M0
0M00
00M0
0M00
00M0
0M00
00M0
0M00
00M0
0M00
10M0
0M00
00M0
1M00
00M0
0M00
10M0
0000
0000
,  // measure 4
4001
0000
0000
0000
0000
0000
0000
0000
0000
0000
0000
0000
3100
0000
0000
0000
0000
0000
0000
0000
0000
0000
0000
0000
0010
0000
0000
0000
0000
0000
0000
0000
0000
0000
0000
0000
0002
0003
0000
0000
0000
0000
2000
3000
0000
0000
0000
0000
,  // measure 5
0100
0000
0000
0000
0000
0000
1000
0000
0000
0000
0000
0000
0000
0000
0000
0000
0000
0000
0001
0000
0000
0000
0000
0000
2000
0000
0000
0000
0000
0000
0001
0000
0000
0000
0000
0000
3200
0300
0000
0000
0000
0000
0020
0030
0000
0000
0000
0000
,  // measure 6
0004
0000
0000
0000
0000
0000
0000
0000
0000
0000
0000
0000
1003
0000
0000
0000
0000
0000
1000
0000
0000
0000
0000
0000
0100
0000
0000
0000
0000
0000
0000
0000
0000
0000
0000
0000
2000
3000
0000
0000
0000
0000
0002
0003
0000
0000
0000
0000
,  // measure 7
0100
0000
0000
0000
0000
0000
0010
0000
0000
0000
0000
0000
0000
0000
0000
0000
0000
0000
1000
0000
0000
0000
0000
0000
0002
0000
0000
0100
0000
0000
0000
0000
0000
0000
0000
0000
0203
0300
0000
0000
0000
0000
0020
0030
0000
0000
0000
0000
,  // measure 8
1000
0000
0100
0000
0010
0001
0000
0101
,  // measure 9
0000
0110
0000
2010
0000
0000
3001
0000
,  // measure 10
0100
0010
1000
0100
,  // measure 11
0110
0000
0001
0012
0000
0000
0103
0001
,  // measure 12
1000
0100
0001
0010
,  // measure 13
1010
0101
1200
0310
,  // measure 14
0002
0000
0000
0000
0000
0000
0000
0000
0000
0000
0000
0000
0100
0000
0000
0000
0000
0000
0203
0000
0000
0000
0000
0000
0000
0000
0000
0000
0000
0000
1300
0000
0000
0000
0000
0000
0200
0300
0000
0000
0000
0000
0002
0003
0000
0000
0000
0000
,  // measure 15
2000
0000
0000
0000
0000
0000
0000
0000
0000
0000
0000
0000
0100
0000
0000
0000
0000
0000
3200
0000
0000
0000
0000
0000
0000
0000
0000
0000
0000
0000
0301
0000
0000
0000
0000
0000
2000
3000
0000
0000
0000
0000
0020
0030
0000
0000
0000
0000
,  // measure 16
M001
0000
0100
0000
0010
1000
0000
1100
,  // measure 17
0000
0011
0000
1002
01M0
0000
1M03
0001
,  // measure 18
M100
0000
0010
0000
1000
0100
0000
0011
,  // measure 19
0000
0101
0000
2010
00M1
0000
3M10
0100
,  // measure 20
M001
0010
1000
0100
,  // measure 21
0001
1000
0000
1200
001M
0000
M301
0100
,  // measure 22
20M0
0000
0000
0000
0000
0000
0000
0000
0000
0000
0000
0000
0010
0000
0000
0000
0000
0000
3020
0000
0000
0000
0000
0000
0000
0000
0000
0000
0000
0000
0031
0000
0000
0000
0000
0000
0020
0030
0000
0000
0000
0000
2000
3000
0000
0000
0000
0000
,  // measure 23
0M02
0000
0000
0M00
0000
0000
0M00
0000
0000
0M00
0000
0000
0M10
0000
0000
0M00
0000
0000
0M23
0000
0000
0M00
0000
0000
0M00
0000
0000
0M00
0000
0000
1M30
0000
0000
0M00
0000
0000
0M02
0003
0000
0000
0000
0000
0200
0300
0000
0000
0000
0000
,  // measure 24
2100
0000
3001
0100
1000
0000
0101
0000
,  // measure 25
2000
0000
3001
0010
1000
0000
0011
0000
,  // measure 26
2000
0000
3001
0100
1000
0000
0101
0000
,  // measure 27
0011
0000
1010
0000
1100
0000
0001
0010
,  // measure 28
0002
0000
1003
0100
0001
0000
1100
0000
,  // measure 29
0002
0000
1003
0010
0001
0000
1010
0000
,  // measure 30
0002
0000
1003
0100
0001
0000
1100
0000
,  // measure 31
0011
0000
0000
0000
0101
0000
0000
0000
1000
0100
1000
0100
0010
0000
0001
0000
,  // measure 32
1002
0000
0000
0000
0000
0000
0103
0000
0000
0000
0000
0000
0100
0000
0000
0000
0000
0000
0100
0000
0000
0000
0000
0000
0010
0000
0000
0000
0000
0000
0010
0000
0000
0000
0000
0000
2000
3000
0000
0000
0000
0000
0020
0030
0000
0000
0000
0000
,  // measure 33
0100
0000
0000
0000
0000
0000
0100
0000
0000
0000
0000
0000
0100
0000
0000
0000
0000
0000
0100
0000
0000
0000
0000
0000
1000
0000
0000
0000
0000
0000
1000
0000
0000
0000
0000
0000
0200
0300
0000
0000
0000
0000
0002
0003
0000
0000
0000
0000
,  // measure 34
2000
0000
0000
0000
0000
0000
0400
0000
0000
0000
0000
0000
0000
0000
0000
0000
0000
0000
3000
0000
0000
0000
0000
0000
0310
0000
0000
0000
0000
0000
0010
0000
0000
0000
0000
0000
0002
0003
0000
0000
0000
0000
0020
0030
0000
0000
0000
0000
,  // measure 35
0100
0000
0000
0000
0000
0000
0100
0000
0000
0000
0000
0000
0100
0000
0000
0000
0000
0000
0100
0000
0000
0000
0000
0000
0001
0000
0000
0000
0000
0000
0001
0000
0000
0000
0000
0000
0200
0300
0000
0000
0000
0000
2000
3000
0000
0000
0000
0000
,  // measure 36
0020
0000
0000
0000
0000
0000
0400
0000
0000
0000
0000
0000
0000
0000
0000
0000
0000
0000
0030
0000
0000
0000
0000
0000
0301
0000
0000
0000
0000
0000
0001
0000
0000
0000
0000
0000
2000
3000
0000
0000
0000
0000
0002
0003
0000
0000
0000
0000
,  // measure 37
0010
0000
0000
0000
0000
0000
0010
0000
0000
0000
0000
0000
0010
0000
0000
0000
0000
0000
0010
0000
0000
0000
0000
0000
1000
0000
0000
0000
0000
0000
1000
0000
0000
0000
0000
0000
0020
0030
0000
0000
0000
0000
0200
0300
0000
0000
0000
0000
,  // measure 38
0020
0000
0000
0000
0004
0000
0000
0000
0000
0000
0000
0000
0030
0000
0000
0000
0103
0000
0000
0000
0100
0000
0000
0000
0002
0003
0000
0000
2000
3000
0000
0000
,  // measure 39
0010
0000
0000
0000
0000
0000
0010
0000
0000
0000
0000
0000
0010
0000
0000
0000
0000
0000
0010
0000
0000
0000
0000
0000
0001
0000
0000
0000
0000
0000
0010
0000
0000
0000
0000
0000
0210
0300
0000
0000
0000
0000
0020
0030
0000
0000
0000
0000
,  // measure 40
4000
0000
0000
0000
0000
0000
0000
0000
0000
0000
0000
0000
3100
0000
0000
0000
0000
0000
0000
0000
0000
0000
0000
0000
0010
0000
0000
0000
0000
0000
0000
0000
0000
0000
0000
0000
0002
0003
0000
0000
0000
0000
0200
0300
0000
0000
0000
0000
,  // measure 41
0010
0000
0000
0000
0000
0000
1000
0000
0000
0000
0000
0000
0000
0000
0000
0000
0000
0000
0001
0000
0000
0000
0000
0000
0200
0000
0000
0000
0000
0000
0001
0000
0000
0000
0000
0000
0320
0030
0000
0000
0000
0000
2000
3000
0000
0000
0000
0000
,  // measure 42
0004
0000
0000
0000
0000
0000
0000
0000
0000
0000
0000
0000
1003
0000
0000
0000
0000
0000
1000
0000
0000
0000
0000
0000
0010
0000
0000
0000
0000
0000
0000
0000
0000
0000
0000
0000
0200
0300
0000
0000
0000
0000
0002
0003
0000
0000
0000
0000
,  // measure 43
1000
0000
0000
0000
0000
0000
0001
0000
0000
0000
0000
0000
0000
0000
0000
0000
0000
0000
0010
0000
0000
0000
0000
0000
0200
0000
0000
0000
0000
0000
0000
0000
0000
0000
0000
0000
2300
3000
0000
0000
0000
0000
0020
0030
0000
0000
0000
0000
,  // measure 44
0040
0000
0000
0000
0000
0000
0000
0000
0000
0000
0000
0000
0130
0000
0000
0000
0000
0000
0000
0000
0000
0000
0000
0000
0001
0000
0000
0000
0000
0000
0000
0000
0000
0000
0000
0000
0200
0300
0000
0000
0000
0000
2000
3000
0000
0000
0000
0000
,  // measure 45
0100
0000
0000
0000
0000
0000
0001
0000
0000
0000
0000
0000
0000
0000
0000
0000
0000
0000
1000
0000
0000
0000
0000
0000
0200
0000
0000
0000
0000
0000
1000
0000
0000
0000
0000
0000
0320
0030
0000
0000
0000
0000
0002
0003
0000
0000
0000
0000
,  // measure 46
0040
0000
0000
0000
0000
0000
0000
0000
0000
0000
0000
0000
0130
0000
0000
0000
0000
0000
0100
0000
0000
0000
0000
0000
1000
0000
0000
0000
0000
0000
0000
0000
0000
0000
0000
0000
0200
0300
0000
0000
0000
0000
0002
0003
0000
0000
0000
0000
,  // measure 47
01M0
0000
0000
00M0
0000
0000
10M0
0000
0000
00M0
0000
0000
00M0
0000
0000
00M0
0000
0000
00M1
0000
0000
0M00
0000
0000
0M10
0000
0000
0M01
0000
0000
1M00
0000
0000
0M01
0000
0000
2M00
3000
0000
0M00
0000
0000
1020
0030
0000
0000
0000
0000
,  // measure 48
0040
0000
0000
0000
0030
0000
0000
0000
0000
0000
0000
0000
0000
0000
0000
0000
0000
0000
0000
0000
0000
0000
0000
0000
1000
0000
0000
0000
0000
0000
0000
0000
0000
0000
0000
0000
0000
0000
0000
0000
0000
0000
0000
0000
0000
0000
0000
0000
1000
0000
0000
0000
0000
0000
0000
0000
0000
0000
0000
0000
0000
0000
0000
0000
0000
0000
0000
0000
0000
0000
0000
0000
0004
0000
0000
0000
0000
0000
0003
0000
0000
0000
0000
0000
0000
0000
0000
0000
0000
0000
0000
0000
0000
0000
0000
0000
1000
0000
0000
0000
0000
0000
0000
0000
0000
0000
0000
0000
0000
0000
0000
0000
0000
0000
0000
0000
0000
0000
0000
0000
1000
0000
0000
0000
0000
0000
0000
0000
0000
0000
0000
0000
0000
0000
0000
0000
0000
0000
0000
0000
0000
0000
0000
0000
0040
0000
0000
0000
0030
0000
0000
0000
0000
0000
0000
0000
0000
0000
0000
0000
0000
0000
0000
0000
0000
0000
0000
0000
1000
0000
0000
0000
0000
0000
0000
0000
0000
0000
0000
0000
0000
0000
0000
0000
0000
0000
0000
0000
0000
0000
0000
0000
,  // measure 49
0001
0000
0001
0000
0010
0000
0400
0300
4000
3000
0400
0300
0004
0000
0000
0000
,  // measure 50
0403
0300
0000
0000
0100
0000
0000
0000
0010
0000
0000
0000
0400
0300
0000
0000
1000
0000
0000
0000
1000
0000
0000
0000
0010
0000
0000
0000
1000
0000
0000
0000
,  // measure 51
0001
0001
0010
0001
0001
1000
0100
0100
,  // measure 52
0040
0030
0000
0000
0000
0000
0001
0000
0000
0000
0000
0000
0001
0000
0000
0000
0000
0000
4000
3000
0000
0000
0000
0000
0001
0000
0000
0000
0000
0000
0001
0000
0000
0000
0000
0000
0040
0030
0000
0000
0000
0000
0001
0000
0000
0000
0000
0000
,  // measure 53
1000
0000
1000
0000
0010
0000
0400
0300
0004
0003
0400
0300
4000
0000
0000
0000
,  // measure 54
3400
0300
0000
0000
0100
0000
0000
0000
0010
0000
0000
0000
0400
0300
0000
0000
0001
0000
0000
0000
0001
0000
0000
0000
0010
0000
0000
0000
0001
0000
0000
0000
,  // measure 55
1000
0000
1000
0000
0010
0000
1000
0000
0001
0100
0001
0100
0010
0000
1000
0000
,  // measure 56
0001
0000
1000
0100
0001
0000
0100
0000
,  // measure 57
000M
0M00
1000
0010
0001
0000
0010
0000
,  // measure 58
000M
00M0
1000
0100
0001
0000
0100
0000
,  // measure 59
M010
0M00
0001
0000
M100
000M
0010
1000
,  // measure 60
1200
0000
0301
0100
1000
0000
0011
0000
,  // measure 61
02M1
000M
1300
0100
0001
0000
1010
0000
,  // measure 62
M021
000M
1030
0010
0001
0000
0101
0000
,  // measure 63
101M
0000
0M00
0000
1100
0000
0000
0000
00M1
0100
M001
0100
0010
0000
1000
0000
,  // measure 64
2001
0000
0000
0000
0000
0000
3100
0000
0000
0000
0000
0000
0100
0000
0000
0000
0000
0000
0100
0000
0000
0000
0000
0000
0010
0000
0000
0000
0000
0000
0010
0000
0000
0000
0000
0000
0002
0003
0000
0000
0000
0000
0020
0030
0000
0000
0000
0000
,  // measure 65
0100
0000
0000
0000
0000
0000
1000
0000
0000
0000
0000
0000
1000
0000
0000
0000
0000
0000
1000
0000
0000
0000
0000
0000
0001
0000
0000
0000
0000
0000
0001
0000
0000
0000
0000
0000
0200
0300
0000
0000
0000
0000
2000
3000
0000
0000
0000
0000
,  // measure 66
0200
0000
0000
0000
0000
0000
0000
0000
0000
0000
0000
0000
0000
0000
0000
0000
0000
0000
0000
0000
0000
0000
0000
0000
0004
0000
0000
0000
0000
0000
0000
0000
0000
0000
0000
0000
0000
0000
0000
0000
0000
0000
0000
0000
0000
0000
0000
0000
0000
0000
0000
0000
0000
0000
0000
0000
0000
0000
0000
0000
0000
0000
0000
0000
0000
0000
0000
0000
0000
0000
0000
0000
0300
0000
0000
0000
0000
0000
0000
0000
0000
0000
0000
0000
0000
0000
0000
0000
0000
0000
0000
0000
0000
0000
0000
0000
0013
0000
0000
0000
0000
0000
0000
0000
0000
0000
0000
0000
0000
0000
0000
0000
0000
0000
0000
0000
0000
0000
0000
0000
0010
0000
0000
0000
0000
0000
0000
0000
0000
0000
0000
0000
0000
0000
0000
0000
0000
0000
0000
0000
0000
0000
0000
0000
0200
0000
0000
0300
0000
0000
0000
0000
0000
0000
0000
0000
0000
0000
0000
0000
0000
0000
0000
0000
0000
0000
0000
0000
0020
0000
0000
0000
0030
0000
0000
0000
0000
0000
0000
0000
0000
0000
0000
0000
0000
0000
0000
0000
0000
0000
0000
0000
,  // measure 67
0001
0000
0000
0000
0000
0000
1000
0000
0000
0000
0000
0000
1000
0000
0000
0000
0000
0000
1000
0000
0000
0000
0000
0000
0010
0000
0000
0000
0000
0000
0010
0000
0000
0000
0000
0000
0002
0003
0000
0000
0000
0000
2000
3000
0000
0000
0000
0000
,  // measure 68
0200
0000
0000
0000
0000
0000
0000
0000
0000
0000
0000
0000
0000
0000
0000
0000
0000
0000
0000
0000
0000
0000
0000
0000
0004
0000
0000
0000
0000
0000
0000
0000
0000
0000
0000
0000
0000
0000
0000
0000
0000
0000
0000
0000
0000
0000
0000
0000
0000
0000
0000
0000
0000
0000
0000
0000
0000
0000
0000
0000
0000
0000
0000
0000
0000
0000
0000
0000
0000
0000
0000
0000
0300
0000
0000
0000
0000
0000
0000
0000
0000
0000
0000
0000
0000
0000
0000
0000
0000
0000
0000
0000
0000
0000
0000
0000
1003
0000
0000
0000
0000
0000
0000
0000
0000
0000
0000
0000
0000
0000
0000
0000
0000
0000
0000
0000
0000
0000
0000
0000
0001
0000
0000
0000
0000
0000
0000
0000
0000
0000
0000
0000
0000
0000
0000
0000
0000
0000
0000
0000
0000
0000
0000
0000
0200
0000
0000
0000
0300
0000
0000
0000
0000
0000
0000
0000
0000
0000
0000
0000
0000
0000
0000
0000
0000
0000
0000
0000
0002
0000
0000
0003
0000
0000
0000
0000
0000
0000
0000
0000
0000
0000
0000
0000
0000
0000
0000
0000
0000
0000
0000
0000
,  // measure 69
1000
0000
0000
0000
0000
0000
0001
0000
0000
0000
0000
0000
0001
0000
0000
0000
0000
0000
0001
0000
0000
0000
0000
0000
0010
0000
0000
0000
0000
0000
0010
0000
0000
0000
0000
0000
2000
3000
0000
0000
0000
0000
0020
0030
0000
0000
0000
0000
,  // measure 70
0200
4000
0000
0300
3001
0001
0100
0001
,  // measure 71
1000
0100
1000
0100
0010
0011
1001
0101
;

//---------------dance-single - Diet Challenge.----------------
#NOTES:
     dance-single:
     ITG 07 X 09:
     Hard:
     7:
     0.437278,0.477053,0.320150,0.234256,0.003904,392.000000,351.000000,41.000000,30.000000,18.000000,0.000000,0.437278,0.477053,0.320150,0.234256,0.003904,392.000000,351.000000,41.000000,30.000000,18.000000,0.000000:
// measure 0
0000
0000
0000
0000
,  // measure 1
0000
0000
0000
0000
,  // measure 2
0000
0000
0000
0000
,  // measure 3
0000
0000
0000
0000
,  // measure 4
0001
1000
0001
0000
0100
0000
0010
1000
,  // measure 5
0001
0010
0000
0110
0000
0100
1000
0100
,  // measure 6
0001
0100
0010
0100
1000
0000
0010
0100
,  // measure 7
0001
0000
1000
0000
0000
0000
0100
0000
0000
0110
0000
0000
0010
0000
0001
0000
,  // measure 8
1000
0000
0010
0000
0001
0010
0000
1000
,  // measure 9
0000
0100
0000
1002
0000
0000
0103
0000
,  // measure 10
0001
0010
1000
0010
,  // measure 11
0001
0000
1000
1020
0000
0000
0130
0001
,  // measure 12
1000
0100
0010
1000
,  // measure 13
0001
0010
0100
0001
,  // measure 14
0021
0000
0000
0230
0000
0000
1300
0010
,  // measure 15
0020
0000
0000
0230
0000
0000
0301
0010
,  // measure 16
0200
0300
0000
0000
0000
0000
0000
0000
0000
0000
0000
0000
1000
0000
0000
0000
0000
0000
0000
0000
0000
0000
0000
0000
0010
0000
0000
0000
0000
0000
1000
0000
0000
0000
0000
0000
0000
0000
0000
0000
0000
0000
0100
0000
0000
0000
0000
0000
,  // measure 17
0000
0000
0000
0000
0000
0000
0001
0000
0000
0000
0000
0000
0000
0000
0000
0000
0000
0000
0110
0000
0000
0000
0000
0000
0020
0030
0000
0000
0000
0000
0000
0000
0000
0000
0000
0000
0002
0003
0000
0000
0000
0000
0100
0000
0000
0000
0000
0000
,  // measure 18
0100
0000
0001
0000
0010
0001
0000
0100
,  // measure 19
0000
0000
0000
0000
0000
0000
1000
0000
0000
0000
0000
0000
0000
0000
0000
0000
0000
0000
0110
0000
0000
0000
0000
0000
0020
0030
0000
0000
0000
0000
0000
0000
0000
0000
0000
0000
2000
3000
0000
0000
0000
0000
0001
0000
0000
0000
0000
0000
,  // measure 20
0001
0100
0010
0001
,  // measure 21
1000
0000
0000
0000
0000
0000
0010
0000
0000
0000
0000
0000
0000
0000
0000
0000
0000
0000
0100
0000
0000
0000
0000
0000
2000
3000
0000
0000
0000
0000
0000
0000
0000
0000
0000
0000
0020
0030
0000
0000
0000
0000
0000
0000
0000
0000
0000
0000
,  // measure 22
0102
0000
0000
0023
0000
0000
0130
1000
,  // measure 23
2000
0000
0000
3020
0000
0130
0100
0100
,  // measure 24
0101
0000
0001
0010
0001
0000
0100
0000
,  // measure 25
1100
0000
1000
0010
1000
0000
0100
0000
,  // measure 26
0101
0000
0001
0010
0001
0000
0100
0000
,  // measure 27
1100
0000
1010
0000
0011
0000
0001
1000
,  // measure 28
0010
0000
1000
0100
1000
0000
0010
0000
,  // measure 29
0011
0000
0001
0100
0001
0000
0010
0000
,  // measure 30
1010
0000
1000
0100
1000
0000
0010
0000
,  // measure 31
0011
0000
0101
0000
1000
1000
0010
0100
,  // measure 32
0002
1000
1003
0000
0100
0000
0001
0100
,  // measure 33
1000
0000
1001
0000
0001
0000
1000
0010
,  // measure 34
0200
M0MM
1000
0000
0001
0000
1300
0100
,  // measure 35
0001
0000
1001
0000
1000
0000
0001
0010
,  // measure 36
0200
M0MM
0001
0000
1000
0000
0310
0001
,  // measure 37
1000
0000
1010
0000
0001
0000
0100
1000
,  // measure 38
0200
M0MM
0001
0000
1000
0000
0310
1000
,  // measure 39
0100
0000
0110
0000
0010
0100
0001
0100
,  // measure 40
1000
0001
1000
0000
0100
0000
0010
0001
,  // measure 41
1000
0010
0000
0110
0000
0100
0001
0100
,  // measure 42
1000
0100
0010
0100
0001
0000
0010
0100
,  // measure 43
1000
0001
0000
0011
0000
0000
0010
0001
,  // measure 44
0100
0010
0100
0000
0001
0000
1000
0010
,  // measure 45
0100
0001
0000
1000
0100
1000
0001
0100
,  // measure 46
1000
0100
0010
0100
0001
0000
0010
0100
,  // measure 47
2000
0001
0000
0010
3001
0001
0001
0001
,  // measure 48
0011
0000
0001
1001
0000
0001
0011
0000
,  // measure 49
0001
0000
1000
0100
0001
0100
0001
0000
,  // measure 50
1100
0000
1000
1001
0000
0001
0010
0001
,  // measure 51
0000
1000
0010
1000
0000
0010
0100
0010
,  // measure 52
1010
0000
1000
1001
0000
1000
1010
0000
,  // measure 53
1000
0000
0001
0100
1000
0100
1000
0000
,  // measure 54
0101
0000
0001
1001
0000
1000
0010
1000
,  // measure 55
0000
0001
0010
0001
1000
1000
0100
0100
,  // measure 56
2000
0001
0010
3100
,  // measure 57
0002
1000
0010
0103
,  // measure 58
0000
2000
0001
0100
,  // measure 59
3010
0000
0001
0000
0100
0000
1000
0001
,  // measure 60
0011
0000
0010
1000
0010
0000
0001
0000
,  // measure 61
1001
0000
1000
0010
0100
0000
0001
0000
,  // measure 62
1010
0000
0010
0001
0010
0000
1000
0000
,  // measure 63
1100
0000
0011
0000
0001
0001
0100
0010
,  // measure 64
2000
0001
3001
0000
0010
0000
1000
0010
,  // measure 65
0001
0000
1100
0000
0001
0000
0100
1000
,  // measure 66
0200
M0MM
0001
0000
1000
0000
0310
1000
,  // measure 67
0001
0000
0011
0000
1000
0000
0100
0001
,  // measure 68
0200
M0MM
1000
0000
0001
0000
0310
0001
,  // measure 69
1000
0000
0100
0000
0001
0000
0100
1000
,  // measure 70
0002
MMM0
0000
0000
0000
0000
1003
0000
,  // measure 71
0000
0000
0000
0000
0020
0100
0100
0130
;

//---------------dance-single - But I'd really prefer the rolls here...----------------
#NOTES:
     dance-single:
     ITG 08 X 11 (no rolls):
     Edit:
     8:
     0.541020,0.561238,0.335767,0.874556,0.132745,485.000000,442.000000,43.000000,112.000000,75.000000,0.000000,0.541020,0.561238,0.335767,0.874556,0.132745,485.000000,442.000000,43.000000,112.000000,75.000000,0.000000:
// measure 0
0000
0000
0000
0000
,  // measure 1
0000
0000
0000
0000
,  // measure 2
0000
0000
0000
0000
,  // measure 3
0M00
00M0
0M00
00M0
0M00
00M0
0M00
00M0
0M00
00M0
0M00
00M0
0M00
00M0
0M00
10M0
0M00
00M0
1M00
00M0
0M00
10M0
0000
0000
,  // measure 4
2001
0000
0000
0000
0000
0000
0000
0000
0000
0000
0000
0000
0000
0000
0000
0000
0000
0000
3000
0000
0000
0000
0000
0000
2000
0000
0000
0000
0000
0000
0000
0000
0000
0000
0000
0000
0000
0000
0000
0000
0000
0000
0000
0000
0000
0000
0000
0000
3100
0000
0000
0000
0000
0000
0000
0000
0000
0000
0000
0000
0000
0000
0000
0000
0000
0000
0000
0000
0000
0000
0000
0000
0000
0000
0000
0000
0000
0000
0000
0000
0000
0000
0000
0000
0000
0000
0000
0000
0000
0000
0000
0000
0000
0000
0000
0000
0010
0000
0000
0000
0000
0000
0000
0000
0000
0000
0000
0000
0000
0000
0000
0000
0000
0000
0000
0000
0000
0000
0000
0000
0000
0000
0000
0000
0000
0000
0000
0000
0000
0000
0000
0000
0000
0000
0000
0000
0000
0000
0000
0000
0000
0000
0000
0000
0002
0000
0000
0000
0003
0000
0000
0000
0000
0000
0000
0000
0000
0000
0000
0000
0000
0000
0000
0000
0000
0000
0000
0000
2000
0000
0000
0000
3000
0000
0000
0000
0000
0000
0000
0000
0000
0000
0000
0000
0000
0000
0000
0000
0000
0000
0000
0000
,  // measure 5
0100
0000
0000
0000
0000
0000
1000
0000
0000
0000
0000
0000
0000
0000
0000
0000
0000
0000
0001
0000
0000
0000
0000
0000
2000
0000
0000
0000
0000
0000
0001
0000
0000
0000
0000
0000
3200
0300
0000
0000
0000
0000
0020
0030
0000
0000
0000
0000
,  // measure 6
0002
0000
0000
0000
0000
0000
0000
0000
0000
0000
0000
0000
0000
0000
0000
0000
0000
0000
0003
0000
0000
0000
0000
0000
0002
0000
0000
0000
0000
0000
0000
0000
0000
0000
0000
0000
0000
0000
0000
0000
0000
0000
0000
0000
0000
0000
0000
0000
1003
0000
0000
0000
0000
0000
0000
0000
0000
0000
0000
0000
0000
0000
0000
0000
0000
0000
0000
0000
0000
0000
0000
0000
1000
0000
0000
0000
0000
0000
0000
0000
0000
0000
0000
0000
0000
0000
0000
0000
0000
0000
0000
0000
0000
0000
0000
0000
0100
0000
0000
0000
0000
0000
0000
0000
0000
0000
0000
0000
0000
0000
0000
0000
0000
0000
0000
0000
0000
0000
0000
0000
0000
0000
0000
0000
0000
0000
0000
0000
0000
0000
0000
0000
0000
0000
0000
0000
0000
0000
0000
0000
0000
0000
0000
0000
2000
0000
0000
0000
3000
0000
0000
0000
0000
0000
0000
0000
0000
0000
0000
0000
0000
0000
0000
0000
0000
0000
0000
0000
0002
0000
0000
0000
0003
0000
0000
0000
0000
0000
0000
0000
0000
0000
0000
0000
0000
0000
0000
0000
0000
0000
0000
0000
,  // measure 7
0100
0000
0000
0000
0000
0000
0010
0000
0000
0000
0000
0000
0000
0000
0000
0000
0000
0000
1000
0000
0000
0000
0000
0000
0002
0000
0000
0100
0000
0000
0000
0000
0000
0000
0000
0000
0203
0300
0000
0000
0000
0000
0020
0030
0000
0000
0000
0000
,  // measure 8
1000
0000
0100
0000
0010
0001
0000
0101
,  // measure 9
0000
0110
0000
2010
0000
0000
3001
0000
,  // measure 10
0100
0010
1000
0100
,  // measure 11
0110
0000
0001
0012
0000
0000
0103
0001
,  // measure 12
1000
0100
0001
0010
,  // measure 13
1010
0101
1200
0310
,  // measure 14
0002
0000
0000
0000
0000
0000
0000
0000
0000
0000
0000
0000
0100
0000
0000
0000
0000
0000
0203
0000
0000
0000
0000
0000
0000
0000
0000
0000
0000
0000
1300
0000
0000
0000
0000
0000
0200
0300
0000
0000
0000
0000
0002
0003
0000
0000
0000
0000
,  // measure 15
2000
0000
0000
0000
0000
0000
0000
0000
0000
0000
0000
0000
0100
0000
0000
0000
0000
0000
3200
0000
0000
0000
0000
0000
0000
0000
0000
0000
0000
0000
0301
0000
0000
0000
0000
0000
2000
3000
0000
0000
0000
0000
0020
0030
0000
0000
0000
0000
,  // measure 16
M001
0000
0100
0000
0010
1000
0000
1100
,  // measure 17
0000
0011
0000
1002
01M0
0000
1M03
0001
,  // measure 18
M100
0000
0010
0000
1000
0100
0000
0011
,  // measure 19
0000
0101
0000
2010
00M1
0000
3M10
0100
,  // measure 20
M001
0010
1000
0100
,  // measure 21
0001
1000
0000
1200
001M
0000
M301
0100
,  // measure 22
20M0
0000
0000
0000
0000
0000
0000
0000
0000
0000
0000
0000
0010
0000
0000
0000
0000
0000
3020
0000
0000
0000
0000
0000
0000
0000
0000
0000
0000
0000
0031
0000
0000
0000
0000
0000
0020
0030
0000
0000
0000
0000
2000
3000
0000
0000
0000
0000
,  // measure 23
0M02
0000
0000
0M00
0000
0000
0M00
0000
0000
0M00
0000
0000
0M10
0000
0000
0M00
0000
0000
0M23
0000
0000
0M00
0000
0000
0M00
0000
0000
0M00
0000
0000
1M30
0000
0000
0M00
0000
0000
0M02
0003
0000
0000
0000
0000
0200
0300
0000
0000
0000
0000
,  // measure 24
2100
0000
3001
0100
1000
0000
0101
0000
,  // measure 25
2000
0000
3001
0010
1000
0000
0011
0000
,  // measure 26
2000
0000
3001
0100
1000
0000
0101
0000
,  // measure 27
0011
0000
1010
0000
1100
0000
0001
0010
,  // measure 28
0002
0000
1003
0100
0001
0000
1100
0000
,  // measure 29
0002
0000
1003
0010
0001
0000
1010
0000
,  // measure 30
0002
0000
1003
0100
0001
0000
1100
0000
,  // measure 31
0011
0000
0000
0000
0101
0000
0000
0000
1000
0100
1000
0100
0010
0000
0001
0000
,  // measure 32
1002
0000
0000
0000
0000
0000
0103
0000
0000
0000
0000
0000
0100
0000
0000
0000
0000
0000
0100
0000
0000
0000
0000
0000
0010
0000
0000
0000
0000
0000
0010
0000
0000
0000
0000
0000
2000
3000
0000
0000
0000
0000
0020
0030
0000
0000
0000
0000
,  // measure 33
0100
0000
0000
0000
0000
0000
0100
0000
0000
0000
0000
0000
0100
0000
0000
0000
0000
0000
0100
0000
0000
0000
0000
0000
1000
0000
0000
0000
0000
0000
1000
0000
0000
0000
0000
0000
0200
0300
0000
0000
0000
0000
0002
0003
0000
0000
0000
0000
,  // measure 34
2000
0000
0000
0000
0000
0000
0100
0000
0000
0000
0000
0000
0100
0000
0000
0000
0000
0000
3100
0000
0000
0000
0000
0000
0010
0000
0000
0000
0000
0000
0010
0000
0000
0000
0000
0000
0002
0003
0000
0000
0000
0000
0020
0030
0000
0000
0000
0000
,  // measure 35
0100
0000
0000
0000
0000
0000
0100
0000
0000
0000
0000
0000
0100
0000
0000
0000
0000
0000
0100
0000
0000
0000
0000
0000
0001
0000
0000
0000
0000
0000
0001
0000
0000
0000
0000
0000
0200
0300
0000
0000
0000
0000
2000
3000
0000
0000
0000
0000
,  // measure 36
0020
0000
0000
0000
0000
0000
0100
0000
0000
0000
0000
0000
0100
0000
0000
0000
0000
0000
0130
0000
0000
0000
0000
0000
0001
0000
0000
0000
0000
0000
0001
0000
0000
0000
0000
0000
2000
3000
0000
0000
0000
0000
0002
0003
0000
0000
0000
0000
,  // measure 37
0010
0000
0000
0000
0000
0000
0010
0000
0000
0000
0000
0000
0010
0000
0000
0000
0000
0000
0010
0000
0000
0000
0000
0000
1000
0000
0000
0000
0000
0000
1000
0000
0000
0000
0000
0000
0020
0030
0000
0000
0000
0000
0200
0300
0000
0000
0000
0000
,  // measure 38
0020
0000
0000
0000
0001
0000
0000
0000
0001
0000
0000
0000
0031
0000
0000
0000
0100
0000
0000
0000
0100
0000
0000
0000
0002
0003
0000
0000
2000
3000
0000
0000
,  // measure 39
0010
0000
0000
0000
0000
0000
0010
0000
0000
0000
0000
0000
0010
0000
0000
0000
0000
0000
0010
0000
0000
0000
0000
0000
0001
0000
0000
0000
0000
0000
0010
0000
0000
0000
0000
0000
0210
0300
0000
0000
0000
0000
0020
0030
0000
0000
0000
0000
,  // measure 40
2000
0000
0000
0000
0000
0000
0000
0000
0000
0000
0000
0000
0000
0000
0000
0000
0000
0000
3000
0000
0000
0000
0000
0000
2000
0000
0000
0000
0000
0000
0000
0000
0000
0000
0000
0000
0000
0000
0000
0000
0000
0000
0000
0000
0000
0000
0000
0000
3100
0000
0000
0000
0000
0000
0000
0000
0000
0000
0000
0000
0000
0000
0000
0000
0000
0000
0000
0000
0000
0000
0000
0000
0000
0000
0000
0000
0000
0000
0000
0000
0000
0000
0000
0000
0000
0000
0000
0000
0000
0000
0000
0000
0000
0000
0000
0000
0010
0000
0000
0000
0000
0000
0000
0000
0000
0000
0000
0000
0000
0000
0000
0000
0000
0000
0000
0000
0000
0000
0000
0000
0000
0000
0000
0000
0000
0000
0000
0000
0000
0000
0000
0000
0000
0000
0000
0000
0000
0000
0000
0000
0000
0000
0000
0000
0002
0000
0000
0000
0003
0000
0000
0000
0000
0000
0000
0000
0000
0000
0000
0000
0000
0000
0000
0000
0000
0000
0000
0000
0200
0000
0000
0000
0300
0000
0000
0000
0000
0000
0000
0000
0000
0000
0000
0000
0000
0000
0000
0000
0000
0000
0000
0000
,  // measure 41
0010
0000
0000
0000
0000
0000
1000
0000
0000
0000
0000
0000
0000
0000
0000
0000
0000
0000
0001
0000
0000
0000
0000
0000
0200
0000
0000
0000
0000
0000
0001
0000
0000
0000
0000
0000
0320
0030
0000
0000
0000
0000
2000
3000
0000
0000
0000
0000
,  // measure 42
0002
0000
0000
0000
0000
0000
0000
0000
0000
0000
0000
0000
0000
0000
0000
0000
0000
0000
0003
0000
0000
0000
0000
0000
0002
0000
0000
0000
0000
0000
0000
0000
0000
0000
0000
0000
0000
0000
0000
0000
0000
0000
0000
0000
0000
0000
0000
0000
1003
0000
0000
0000
0000
0000
0000
0000
0000
0000
0000
0000
0000
0000
0000
0000
0000
0000
0000
0000
0000
0000
0000
0000
1000
0000
0000
0000
0000
0000
0000
0000
0000
0000
0000
0000
0000
0000
0000
0000
0000
0000
0000
0000
0000
0000
0000
0000
0010
0000
0000
0000
0000
0000
0000
0000
0000
0000
0000
0000
0000
0000
0000
0000
0000
0000
0000
0000
0000
0000
0000
0000
0000
0000
0000
0000
0000
0000
0000
0000
0000
0000
0000
0000
0000
0000
0000
0000
0000
0000
0000
0000
0000
0000
0000
0000
0200
0000
0000
0000
0300
0000
0000
0000
0000
0000
0000
0000
0000
0000
0000
0000
0000
0000
0000
0000
0000
0000
0000
0000
0002
0000
0000
0000
0003
0000
0000
0000
0000
0000
0000
0000
0000
0000
0000
0000
0000
0000
0000
0000
0000
0000
0000
0000
,  // measure 43
1000
0000
0000
0000
0000
0000
0001
0000
0000
0000
0000
0000
0000
0000
0000
0000
0000
0000
0010
0000
0000
0000
0000
0000
0200
0000
0000
0000
0000
0000
0000
0000
0000
0000
0000
0000
2300
3000
0000
0000
0000
0000
0020
0030
0000
0000
0000
0000
,  // measure 44
0020
0000
0000
0000
0000
0000
0000
0000
0000
0000
0000
0000
0000
0000
0000
0000
0000
0000
0030
0000
0000
0000
0000
0000
0020
0000
0000
0000
0000
0000
0000
0000
0000
0000
0000
0000
0000
0000
0000
0000
0000
0000
0000
0000
0000
0000
0000
0000
0130
0000
0000
0000
0000
0000
0000
0000
0000
0000
0000
0000
0000
0000
0000
0000
0000
0000
0000
0000
0000
0000
0000
0000
0000
0000
0000
0000
0000
0000
0000
0000
0000
0000
0000
0000
0000
0000
0000
0000
0000
0000
0000
0000
0000
0000
0000
0000
0001
0000
0000
0000
0000
0000
0000
0000
0000
0000
0000
0000
0000
0000
0000
0000
0000
0000
0000
0000
0000
0000
0000
0000
0000
0000
0000
0000
0000
0000
0000
0000
0000
0000
0000
0000
0000
0000
0000
0000
0000
0000
0000
0000
0000
0000
0000
0000
0200
0000
0000
0000
0300
0000
0000
0000
0000
0000
0000
0000
0000
0000
0000
0000
0000
0000
0000
0000
0000
0000
0000
0000
2000
0000
0000
0000
3000
0000
0000
0000
0000
0000
0000
0000
0000
0000
0000
0000
0000
0000
0000
0000
0000
0000
0000
0000
,  // measure 45
0100
0000
0000
0000
0000
0000
0001
0000
0000
0000
0000
0000
0000
0000
0000
0000
0000
0000
1000
0000
0000
0000
0000
0000
0200
0000
0000
0000
0000
0000
1000
0000
0000
0000
0000
0000
0320
0030
0000
0000
0000
0000
0002
0003
0000
0000
0000
0000
,  // measure 46
0020
0000
0000
0000
0000
0000
0000
0000
0000
0000
0000
0000
0000
0000
0000
0000
0000
0000
0030
0000
0000
0000
0000
0000
0020
0000
0000
0000
0000
0000
0000
0000
0000
0000
0000
0000
0000
0000
0000
0000
0000
0000
0000
0000
0000
0000
0000
0000
0130
0000
0000
0000
0000
0000
0000
0000
0000
0000
0000
0000
0000
0000
0000
0000
0000
0000
0000
0000
0000
0000
0000
0000
0100
0000
0000
0000
0000
0000
0000
0000
0000
0000
0000
0000
0000
0000
0000
0000
0000
0000
0000
0000
0000
0000
0000
0000
1000
0000
0000
0000
0000
0000
0000
0000
0000
0000
0000
0000
0000
0000
0000
0000
0000
0000
0000
0000
0000
0000
0000
0000
0000
0000
0000
0000
0000
0000
0000
0000
0000
0000
0000
0000
0000
0000
0000
0000
0000
0000
0000
0000
0000
0000
0000
0000
0200
0000
0000
0000
0300
0000
0000
0000
0000
0000
0000
0000
0000
0000
0000
0000
0000
0000
0000
0000
0000
0000
0000
0000
0002
0000
0000
0000
0003
0000
0000
0000
0000
0000
0000
0000
0000
0000
0000
0000
0000
0000
0000
0000
0000
0000
0000
0000
,  // measure 47
01M0
0000
0000
00M0
0000
0000
10M0
0000
0000
00M0
0000
0000
00M0
0000
0000
00M0
0000
0000
00M1
0000
0000
0M00
0000
0000
0M10
0000
0000
0M01
0000
0000
1M00
0000
0000
0M01
0000
0000
2M00
3000
0000
0M00
0000
0000
1020
0030
0000
0000
0000
0000
,  // measure 48
0010
1000
1000
0001
1000
1000
0010
1000
,  // measure 49
0001
0000
0000
0000
0001
0000
0000
0000
0010
0000
0000
0000
0100
0000
0000
0000
1000
0000
0000
0000
0100
0000
0000
0000
0002
0000
0000
0003
0002
0000
0000
0000
,  // measure 50
0103
0100
0010
0100
1000
1000
0010
1000
,  // measure 51
0001
0001
0010
0001
0001
1000
0100
0100
,  // measure 52
0010
0001
0001
1000
0001
0001
0010
0001
,  // measure 53
1000
0000
0000
0000
1000
0000
0000
0000
0010
0000
0000
0000
0100
0000
0000
0000
0001
0000
0000
0000
0100
0000
0000
0000
2000
0000
0000
3000
2000
0000
0000
0000
,  // measure 54
3100
0100
0010
0100
0001
0001
0010
0001
,  // measure 55
1000
0000
1000
0000
0010
0000
1000
0000
0001
0100
0001
0100
0010
0000
1000
0000
,  // measure 56
0001
0000
1000
0100
0001
0000
0100
0000
,  // measure 57
000M
0M00
1000
0010
0001
0000
0010
0000
,  // measure 58
000M
00M0
1000
0100
0001
0000
0100
0000
,  // measure 59
M010
0M00
0001
0000
M100
000M
0010
1000
,  // measure 60
1200
0000
0301
0100
1000
0000
0011
0000
,  // measure 61
02M1
000M
1300
0100
0001
0000
1010
0000
,  // measure 62
M021
000M
1030
0010
0001
0000
0101
0000
,  // measure 63
101M
0000
0M00
0000
1100
0000
0000
0000
00M1
0100
M001
0100
0010
0000
1000
0000
,  // measure 64
2001
0000
0000
0000
0000
0000
3100
0000
0000
0000
0000
0000
0100
0000
0000
0000
0000
0000
0100
0000
0000
0000
0000
0000
0010
0000
0000
0000
0000
0000
0010
0000
0000
0000
0000
0000
0002
0003
0000
0000
0000
0000
0020
0030
0000
0000
0000
0000
,  // measure 65
0100
0000
0000
0000
0000
0000
1000
0000
0000
0000
0000
0000
1000
0000
0000
0000
0000
0000
1000
0000
0000
0000
0000
0000
0001
0000
0000
0000
0000
0000
0001
0000
0000
0000
0000
0000
0200
0300
0000
0000
0000
0000
2000
3000
0000
0000
0000
0000
,  // measure 66
0200
0000
0000
0000
0000
0000
0000
0000
0000
0000
0000
0000
0000
0000
0000
0000
0000
0000
0000
0000
0000
0000
0000
0000
0001
0000
0000
0000
0000
0000
0000
0000
0000
0000
0000
0000
0000
0000
0000
0000
0000
0000
0000
0000
0000
0000
0000
0000
0001
0000
0000
0000
0000
0000
0000
0000
0000
0000
0000
0000
0000
0000
0000
0000
0000
0000
0000
0000
0000
0000
0000
0000
0301
0000
0000
0000
0000
0000
0000
0000
0000
0000
0000
0000
0000
0000
0000
0000
0000
0000
0000
0000
0000
0000
0000
0000
0010
0000
0000
0000
0000
0000
0000
0000
0000
0000
0000
0000
0000
0000
0000
0000
0000
0000
0000
0000
0000
0000
0000
0000
0010
0000
0000
0000
0000
0000
0000
0000
0000
0000
0000
0000
0000
0000
0000
0000
0000
0000
0000
0000
0000
0000
0000
0000
0200
0000
0000
0300
0000
0000
0000
0000
0000
0000
0000
0000
0000
0000
0000
0000
0000
0000
0000
0000
0000
0000
0000
0000
0020
0000
0000
0000
0030
0000
0000
0000
0000
0000
0000
0000
0000
0000
0000
0000
0000
0000
0000
0000
0000
0000
0000
0000
,  // measure 67
0001
0000
0000
0000
0000
0000
1000
0000
0000
0000
0000
0000
1000
0000
0000
0000
0000
0000
1000
0000
0000
0000
0000
0000
0010
0000
0000
0000
0000
0000
0010
0000
0000
0000
0000
0000
0002
0003
0000
0000
0000
0000
2000
3000
0000
0000
0000
0000
,  // measure 68
0200
0000
0000
0000
0000
0000
0000
0000
0000
0000
0000
0000
0000
0000
0000
0000
0000
0000
0000
0000
0000
0000
0000
0000
0001
0000
0000
0000
0000
0000
0000
0000
0000
0000
0000
0000
0000
0000
0000
0000
0000
0000
0000
0000
0000
0000
0000
0000
0001
0000
0000
0000
0000
0000
0000
0000
0000
0000
0000
0000
0000
0000
0000
0000
0000
0000
0000
0000
0000
0000
0000
0000
0301
0000
0000
0000
0000
0000
0000
0000
0000
0000
0000
0000
0000
0000
0000
0000
0000
0000
0000
0000
0000
0000
0000
0000
1000
0000
0000
0000
0000
0000
0000
0000
0000
0000
0000
0000
0000
0000
0000
0000
0000
0000
0000
0000
0000
0000
0000
0000
0001
0000
0000
0000
0000
0000
0000
0000
0000
0000
0000
0000
0000
0000
0000
0000
0000
0000
0000
0000
0000
0000
0000
0000
0200
0000
0000
0000
0300
0000
0000
0000
0000
0000
0000
0000
0000
0000
0000
0000
0000
0000
0000
0000
0000
0000
0000
0000
0002
0000
0000
0003
0000
0000
0000
0000
0000
0000
0000
0000
0000
0000
0000
0000
0000
0000
0000
0000
0000
0000
0000
0000
,  // measure 69
1000
0000
0000
0000
0000
0000
0001
0000
0000
0000
0000
0000
0001
0000
0000
0000
0000
0000
0001
0000
0000
0000
0000
0000
0010
0000
0000
0000
0000
0000
0010
0000
0000
0000
0000
0000
2000
3000
0000
0000
0000
0000
0020
0030
0000
0000
0000
0000
,  // measure 70
0200
1000
1000
1300
0001
0001
0100
0001
,  // measure 71
1000
0100
1000
0100
0010
0011
1001
0101
;
