#TITLE:알 수 없는 비밀;
#SUBTITLE:(Sonatine);
#ARTIST:이달의 소녀 1/3;
#TITLETRANSLIT:Sonatine;
#SUBTITLETRANSLIT: ;
#ARTISTTRANSLIT:LOOΠΔ 1/3;
#GENRE:;
#CREDIT:;
#BANNER:[VIP Room Round 1] - Sonatine.png;
#BACKGROUND:[VIP Room Round 1] - Sonatine-bg.png;
#LYRICSPATH:;
#CDTITLE:;
#MUSIC:[VIP Room Round 1] - Sonatine.ogg;
#OFFSET:-1.879189;
#SAMPLESTART:54.158855;
#SAMPLELENGTH:26.250004;
#SELECTABLE:YES;
#BPMS:0.000000=64.000000
,32.000000=128.000000
,64.000000=64.000000
,72.000000=128.000000
,128.000000=64.000000
,146.000000=128.000000
,202.000000=64.000000
,204.000000=32.000000
;
#STOPS:
;
#BGCHANGES:7.750=[VIP Room Round 1] - Sonatine.avi=1.000=1=0=0=StretchNoLoop==CrossFade==,
99999=-nosongbg-=1.000=0=0=0 // don't automatically add -songbackground-
;
#KEYSOUNDS:;
#ATTACKS:;

//---------------dance-single - ----------------
#NOTES:
     dance-single:
     :
     Challenge:
     8:
     0.365118,0.565572,0.389096,0.961296,0.244139,335.000000,284.000000,51.000000,126.000000,0.000000,0.000000,0.365118,0.565572,0.389096,0.961296,0.244139,335.000000,284.000000,51.000000,126.000000,0.000000,0.000000:
0000
0000
0000
0000
,
0000
0000
0000
0000
,
0000
0000
0000
0000
,
0000
0000
0000
0000
,
1000
0100
0020
0002
0000
0033
0000
0000
1000
0100
0020
0002
0000
0033
0000
0000
,
0010
0001
1000
0020
0000
0030
0000
0000
0100
0001
1000
0002
0010
0000
0103
0000
,
0001
0100
0020
2000
0000
3030
0000
0000
0001
0100
0010
2000
0100
0000
3010
0000
,
1000
0000
0010
0000
0200
0000
0002
0000
0000
0000
0303
0000
0100
0000
0001
0000
0020
0000
0000
0000
0030
0000
0000
0000
0001
0010
0100
1000
0001
0100
0010
2000
,
0002
3003
0000
0000
1002
1003
0100
2100
,
0000
3001
0100
0000
0201
0000
0310
0000
,
2002
3003
0000
0010
0022
0000
0033
2002
,
3003
1000
0010
0100
0202
0303
2002
3003
,
2200
3300
0000
0100
0220
0000
0330
2002
,
3003
0001
0100
0000
0220
0330
2020
3030
,
0022
0033
0000
0010
0120
0000
0130
2200
,
0000
3300
0022
0033
2002
3003
2020
3030
,
0002
0203
0320
0030
,
2000
0000
0000
0000
3200
0000
0000
0000
0320
0000
0000
0000
0030
0000
0000
0001
,
0001
0100
0010
2000
0000
3010
1000
0002
,
0000
1003
0001
0010
0000
0110
0000
0000
,
0010
0001
1000
0020
0000
0130
0001
0020
,
0000
0230
0000
2300
0000
0000
3000
0001
,
0001
0000
0000
0000
0010
0000
0000
0010
0100
0000
1000
0000
0001
0000
0200
0000
,
0000
0302
0000
2003
0000
3100
0000
2002
,
0000
0000
0000
3003
0000
0001
0010
0012
,
0000
1003
0010
2010
0000
3001
0000
0000
,
2100
0000
0000
3200
0000
0000
2300
0000
3002
0000
0000
0203
0000
0000
0302
0000
,
2003
0000
0000
3200
0000
0000
0320
0000
0002
0000
0000
0000
0033
0000
0000
0000
,
0012
0000
0000
0023
0000
0000
0032
0000
2003
0000
0000
3002
0000
0000
0203
0000
,
0320
0000
1030
2000
3000
0020
0030
0200
,
0301
0100
0000
0100
0001
1000
0100
0010
,
0000
0010
0001
1000
0000
1001
0000
0000
,
1010
0000
0000
0000
0000
0000
1001
0000
0000
0000
0001
0000
0020
0000
0000
0030
0011
0000
0000
0000
0000
0000
1001
0000
0000
0000
0001
0100
0020
0000
0000
0030
,
1010
0000
0000
0000
0000
0000
1001
0000
0000
0000
0001
0000
1000
0000
0200
0000
0000
0000
1300
0000
0001
0000
0200
0000
0000
0000
0301
0000
0100
0010
1000
0000
,
0001
0010
0100
1000
0000
1100
0000
0000
1000
0010
0100
0002
0000
0003
1000
0000
,
2002
0000
0000
0000
3003
0000
0001
0000
1000
0000
0100
0000
0010
0000
0000
0002
0000
0000
0000
0000
0000
0000
0000
0000
0000
0000
0000
0000
0003
0000
0000
0000
,
0001
0010
0100
1000
0001
0100
0001
1000
0040
0000
0000
0000
0030
0000
1000
0000
1000
0000
0000
0000
0100
0000
0000
0000
0010
0000
0000
0000
0002
0000
0000
0000
,
0000
1003
0010
0002
0000
1003
0100
0002
,
0000
1003
0010
0100
0001
0010
1000
0002
,
0000
0103
1000
0200
0000
0320
0000
0031
,
1000
0000
0010
0000
0100
0000
0001
0000
0101
0000
0000
0000
1001
0000
0000
1000
,
0100
0100
0010
0001
0000
0011
0000
1000
,
0000
1010
0000
0220
0000
0000
0000
0330
,
0000
0010
0100
0201
0000
0310
1000
1200
,
0000
0000
0320
0000
0000
0000
0030
0000
0021
0000
0000
0230
0000
0000
1300
0000
,
2100
0000
0000
3002
0000
0000
0103
0000
0201
0000
0000
0320
0000
0000
1030
0000
,
2010
0000
0000
0000
3010
0000
0000
0000
1020
0000
0000
0230
0000
0000
0301
0000
,
0102
0000
0000
2003
0000
0000
3100
0000
1200
0000
0000
0000
0310
0000
0220
0000
,
0330
0022
0033
1002
1003
0010
0000
0010
,
1000
0010
0100
0001
0000
0001
0010
0100
,
0000
0000
0000
0000
1000
0000
0000
0000
0000
0000
0000
0000
0002
0000
0000
0000
2000
0000
0000
0000
0000
0000
0000
0000
0000
0000
0000
0000
3003
0000
1000
0100
,
0020
0030
0000
0000
0000
0000
0000
0000
;

//---------------dance-single - ----------------
#NOTES:
     dance-single:
     :
     Hard:
     7:
     0.276836,0.448557,0.083923,0.473019,0.129699,254.000000,243.000000,11.000000,62.000000,0.000000,0.000000,0.276836,0.448557,0.083923,0.473019,0.129699,254.000000,243.000000,11.000000,62.000000,0.000000,0.000000:
0000
0000
0000
0000
,
0000
0000
0000
0000
,
0000
0000
0000
0000
,
0000
0000
0000
0000
,
1000
0000
0000
1000
0000
0000
0000
0000
0100
0000
0000
0100
0000
0000
0000
0000
,
0010
0000
0000
0010
0000
0000
0000
0000
0001
0000
0000
0001
0010
0000
0001
0000
,
1000
0000
0000
1000
0000
0000
0000
0000
0010
0000
0000
0010
0100
0000
0001
0000
,
1000
0000
0000
1000
0000
0000
0100
0000
0010
0000
0000
0000
0001
0010
0100
1000
,
0010
0100
0010
0100
0100
0010
0000
0000
,
1000
0001
1000
0001
0001
1000
0000
0000
,
0100
0010
0100
0010
0010
0001
0001
1000
,
0000
0001
0100
0010
0001
0010
0100
0010
,
2000
0000
3000
0000
1000
0100
0001
0100
,
0020
0000
0030
0001
0000
0001
0000
0001
,
0002
0000
0000
0023
0000
0000
0230
0000
2300
0000
0000
3020
0000
0000
0230
0000
,
0302
0000
0203
0300
0020
0030
2000
3000
,
0001
0001
0001
0000
,
1000
1000
1000
0000
,
0001
0000
2000
3000
0200
0300
0002
0003
,
0200
0300
2000
3000
0020
0030
0020
0030
,
0002
0003
0020
0030
2000
3010
0100
0002
,
0000
1003
0000
2002
0000
3003
0000
0000
,
0001
0000
1000
0000
0100
0100
0010
0010
,
0000
0001
0000
0010
0000
0100
0000
1000
,
2000
0000
3001
0002
0000
0103
0010
2000
,
3000
0100
0010
0002
0003
2000
3000
0000
,
0002
0000
0000
0010
0010
0000
0000
0100
,
0100
0000
0000
1000
2003
0000
0000
0000
,
3020
0000
0000
1000
1000
0000
0100
0230
,
0000
0001
0000
0301
0100
0000
0010
0000
,
1000
1000
0000
0001
0001
0010
0100
2000
,
0000
3010
0100
0002
0003
0002
0003
0000
,
1000
0010
1000
0010
0000
1000
0000
1010
0000
1000
0001
1000
0000
1001
0000
1001
,
0000
0001
0010
0001
0000
0010
0100
0020
0000
0000
0000
0230
0000
0000
0000
0000
,
1300
0100
0010
0001
0000
0011
0000
0001
0000
0100
0000
0020
0000
0030
1000
0000
,
1010
0000
0000
0000
0000
0000
0010
0000
0010
0000
0000
0000
0100
0000
0000
0200
0000
0000
0000
0000
0000
0000
0000
0000
0000
0000
0000
0000
0300
0000
0000
0000
,
0001
0100
0010
1000
0002
0000
0003
0000
1000
0000
0000
0000
1001
0000
0000
0000
,
0001
0100
0010
2000
0000
3001
1000
0002
,
0000
0013
0200
0000
1300
0100
0010
0002
,
0000
1003
0001
2000
0000
3020
0000
0130
,
0002
1003
1100
1001
,
0001
1000
0001
0010
0000
0011
0000
0001
,
0000
1000
0000
2002
0000
0000
0000
3003
,
0000
0001
0100
1000
0000
1000
0100
0002
,
0003
0002
0003
0000
0020
0000
0000
0001
,
0032
0000
0000
1000
2003
0000
3002
0000
,
0203
0000
0320
0000
,
1030
0000
0001
0020
0000
0030
0000
0100
,
0100
0000
0010
0000
0001
1000
0000
0001
,
0100
0010
1000
0010
0000
1000
0001
1000
,
0000
0100
0000
0010
0002
0000
0000
0000
,
2003
3000
0000
0000
0000
0000
0000
0000
;
