#TITLE:Something New;
#SUBTITLE:;
#ARTIST:TAEYEON;
#TITLETRANSLIT:;
#SUBTITLETRANSLIT:;
#ARTISTTRANSLIT:;
#GENRE:K-POP;
#CREDIT:;
#BANNER:[VIP Room Round 1] - Something New.png;
#BACKGROUND:[VIP Room Round 1] - Something New-bg.png;
#LYRICSPATH:;
#CDTITLE:CDTitle.png;
#MUSIC:[VIP Room Round 1] - Something New.ogg;
#OFFSET:0.010000;
#SAMPLESTART:58.784615;
#SAMPLELENGTH:9.794823;
#LASTBEATHINT:191.485931;
#SELECTABLE:YES;
#BPMS:0.000000=98.011002
,125.000000=49.006001
,126.000000=98.011002
;
#STOPS:125.000000=1.837000
;
#BGCHANGES:32.000=[VIP Room Round 1] - Something New.avi=1.000=0=0=1=====,
99999=-nosongbg-=1.000=0=0=0 // don't automatically add -songbackground-
;
#KEYSOUNDS:;
#ATTACKS:;

//---------------dance-single - ----------------
#NOTES:
     dance-single:
     :
     Hard:
     8:
     0.367897,0.434318,0.066674,0.533391,0.287531,309.000000,301.000000,8.000000,64.000000,32.000000,0.000000,0.367897,0.434318,0.066674,0.533391,0.287531,309.000000,301.000000,8.000000,64.000000,32.000000,0.000000:
// measure 0
0000
0000
0000
0000
,  // measure 1
0000
0000
0000
0000
,  // measure 2
0000
0000
0000
0000
,  // measure 3
0000
0000
0000
0000
,  // measure 4
0000
0000
0000
0000
,  // measure 5
0000
0000
0000
0000
,  // measure 6
0000
0000
0000
0000
,  // measure 7
0000
0000
0000
0000
,  // measure 8
1000
0000
0010
0000
0110
0000
0000
0000
0100
0001
1000
0000
0001
0000
0000
0000
,  // measure 9
0010
0000
0001
0000
0101
0000
0000
0000
0001
0010
0100
0000
1000
0000
0000
0000
,  // measure 10
0010
0000
1000
0000
1001
0000
0000
0000
1000
0001
0100
0000
0001
0000
0000
0000
,  // measure 11
0100
0000
0010
0000
1010
0000
0000
0000
0010
0100
0001
0000
1001
0000
0000
0000
,  // measure 12
1000
0010
1000
0001
0010
0100
0001
0000
,  // measure 13
0001
0100
1000
0001
0010
0100
1000
0000
,  // measure 14
1000
0001
1000
0001
0100
0010
0001
0000
,  // measure 15
0001
0010
1000
0100
0001
0100
1000
0000
,  // measure 16
0100
0010
0001
1000
0100
0010
1000
0000
,  // measure 17
0001
0100
0010
0001
1000
0100
0010
0000
,  // measure 18
1000
0010
0001
0100
1000
0100
0001
0000
,  // measure 19
0010
1000
0100
0001
0010
0100
1000
0000
,  // measure 20
2000
3200
0320
0032
,  // measure 21
2003
0000
0010
3020
0000
0130
0110
0000
,  // measure 22
0100
0100
0002
0000
0023
0000
2030
0000
,  // measure 23
3010
0001
0000
0001
0010
0000
0000
0000
0001
1000
0001
1000
0001
0100
0000
0000
,  // measure 24
0020
0000
1030
0100
0020
0000
0031
0100
0020
0000
1030
0100
0010
0000
0M1M
0000
,  // measure 25
2000
0001
0010
3200
,  // measure 26
0320
0000
0031
1000
0020
0000
0130
0001
2000
0000
3001
0010
0100
0000
01MM
0000
,  // measure 27
0001
0010
0000
0002
0000
0000
1003
0000
0001
0100
0000
0002
0000
0000
1003
0000
,  // measure 28
0002
0000
1003
0010
0200
0000
0301
0010
0200
0000
1300
0010
0100
0000
M1M0
0000
,  // measure 29
0020
0001
1000
0230
,  // measure 30
2300
0000
3001
1000
0020
0000
1030
0001
0020
0000
0031
1000
0010
0000
M01M
0000
,  // measure 31
0001
0000
0000
0000
0000
0000
0000
0000
0000
0000
0000
0000
0100
0000
0000
0000
0000
0000
0000
0000
0000
0000
0000
0000
0000
0000
0000
0000
0000
0000
0000
0000
0000
0000
0000
0000
2000
0000
0000
0000
0000
0000
0000
0000
0000
0000
0000
0000
0000
3000
0000
0000
0000
0000
0000
0000
0000
0000
0000
0000
0000
0000
0000
0000
0000
0000
0000
0000
0000
0000
0000
0000
0000
0000
0000
0000
0000
0000
0000
0000
0000
0000
0000
0000
M000
0000
0000
0M00
0000
0000
00M0
0000
0000
000M
0000
0000
2000
0000
0000
0000
0000
0000
0000
0000
0000
0000
0000
0000
0000
0000
0000
0000
0000
0000
0000
0000
0000
0000
0000
0000
0000
0000
0000
0000
0000
0000
0000
0000
0000
0000
0000
0000
0000
0000
0000
0000
0000
0000
0000
0000
0000
0000
0000
0000
3010
0000
0000
0000
0000
0000
0000
0000
0000
0000
0000
0000
0000
0000
0000
0000
0000
0000
0000
0000
0000
0000
0000
0000
MM10
0000
0000
0000
0000
0000
0000
0000
0000
0000
0000
0000
0000
0000
0000
0000
0000
0000
0000
0000
0000
0000
0000
0000
,  // measure 32
0001
0000
0001
0100
0001
0000
0001
0020
0001
0000
0000
0000
0031
0000
1000
0020
,  // measure 33
1000
0000
0000
0000
1030
0000
0010
0100
0002
0000
0000
0000
0013
0000
0M1M
0000
,  // measure 34
0100
0000
0100
0000
0010
0000
1000
0200
0000
0000
0000
0310
0001
0000
0001
2000
,  // measure 35
0100
0000
0000
0000
3100
0000
1000
0010
2000
0000
0000
0000
3001
0000
MMM1
0000
,  // measure 36
0100
0000
0000
0100
1000
0010
0000
0001
0000
0100
0000
1000
0000
0010
0000
0001
,  // measure 37
0000
0000
0000
0010
0000
0000
0000
0000
0000
0000
0000
1000
0000
0000
0000
0000
0000
0000
0000
0000
0000
0002
0000
0000
0100
0000
0000
0000
0000
0000
0000
0000
0000
0000
0000
0000
1003
0000
0000
0000
0000
0000
1MMM
0000
0000
0000
0000
0000
,  // measure 38
0010
0010
0001
0002
0000
0203
2300
3200
,  // measure 39
0302
0000
0000
0000
2003
0000
0000
0000
3020
0000
0130
0001
0020
0000
0130
1000
,  // measure 40
0020
0000
0130
0001
0010
0000
0M1M
0000
0002
0000
0000
0000
0013
0000
2000
0000
,  // measure 41
0100
0000
3000
0000
1200
0000
0000
0000
0302
0000
0103
1000
0002
0000
0103
0001
,  // measure 42
2000
0000
3100
1000
0001
0000
MMM1
0000
0100
1000
0000
0002
0000
0000
0103
0000
,  // measure 43
0010
1000
0000
0002
0000
0000
0013
0000
2000
0000
3010
0001
0200
0000
0310
1000
,  // measure 44
0200
0000
0310
0001
0100
0000
M10M
0000
0020
0000
0000
0000
1030
0000
0200
0000
,  // measure 45
0001
0000
0300
0000
0102
0000
0000
0000
0203
0000
0310
0100
2000
0000
3100
0010
,  // measure 46
0002
0000
0013
0100
1000
0000
1MMM
0000
0010
0100
0000
0002
0000
0000
1003
0000
,  // measure 47
0100
0010
0000
0002
0000
0000
1003
0000
0000
0000
0000
0000
0000
0000
0000
0000
;

//---------------dance-single - ----------------
#NOTES:
     dance-single:
     :
     Easy:
     2:
     0.142873,0.176035,0.016668,0.266696,0.000000,120.000000,118.000000,2.000000,32.000000,0.000000,0.000000,0.142873,0.176035,0.016668,0.266696,0.000000,120.000000,118.000000,2.000000,32.000000,0.000000,0.000000:
0000
0000
0000
0000
,
0000
0000
0000
0000
,
0000
0000
0000
0000
,
0000
0000
0000
0000
,
0000
0000
0000
0000
,
0000
0000
0000
0000
,
0000
0000
0000
0000
,
0000
0000
0000
0000
,
1000
0001
0000
0001
,
0100
0010
0000
0010
,
1000
0001
0000
0001
,
1000
0100
0000
0100
,
0010
0010
0010
0000
,
0001
0001
0001
0000
,
0100
0100
0100
0000
,
1000
1000
1000
0000
,
0010
0010
0010
0000
,
1000
1000
1000
0000
,
0100
0100
0100
0000
,
0001
0001
0001
0000
,
2000
0000
3020
0000
,
0230
0000
0000
0002
0000
0000
0303
0000
,
2000
0000
3200
0000
,
0320
0000
0000
0032
0000
0000
0103
0000
,
0010
0010
0100
0100
,
0002
0000
0000
2003
0000
0000
3100
0000
,
0010
0010
0100
0100
,
2000
0000
3002
0000
,
0103
0100
0010
0010
,
2000
0000
0000
3002
0000
0000
0103
0000
,
0001
0001
0010
0010
,
0200
0300
2000
0000
,
0100
3100
0020
0000
,
0001
0031
0200
0000
,
0010
0310
2000
0000
,
0001
3001
0002
0000
,
0103
0100
0010
1000
,
0100
0010
0002
0003
,
0200
0300
0220
0000
,
0000
0330
1000
1000
,
0100
0000
0100
0000
0020
0000
0000
0032
,
0000
0103
0010
0010
,
1000
1000
0002
0000
,
2003
0000
3010
0010
,
0100
0000
0100
0000
0002
0000
0000
2003
,
0000
3100
0010
0010
,
0100
0000
0000
0000
0100
0000
0000
0000
1000
0000
0000
0000
2002
0000
0000
3003
;

//---------------dance-single - ----------------
#NOTES:
     dance-single:
     :
     Medium:
     5:
     0.247646,0.291828,0.008334,0.308367,0.091677,208.000000,207.000000,1.000000,37.000000,0.000000,0.000000,0.247646,0.291828,0.008334,0.308367,0.091677,208.000000,207.000000,1.000000,37.000000,0.000000,0.000000:
0000
0000
0000
0000
,
0000
0000
0000
0000
,
0000
0000
0000
0000
,
0000
0000
0000
0000
,
0000
0000
0000
0000
,
0000
0000
0000
0000
,
0000
0000
0000
0000
,
0000
0000
0000
0000
,
1000
0000
0001
0000
1000
0000
0000
0000
0100
0000
0000
0010
0000
0010
0000
0000
,
0001
0000
1000
0000
0001
0000
0000
0000
0100
0000
0000
0010
0000
0010
0000
0000
,
1000
0000
0001
0000
1000
0000
0000
0000
0100
0000
0000
0010
0000
0010
0000
0000
,
0001
0000
1000
0000
0001
0000
0000
0000
0100
0000
0000
0010
0000
0010
0000
0000
,
0100
0000
0001
0000
1000
0000
0000
0000
0010
0000
0000
0010
0000
0000
0000
0000
,
1000
0000
0100
0000
0010
0000
0000
0000
0100
0000
0000
0100
0000
0000
0000
0000
,
1000
0000
0001
0000
0100
0000
0000
0000
0001
0000
0000
0001
0000
0000
0000
0000
,
0010
0000
0100
0000
1000
0000
0000
0000
0010
0000
0000
0010
0000
0000
0000
0000
,
0100
0000
0001
0000
0100
0000
0000
0000
0010
0000
0000
1000
0000
0000
0000
0000
,
0100
0000
1000
0000
0100
0000
0000
0000
0010
0000
0000
0001
0000
0000
0000
0000
,
0100
0000
1000
0000
0100
0000
0000
0000
0001
0000
0000
1000
0000
0000
0000
0000
,
0100
0000
0001
0000
0100
0000
0000
0000
1000
0000
0000
0001
0000
0000
0000
0000
,
0200
0302
2003
3200
,
0320
0000
0000
0032
0000
0000
0003
0000
,
2000
3020
0230
0302
,
2003
0000
0000
3002
0000
0000
0103
0000
,
0010
1000
0010
1000
0001
0100
0001
0100
,
0020
0000
0000
0230
0000
0000
0301
0000
,
1000
0100
1000
0100
0010
0001
0010
0001
,
2000
0000
0000
3010
0000
0000
0100
0000
0002
0000
0000
0013
0000
0000
0100
0000
,
1000
0010
1000
0010
0100
0001
0100
0001
,
0020
0000
0000
2030
0000
0000
3100
0000
,
0001
1000
0001
1000
0010
0100
0010
0100
,
0002
0000
0000
1003
0000
0000
0000
0000
0200
0000
0000
0000
1000
0000
0000
0000
,
1300
0001
1000
0000
0020
0000
1030
0001
,
2000
0000
3001
0100
0002
0000
0023
0000
,
0130
1000
1000
0000
0020
0000
0130
0001
,
2000
0000
3100
0010
0002
0000
1003
1000
,
0100
0000
0001
0000
0100
0000
1000
1000
,
0010
0000
0100
0000
0002
0000
1003
1000
,
0100
0010
0220
0000
,
0000
0000
0330
0000
0010
0001
0010
0001
,
1000
0100
1000
0100
0002
0000
0000
0203
,
0000
0000
1300
0000
0010
1000
0010
1000
,
0001
0000
0100
0000
0001
0000
0100
0000
0020
0000
0000
1030
0000
0000
0001
0000
,
0200
0000
0000
0301
0000
0000
1000
0000
0100
0000
0001
0000
0100
0000
0001
0000
,
0100
1000
0100
1000
0020
0000
0000
0032
,
0000
0000
0103
0000
1000
0010
1000
0010
,
0001
0000
0010
0000
0001
0000
0010
0000
2000
0000
0000
3001
0000
0000
0000
0000
;
