#TITLE:Nebulosa;
#SUBTITLE:;
#ARTIST:Tanukichi & Neika;
#TITLETRANSLIT:;
#SUBTITLETRANSLIT:;
#ARTISTTRANSLIT:;
#GENRE:;
#CREDIT:;
#BANNER:nebulosa_bn.png;
#BACKGROUND:nebulosa_bg.png;
#LYRICSPATH:;
#CDTITLE:cdtitle.png;
#MUSIC:nebulosa.ogg;
#OFFSET:0.000000;
#SAMPLESTART:60.631577;
#SAMPLELENGTH:10.105263;
#SELECTABLE:YES;
#BPMS:0.000000=190.000000
,256.000000=95.000000
,288.000000=190.000000
;
#STOPS:
;
#BGCHANGES:;
#KEYSOUNDS:;
#ATTACKS:;

//---------------dance-single - ----------------
#NOTES:
     dance-single:
     :
     Hard:
     10:
     0.672723,1.260015,0.143319,0.327587,0.392422,690.000000,669.000000,21.000000,48.000000,0.000000,0.000000,0.672723,1.260015,0.143319,0.327587,0.392422,690.000000,669.000000,21.000000,48.000000,0.000000,0.000000:
0000
0000
0000
0000
,
0000
0000
0000
0000
,
0000
0000
0000
0000
,
0000
0000
0000
0000
,
0000
0000
0000
0000
,
0000
0000
0000
0000
,
0000
0000
0000
0000
,
0000
0000
0000
0000
,
1001
0000
0001
0100
0001
0010
0001
0100
,
0001
1000
0100
1000
0010
1000
0100
1000
,
0010
0100
0001
0100
0010
0100
0001
0100
,
0010
1000
0100
0010
0100
1000
0100
0010
,
0001
0100
0010
0100
0001
0010
0100
0010
,
0100
1000
0010
0100
0010
1000
0100
0010
,
0100
1000
0010
0100
0001
0010
0100
1000
,
0002
0203
0320
2030
,
3200
0000
0000
0000
,
0300
0000
0000
0000
,
0000
0000
0000
0000
,
0000
0000
0000
0000
,
2000
0000
0000
0000
,
3200
0000
0000
0000
,
0320
0000
0000
0000
,
0032
0000
0000
0000
0000
0003
0011
0000
,
0001
0100
0001
0100
0001
0100
0001
0100
,
0001
1000
0001
1000
0001
1000
0001
1000
,
0100
1000
0100
1000
0100
1000
0100
1000
,
0100
1000
0100
1000
0100
1000
0100
1000
,
0010
1000
0010
1000
0010
1000
0010
1000
,
0001
1000
0001
1000
0001
1000
0001
1000
,
0001
0010
0001
0010
0001
0010
0001
0010
,
0002
0000
0000
0000
1003
0001
1001
0000
,
2002
0000
0000
0000
,
0000
0000
0000
0000
,
3003
0000
0000
0000
,
0000
0000
0000
0000
,
0101
0000
0000
0000
0001
0100
0001
0010
,
0002
0000
0000
0000
1003
0100
1000
0010
,
2000
0000
0000
0000
3001
0100
0001
0010
,
0002
0000
0000
0000
1003
0100
1000
0010
,
2000
0000
0000
0000
3010
0100
0001
0100
,
0020
0000
0000
0000
1030
0100
0010
0001
,
0020
0000
0000
0000
0031
0100
0010
1000
,
0002
0000
0000
0000
0103
0010
1000
0100
,
0020
0000
0000
0000
0031
0100
0001
1000
,
0010
0100
0010
0100
0001
1000
0001
1000
,
0000
0000
0001
0000
0100
0000
0010
0000
1000
0000
0100
0000
0020
0000
0000
0000
0000
0000
0130
0000
0000
0100
0000
0000
,
0010
0001
1000
0010
0100
0000
0110
0000
,
0001
0000
0100
0000
1000
0000
0100
0000
0010
0000
1000
0000
0001
1000
0001
0000
,
1000
0000
0100
1000
0100
1000
0100
0000
0010
0000
0001
0010
0001
0000
1000
0000
,
0010
0000
0100
0000
0001
0000
0010
0000
1000
0000
0010
0000
0100
0010
0100
0000
,
0010
0001
0100
1000
0100
0001
0010
1000
,
0010
0000
0100
0000
1000
0000
0001
0000
0100
0000
0010
0000
1000
0001
1000
0000
,
0001
0000
0100
0001
0100
0001
0100
0000
0010
0000
1000
0010
1000
0000
0001
0000
,
0010
0000
0100
0010
0001
0000
1000
0000
0010
0000
0000
0000
0110
0000
0000
0000
,
1000
0001
1000
1001
,
1000
0000
0100
0000
0001
0000
0100
0000
0010
0000
0001
0000
1000
0001
1000
0000
,
0001
0000
0100
0001
0100
0001
0100
0000
0010
0000
1000
0010
1000
0000
0001
0000
,
0010
0000
0100
0000
1000
0000
0010
0000
0001
0000
0010
0000
0100
0010
0100
0000
,
0010
1000
0100
0001
0100
1000
0010
0001
,
0010
0000
0100
0000
0001
0000
1000
0000
0100
0000
0010
0000
0001
1000
0001
0000
,
1000
0000
0100
1000
0100
1000
0100
0000
0010
0000
0001
0010
0001
0000
1000
0000
,
0010
0000
0000
0000
1000
0000
0000
0000
0100
0000
0000
0000
0010
0000
0000
0000
0001
0000
0000
0000
0100
0000
0000
0000
0010
0000
0000
0000
0000
0000
0100
0000
0000
0010
0000
0000
1000
0000
0000
0000
0000
0000
1000
0000
0000
0000
0000
0000
,
0001
0100
0001
0000
1000
0000
0000
0000
1000
0000
0100
1000
0001
0000
0000
0000
,
0101
0000
0000
0000
1000
0000
1000
0000
1000
0000
1000
0000
1000
0000
1000
0000
0001
0100
0001
0000
1000
0100
1000
0000
0020
0000
0000
0000
1030
0000
0001
0000
,
0011
0000
0000
0000
0001
0000
0001
0000
0001
0000
0001
0000
0001
0000
0001
0000
1000
0000
1000
0000
0010
1000
0001
0000
2000
0000
0000
0000
3001
0000
0000
0000
,
0010
0000
0100
0000
0010
0000
0000
0000
0100
0000
0100
0000
0100
0000
0100
0000
0100
0000
0100
0000
0010
0100
0010
0000
0002
0000
0000
0000
1003
0000
0000
0000
,
1001
0000
1000
1100
0000
1000
0100
0001
0200
0000
2300
0000
3002
0000
0203
0300
,
0110
0000
0000
0000
1000
0000
1000
0000
1000
0000
1000
0000
1000
0000
1000
0000
1000
0000
1000
0000
0001
0010
0001
0000
2000
0000
0000
0000
3001
0000
1000
0000
,
1100
0000
0000
0000
0001
0000
0001
0000
0001
0000
0001
0000
0001
0000
0001
0000
0001
0000
0001
0000
1000
0010
1000
0000
0002
0000
0203
0000
0310
0000
0100
0000
,
0110
0000
0000
0000
0010
0000
0010
0000
0010
0000
0010
0000
0010
0000
0010
0000
0010
0000
0010
0000
1000
0001
0010
0000
0200
0000
0000
0000
0310
0000
0001
0000
,
0011
0000
0010
0010
0100
0100
0020
0000
0032
0000
0203
0000
0320
0000
1030
1000
,
2020
0000
0000
0000
,
3030
0000
0000
0000
,
0000
0000
0000
0000
,
0000
0000
0000
0000
,
2000
0000
0000
0000
3100
0001
0100
0010
,
0200
0000
0000
0000
0310
0001
0100
1000
,
0200
0000
0000
0000
0310
0001
0010
1000
,
0002
0000
0000
0000
0013
1000
0010
0100
,
2000
0000
0000
0000
3001
0100
1000
0001
,
0020
0000
0000
0000
1030
0100
0001
1000
,
0020
0000
0000
0000
0031
0100
0010
0001
,
0020
0000
0000
0000
1030
0100
0010
1000
,
0010
0000
0100
0010
0000
0100
0010
0000
0001
0000
1000
0001
0000
1000
0001
0000
,
0100
0000
0010
0100
0000
0010
0100
0000
0001
0000
1000
0001
0000
1000
0001
0000
,
0000
0000
0000
0000
0000
0000
0001
0001
,
0010
0001
1000
0010
0100
0000
0110
0000
,
0102
0000
0000
0000
1003
0000
0100
0000
0010
0000
0001
0000
1000
0000
0001
1000
,
0100
0000
0010
0000
0100
0000
0010
0100
1000
0000
0001
0100
0010
0100
0001
0000
,
0100
0000
0010
0000
1000
0000
0100
0000
0010
0000
0100
0000
0010
0001
1000
0000
,
0100
0000
1000
0000
0001
0000
0100
0001
0100
0000
0010
0000
1000
0000
0001
0000
,
0100
0000
0010
0000
0001
0000
0010
0000
1000
0000
0010
0000
0100
0000
0001
0100
,
0010
0000
0100
0001
1000
0000
0001
0100
0001
0000
0100
0010
1000
0001
0010
0001
,
1000
0000
1000
0000
0100
0000
0010
0000
1000
0000
0010
0000
0100
0010
0000
0000
,
0001
0000
1000
0001
0100
0000
0001
1000
0100
0000
0000
0000
1001
0000
0000
0000
,
0001
0000
0010
0000
1000
0000
0010
0000
0100
0000
1000
0000
0001
0000
1000
0010
,
0100
0000
0010
0000
0100
0000
0001
1000
0100
0000
1000
0100
0010
0100
1000
0000
,
0100
0000
0010
0000
0001
0000
0100
0000
0010
0000
1000
0000
0010
0100
0001
0000
,
0100
0000
0001
0000
0010
0000
0001
1000
0010
0000
0100
0000
0001
0000
0010
0000
,
0100
0000
0010
0000
0001
0000
1000
0000
0010
0000
0100
0000
0001
0000
1000
0001
,
0010
0000
0010
0001
1000
0000
1000
0001
0100
0000
0100
0010
0100
0001
0100
0010
,
1000
0000
1000
0000
0100
0000
0010
0000
0100
0000
0001
0000
0100
0010
0000
0000
,
0010
0000
0010
0000
0001
0000
1000
0001
0100
0000
0100
0000
0110
0000
0000
0000
,
0020
0000
0000
0000
,
0000
0000
0030
0000
;

//---------------dance-single - ----------------
#NOTES:
     dance-single:
     :
     Easy:
     4:
     0.280789,0.540007,0.054598,0.129670,0.003412,288.000000,280.000000,8.000000,19.000000,0.000000,0.000000,0.280789,0.540007,0.054598,0.129670,0.003412,288.000000,280.000000,8.000000,19.000000,0.000000,0.000000:
0000
0000
0000
0000
,
0000
0000
0000
0000
,
0000
0000
0000
0000
,
0000
0000
0000
0000
,
0000
0000
0000
0000
,
0000
0000
0000
0000
,
0000
0000
0000
0000
,
0000
0000
0000
0000
,
1000
0000
0010
0000
,
0100
0000
0010
0000
,
1000
0000
0100
0000
,
0100
0000
0001
0000
,
1000
0000
0001
0000
,
0010
0000
0001
0000
,
0010
0000
0010
0000
,
1000
0001
1000
0001
,
1000
0000
0000
0000
,
0000
0000
0000
0000
,
0000
0000
0000
0000
,
0000
0000
0000
0000
,
0000
0000
0000
0000
,
0000
0000
0000
0000
,
0000
0000
0000
0000
,
0020
0000
0000
0030
,
1000
0000
1000
0000
,
0001
0000
0001
0000
,
0010
0000
0010
0000
,
0010
0000
0010
0000
,
0100
0000
0100
0000
,
1000
0000
1000
0000
,
0010
0000
0010
0000
,
0100
0000
0100
0100
,
0010
0000
0000
0000
,
0000
0000
0000
0000
,
0000
0000
0000
0000
,
0000
0000
0000
0000
,
0001
0000
0100
0001
,
0100
0000
0010
1000
,
0010
0000
1000
0100
,
1000
0000
0001
0010
,
0001
0000
1000
0010
,
0100
0000
0001
0010
,
0100
0000
1000
0001
,
0100
0000
0001
1000
,
0010
0000
1000
0100
,
0001
0000
0001
0100
,
0020
0000
0030
0001
,
0001
0001
1000
1001
,
1000
0100
1000
0010
,
0100
0100
0010
0010
,
1000
0001
0010
0010
,
1000
0001
0100
0010
,
0100
0001
0010
0001
,
0010
0010
0100
0100
,
1000
0001
1000
1001
,
0000
0000
0000
0110
,
0001
0100
0001
0010
,
0100
0100
0010
0010
,
0001
1000
0010
0010
,
0001
1000
0100
0010
,
0100
1000
0010
1000
,
0010
0010
0100
0100
,
0002
0000
0003
0001
,
1000
0100
0010
0100
,
2000
0000
0001
0000
3001
0100
0001
0000
,
0002
0000
1000
0000
1003
0010
1000
0001
,
1000
0000
0001
0000
0001
0010
0200
0000
,
0310
0000
0000
0010
0000
0000
0001
0000
1000
0000
0001
0000
1000
0000
0010
0000
,
0200
0000
0001
0000
0310
0100
0001
0000
,
0020
0000
0001
0000
0130
1000
0001
1000
,
0020
0000
0100
0000
1030
0001
0100
0001
,
0010
0000
0010
0001
0100
0100
0010
0100
,
0220
0000
0000
0000
,
0000
0000
0000
0000
,
0330
0000
0000
0000
,
0000
0000
0000
0000
,
1000
0000
0100
1000
,
0100
0000
0010
0001
,
0010
0000
0001
0100
,
0001
0000
1000
0010
,
1000
0000
0001
0010
,
0100
0000
1000
0010
,
0100
0000
0001
1000
,
0100
0000
1000
0001
,
0010
0000
0001
0100
,
1000
0000
1000
0100
,
0020
0000
0030
0010
,
1000
1000
0001
1001
,
2002
3003
0001
0010
,
0100
0100
0010
0010
,
0001
0100
0010
0010
,
0001
1000
0100
0001
,
0100
1000
0010
1000
,
0010
0010
0100
0100
,
0001
0010
0100
0100
,
0002
2003
3002
1003
,
1001
0001
1000
0010
,
0100
0100
0010
0010
,
1000
0100
0010
0010
,
1000
0001
0100
1000
,
0100
0001
0010
0001
,
0010
0010
0100
0100
,
1000
0010
0100
0001
,
2000
0000
3001
1001
,
0020
0000
0000
0000
,
0000
0000
0030
0000
;

//---------------dance-single - ----------------
#NOTES:
     dance-single:
     :
     Medium:
     8:
     0.480656,0.972012,0.136495,0.218391,0.194505,493.000000,473.000000,20.000000,32.000000,0.000000,0.000000,0.480656,0.972012,0.136495,0.218391,0.194505,493.000000,473.000000,20.000000,32.000000,0.000000,0.000000:
// measure 0
0000
0000
0000
0000
,  // measure 1
0000
0000
0000
0000
,  // measure 2
0000
0000
0000
0000
,  // measure 3
0000
0000
0000
0000
,  // measure 4
0000
0000
0000
0000
,  // measure 5
0000
0000
0000
0000
,  // measure 6
0000
0000
0000
0000
,  // measure 7
0000
0000
0000
0000
,  // measure 8
1000
0010
0001
0010
,  // measure 9
0100
0001
0010
1000
,  // measure 10
0010
0100
0001
0100
,  // measure 11
1000
0001
0100
0010
,  // measure 12
0001
0010
1000
0001
,  // measure 13
0010
1000
0010
0100
,  // measure 14
0010
0001
1000
0010
,  // measure 15
0110
0101
1001
1100
,  // measure 16
0220
0000
0000
0000
,  // measure 17
0000
0000
0000
0000
,  // measure 18
0330
0000
0000
0000
,  // measure 19
0000
0000
0000
0000
,  // measure 20
0002
0000
0000
0000
,  // measure 21
0203
0000
0000
0000
,  // measure 22
0320
0000
0000
0000
,  // measure 23
2030
0000
3000
1001
,  // measure 24
1000
1000
1000
1000
,  // measure 25
0001
0001
0001
0001
,  // measure 26
0100
0100
0100
0100
,  // measure 27
0100
0100
0100
0100
,  // measure 28
0001
0001
0001
0001
,  // measure 29
0010
0010
0010
0010
,  // measure 30
0100
0100
0100
0100
,  // measure 31
0020
0000
0000
0000
0130
0010
0100
0000
,  // measure 32
2002
0000
0000
0000
,  // measure 33
0000
0000
0000
0000
,  // measure 34
3003
0000
0000
0000
,  // measure 35
0000
0000
0000
0000
,  // measure 36
0001
0000
0000
0100
0000
0000
0001
0000
1000
0000
0000
0100
0000
0000
1000
0000
,  // measure 37
0001
0000
0000
0100
0000
0000
0010
0000
1000
0000
0000
0001
0000
0000
1000
0000
,  // measure 38
0001
0000
0000
0010
0000
0000
0100
0000
1000
0000
0000
0001
0000
0000
0100
0000
,  // measure 39
0010
0000
0000
0100
0000
0000
0001
0000
1000
0000
0000
0001
0000
0000
0010
0000
,  // measure 40
0002
0000
0000
0000
0103
0001
0100
0001
,  // measure 41
0200
0000
0000
0000
0310
0100
0010
0100
,  // measure 42
0020
0000
0000
0000
1030
0010
1000
0010
,  // measure 43
2000
0000
0000
0000
3100
1000
0100
1000
,  // measure 44
0200
0000
0000
0000
0310
0100
0010
0100
,  // measure 45
0020
0000
0000
0000
0031
0010
0001
0010
,  // measure 46
0000
0000
0001
0000
1000
0000
0001
0000
1000
0000
0001
0000
2000
0000
0000
0000
0000
0000
3001
0000
0000
1000
0000
0000
,  // measure 47
0001
0100
0010
0100
0001
0000
0011
0000
,  // measure 48
0001
0000
0100
0000
0001
0000
0010
0100
,  // measure 49
0010
0001
0100
0000
0100
0010
1000
0000
,  // measure 50
1000
0000
0001
0000
0010
0000
0100
0010
,  // measure 51
0001
0001
1000
0010
,  // measure 52
0100
0000
0001
0000
1000
0000
0001
0100
,  // measure 53
0010
0100
0001
1000
0100
0000
0100
1000
,  // measure 54
0001
0100
0001
1000
0100
0000
0110
0000
,  // measure 55
0010
0100
0010
1001
,  // measure 56
1000
0000
0100
0000
1000
0000
0010
0100
,  // measure 57
0010
1000
0100
0000
0100
0010
0001
0000
,  // measure 58
0001
0000
1000
0000
0010
0000
0100
0010
,  // measure 59
1000
1000
0001
0010
,  // measure 60
0100
0000
1000
0000
0001
0000
1000
0100
,  // measure 61
0010
0100
1000
0001
0100
0000
0100
0001
,  // measure 62
0100
0000
0010
0000
0100
0000
0010
0000
0100
0000
0010
0000
0200
0000
0000
0000
0000
0000
0310
0000
0000
0100
0000
0000
,  // measure 63
0001
1000
0001
0000
0010
0000
0110
0000
,  // measure 64
1001
0000
0001
0100
0001
0100
0001
0100
0001
0000
0001
0000
1000
0000
0001
1000
,  // measure 65
0100
0000
1000
0100
1000
0100
1000
0100
1000
0100
1000
0000
0001
0000
1000
0000
,  // measure 66
0010
0100
0010
0000
0100
0010
0100
0010
0100
0010
0100
0000
0010
0000
0010
0000
,  // measure 67
0110
0000
0000
1001
0000
0000
0001
0000
2000
0000
3200
0000
0320
0000
0032
0000
,  // measure 68
1003
0000
1000
0010
1000
0010
1000
0010
1000
0010
1000
0000
0001
0000
1000
0001
,  // measure 69
0010
0000
0001
0010
0001
0010
0001
0010
0001
0010
0001
0000
1000
0000
0001
1000
,  // measure 70
0100
0000
0100
0010
0100
0010
0100
0010
0100
0010
0100
0000
0010
0000
0001
1000
,  // measure 71
0010
0000
0100
0010
0100
0001
1000
0000
0100
0000
0010
0000
0001
0000
1000
0000
,  // measure 72
2002
0000
0000
0000
,  // measure 73
0000
0000
0000
0000
,  // measure 74
3003
0000
0000
0000
,  // measure 75
0000
0000
0000
0000
,  // measure 76
1000
0000
0000
0100
0000
0000
1000
0000
0001
0000
0000
0100
0000
0000
0001
0000
,  // measure 77
1000
0000
0000
0100
0000
0000
0010
0000
0001
0000
0000
1000
0000
0000
0001
0000
,  // measure 78
1000
0000
0000
0010
0000
0000
0100
0000
0001
0000
0000
1000
0000
0000
0100
0000
,  // measure 79
0010
0000
0000
0100
0000
0000
1000
0000
0001
0000
0100
0000
0010
0000
1000
0000
,  // measure 80
2000
0000
0000
0000
3100
1000
0100
1000
,  // measure 81
0200
0000
0000
0000
0310
0100
0010
0100
,  // measure 82
0020
0000
0000
0000
0031
0010
0001
0010
,  // measure 83
0002
0000
0000
0000
0103
0001
0100
0001
,  // measure 84
0200
0000
0000
0000
0310
0100
0010
0100
,  // measure 85
0020
0000
0000
0000
1030
0010
1000
0010
,  // measure 86
0000
0000
0000
0000
0000
0000
1000
1000
,  // measure 87
1000
0100
0010
0100
1000
0000
1010
0000
,  // measure 88
2001
0000
3100
0000
1000
0000
0010
0100
,  // measure 89
0001
0000
1000
0000
0010
0100
0010
1000
,  // measure 90
0001
0000
0010
0000
0100
0000
0010
0001
,  // measure 91
1000
0000
1000
0010
0100
0000
0001
0000
,  // measure 92
0100
0000
0010
0000
1000
0000
0100
0010
,  // measure 93
0100
1000
0001
0100
0010
0000
0100
0001
,  // measure 94
1000
0000
0100
0000
0010
0000
0001
1000
,  // measure 95
0010
0000
0000
0010
0100
0000
0000
0100
0001
0000
0000
0000
1001
0000
0000
0000
,  // measure 96
1002
0000
0103
0000
0001
0000
0010
0100
,  // measure 97
1000
0000
0001
0000
0010
0100
0010
0001
,  // measure 98
1000
0000
0010
0000
0100
0000
0010
1000
,  // measure 99
0001
0000
0001
0010
0100
0000
1000
0000
,  // measure 100
0100
0000
0010
0000
0001
0000
0100
0010
,  // measure 101
0100
0001
1000
0100
0010
0000
0100
1000
,  // measure 102
0001
0000
0100
0000
0010
0000
1000
0001
,  // measure 103
1000
0000
0000
1000
0001
0000
0000
0001
1000
0000
0001
0000
1001
0000
0000
0000
,  // measure 104
0200
0000
0000
0000
,  // measure 105
0000
0000
0300
0000
;
