#VERSION:0.83;
#TITLE:Merakit Perahu;
#SUBTITLE:;
#ARTIST:HiVi!;
#TITLETRANSLIT:;
#SUBTITLETRANSLIT:;
#ARTISTTRANSLIT:;
#GENRE:;
#ORIGIN:;
#CREDIT:vincentw;
#BANNER:[VIP Room Round 1] - Merakit Perahu.png;
#BACKGROUND:[VIP Room Round 1] - Merakit Perahu-bg.png;
#PREVIEWVID:;
#JACKET:[VIP Room Round 1] - Merakit Perahu-jacket.png;
#CDIMAGE:;
#DISCIMAGE:;
#LYRICSPATH:;
#CDTITLE:cdtitle.png;
#MUSIC:[VIP Room Round 1] - Merakit Perahu.ogg;
#OFFSET:0.020000;
#SAMPLESTART:40.837013;
#SAMPLELENGTH:18.621000;
#SELECTABLE:YES;
#DISPLAYBPM:116.000000:232.000000;
#BPMS:0.000=116.000,
34.000=58.000,
39.000=116.000,
43.000=232.000,
163.000=174.000,
169.000=116.000,
173.000=58.000,
175.000=116.000,
203.000=174.000,
209.000=232.000,
385.000=174.000,
397.000=115.500,
402.000=105.000,
403.000=152.500,
404.000=155.000,
405.000=125.500,
406.000=123.000,
407.000=129.000,
408.000=121.000;
#STOPS:;
#DELAYS:;
#WARPS:;
#TIMESIGNATURES:0.000=2=4,
2.000=4=4,
34.000=6=2,
37.000=4=2,
39.000=4=4,
43.000=4=8,
163.000=4=6,
169.000=4=4,
173.000=4=2,
175.000=4=4,
203.000=4=6,
209.000=4=8,
385.000=4=6,
397.000=4=4;
#TICKCOUNTS:0.000=4;
#COMBOS:0.000=1;
#SPEEDS:0.000=1.000=0.000=0;
#SCROLLS:0.000=0.600,
32.125=0.619,
32.250=0.640,
32.375=0.660,
32.500=0.682,
32.625=0.704,
32.750=0.727,
32.875=0.750,
33.000=0.775,
33.125=0.800,
33.250=0.826,
33.375=0.852,
33.500=0.880,
33.625=0.909,
33.750=0.938,
33.875=0.969,
34.000=1.000,
37.125=1.030,
37.250=1.061,
37.375=1.092,
37.500=1.125,
37.625=1.158,
37.750=1.193,
37.875=1.228,
38.000=1.265,
38.125=1.303,
38.250=1.341,
38.375=1.381,
38.500=1.423,
38.625=1.465,
38.750=1.509,
38.875=1.554,
39.000=0.800,
39.250=0.847,
39.500=0.897,
39.750=0.950,
40.000=1.006,
40.250=1.065,
40.500=1.128,
40.750=1.195,
41.000=1.265,
41.250=1.339,
41.500=1.418,
41.750=1.502,
42.000=1.591,
42.250=1.684,
42.500=1.784,
42.750=1.889,
43.000=1.000,
163.000=1.333,
163.375=1.277,
163.750=1.223,
164.125=1.171,
164.500=1.121,
164.875=1.074,
165.250=1.028,
165.625=0.985,
166.000=0.943,
166.375=0.903,
166.750=0.865,
167.125=0.828,
167.500=0.793,
167.875=0.759,
168.250=0.727,
168.625=0.696,
169.000=1.000,
169.250=0.958,
169.500=0.917,
169.750=0.878,
170.000=0.841,
170.250=0.805,
170.500=0.771,
170.750=0.738,
171.000=0.707,
171.250=0.677,
171.500=0.648,
171.750=0.621,
172.000=0.595,
172.250=0.569,
172.500=0.545,
172.750=0.522,
173.000=1.000,
203.000=0.667,
203.375=0.696,
203.750=0.727,
204.125=0.759,
204.500=0.793,
204.875=0.828,
205.250=0.865,
205.625=0.903,
206.000=0.943,
206.375=0.985,
206.750=1.028,
207.125=1.074,
207.500=1.121,
207.875=1.171,
208.250=1.223,
208.625=1.277,
209.000=1.000,
353.500=0.995,
354.000=0.989,
354.500=0.984,
355.000=0.979,
355.500=0.973,
356.000=0.968,
356.500=0.963,
357.000=0.958,
357.500=0.952,
358.000=0.947,
358.500=0.942,
359.000=0.937,
359.500=0.932,
360.000=0.927,
360.500=0.922,
361.000=0.917,
361.500=0.912,
362.000=0.907,
362.500=0.902,
363.000=0.897,
363.500=0.893,
364.000=0.888,
364.500=0.883,
365.000=0.878,
365.500=0.873,
366.000=0.869,
366.500=0.864,
367.000=0.859,
367.500=0.855,
368.000=0.850,
368.500=0.845,
369.000=0.841,
369.500=0.836,
370.000=0.832,
370.500=0.827,
371.000=0.823,
371.500=0.818,
372.000=0.814,
372.500=0.810,
373.000=0.805,
373.500=0.801,
374.000=0.797,
374.500=0.792,
375.000=0.788,
375.500=0.784,
376.000=0.780,
376.500=0.775,
377.000=0.771,
377.500=0.767,
378.000=0.763,
378.500=0.759,
379.000=0.755,
379.500=0.751,
380.000=0.746,
380.500=0.742,
381.000=0.738,
381.500=0.734,
382.000=0.730,
382.500=0.727,
383.000=0.723,
383.500=0.719,
384.000=0.715,
384.500=0.711,
385.000=0.943,
385.375=0.933,
385.750=0.923,
386.125=0.913,
386.500=0.903,
386.875=0.893,
387.250=0.883,
387.625=0.874,
388.000=0.865,
388.375=0.855,
388.750=0.846,
389.125=0.837,
389.500=0.828,
389.875=0.819,
390.250=0.810,
390.625=0.801,
391.000=0.793,
391.375=0.784,
391.750=0.776,
392.125=0.767,
392.500=0.759,
392.875=0.751,
393.250=0.743,
393.625=0.735,
394.000=0.727,
394.375=0.719,
394.750=0.711,
395.125=0.704,
395.500=0.696,
395.875=0.689,
396.250=0.681,
396.625=0.674,
397.000=1.000,
402.000=1.100,
403.000=0.757,
404.000=0.745,
405.000=0.920,
406.000=0.939,
407.000=0.895,
408.000=0.955;
#FAKES:;
#LABELS:0.000=Song Start;
#BGCHANGES:;
#KEYSOUNDS:;
#ATTACKS:
;

//---------------dance-single - ----------------
#NOTEDATA:;
#CHARTNAME:C 02 X 03;
#STEPSTYPE:dance-single;
#DESCRIPTION:;
#CHARTSTYLE:;
#DIFFICULTY:Beginner;
#METER:2;
#RADARVALUES:0.100518,0.178519,0.006967,0.111466,0.000000,101.000000,100.000000,1.000000,16.000000,0.000000,0.000000,0.000000,0.000000,0.000000,0.100518,0.178519,0.006967,0.111466,0.000000,101.000000,100.000000,1.000000,16.000000,0.000000,0.000000,0.000000,0.000000,0.000000;
#CREDIT:vincentw;
#DISPLAYBPM:116.000000:232.000000;
#NOTES:
// measure 0
0000
0000
0000
0000
,  // measure 1
0000
0000
0000
0000
,  // measure 2
0000
0000
0000
0000
,  // measure 3
0000
0000
0000
0000
,  // measure 4
0000
0000
0000
0000
,  // measure 5
0000
0000
0001
0000
,  // measure 6
0000
0000
1000
0000
,  // measure 7
0000
0000
0010
0000
,  // measure 8
0020
0000
0030
0000
,  // measure 9
0000
2000
0000
0000
,  // measure 10
0000
0000
0000
3001
,  // measure 11
0000
0000
0000
0001
,  // measure 12
0000
0000
0000
1000
,  // measure 13
0000
0000
0000
0000
,  // measure 14
0000
0000
0000
1000
,  // measure 15
0000
0000
0000
0000
,  // measure 16
0000
0100
0000
0100
,  // measure 17
0000
0000
0000
0000
,  // measure 18
0000
0000
0000
0010
,  // measure 19
0000
0000
0000
0010
,  // measure 20
0000
0000
0000
0100
,  // measure 21
0000
0000
0000
0000
,  // measure 22
0000
0000
0000
1000
,  // measure 23
0000
0000
0000
0000
,  // measure 24
0000
0001
0000
0001
,  // measure 25
0000
0000
0000
0000
,  // measure 26
0000
1000
0000
2000
,  // measure 27
0000
0000
0000
3000
,  // measure 28
0000
0010
0000
0020
,  // measure 29
0000
0000
0030
0000
,  // measure 30
0000
0000
0000
0100
,  // measure 31
0000
0000
0000
0010
,  // measure 32
0000
0000
0000
0100
,  // measure 33
0000
0000
0000
0000
,  // measure 34
0000
0000
0000
0001
,  // measure 35
0000
0000
0000
1000
,  // measure 36
0000
0000
0000
0001
,  // measure 37
0000
0000
0000
0000
,  // measure 38
0000
0000
0000
0010
,  // measure 39
0000
0000
0000
0100
,  // measure 40
0000
0000
0000
0010
,  // measure 41
0000
0000
0200
0000
,  // measure 42
0000
0000
0000
0000
,  // measure 43
0300
0000
0000
1000
,  // measure 44
1000
0000
0000
0010
,  // measure 45
0010
0000
0000
0100
,  // measure 46
0000
0001
0000
0100
,  // measure 47
0000
0001
0000
1000
,  // measure 48
1000
0000
0000
0100
,  // measure 49
0100
0000
0000
0010
,  // measure 50
0000
0001
0000
0010
,  // measure 51
0000
0000
0000
0000
,  // measure 52
0000
0002
0000
0000
,  // measure 53
0000
0003
0000
1000
,  // measure 54
0000
2000
0000
0000
,  // measure 55
0000
0000
3000
0000
,  // measure 56
0000
0020
0000
0000
,  // measure 57
0000
0030
0000
0100
,  // measure 58
0000
0200
0000
0000
,  // measure 59
0000
0000
0000
0300
,  // measure 60
0000
0010
0000
0010
,  // measure 61
0000
0010
0000
0000
,  // measure 62
0000
1000
0000
0000
,  // measure 63
0000
0001
0000
0000
,  // measure 64
0000
1000
0000
0000
,  // measure 65
0000
0000
0000
0001
,  // measure 66
0000
0001
0000
0000
,  // measure 67
0000
0000
0000
0000
,  // measure 68
0000
0010
0000
0000
,  // measure 69
0000
0100
0000
0000
,  // measure 70
0000
0020
0000
0000
,  // measure 71
0000
0030
0000
0000
,  // measure 72
0000
0001
0000
0000
,  // measure 73
0000
0100
0000
0000
,  // measure 74
0000
0001
0000
0100
,  // measure 75
0000
0001
0000
0000
,  // measure 76
0000
1000
0000
0100
,  // measure 77
0000
1000
0000
0000
,  // measure 78
0000
0002
0000
0000
,  // measure 79
0003
1000
0000
0000
,  // measure 80
0000
1000
0000
0010
,  // measure 81
0000
1000
0000
0000
,  // measure 82
0000
0001
0000
0010
,  // measure 83
0000
0001
0000
0000
,  // measure 84
0000
1000
0000
0001
,  // measure 85
0000
1000
0000
0001
,  // measure 86
0000
0200
0000
0300
,  // measure 87
0000
0020
0000
0030
,  // measure 88
0000
0100
0000
0000
,  // measure 89
0000
0010
0000
0010
,  // measure 90
0000
1000
0000
0000
,  // measure 91
0000
0001
0000
0001
,  // measure 92
0000
0010
0000
0000
,  // measure 93
0000
0100
0000
0100
,  // measure 94
0000
2000
0000
0000
,  // measure 95
0000
3000
0000
0000
,  // measure 96
0000
1000
0000
0000
,  // measure 97
0001
0000
0000
0100
,  // measure 98
0000
0000
0010
0000
,  // measure 99
0000
2002
0000
0000
,  // measure 100
0000
3000
0000
0000
,  // measure 101
0000
0000
0000
0000
,  // measure 102
0000
0000
0003
0000
;

//---------------dance-single - ----------------
#NOTEDATA:;
#CHARTNAME:C 03 X 05;
#STEPSTYPE:dance-single;
#DESCRIPTION:;
#CHARTSTYLE:;
#DIFFICULTY:Easy;
#METER:3;
#RADARVALUES:0.167198,0.291320,0.013933,0.327430,0.000000,168.000000,166.000000,2.000000,47.000000,0.000000,0.000000,0.000000,0.000000,0.000000,0.167198,0.291320,0.013933,0.327430,0.000000,168.000000,166.000000,2.000000,47.000000,0.000000,0.000000,0.000000,0.000000,0.000000;
#CREDIT:vincentw;
#DISPLAYBPM:116.000000:232.000000;
#NOTES:
// measure 0
0000
0000
0000
0000
,  // measure 1
0000
0000
0000
0000
,  // measure 2
0000
0000
0000
0000
,  // measure 3
0000
0000
0000
0000
,  // measure 4
0000
0000
0000
0000
,  // measure 5
0000
0000
0000
0000
2000
0000
0000
3000
,  // measure 6
0000
0000
0000
0000
0020
0000
0000
0030
,  // measure 7
0000
0000
0100
0000
,  // measure 8
0100
0000
0001
0010
,  // measure 9
0100
2000
0000
0002
,  // measure 10
0000
0000
3003
1001
,  // measure 11
0000
1000
0000
0100
,  // measure 12
0000
0100
0000
0010
,  // measure 13
0000
0020
0000
0000
,  // measure 14
0000
0030
0000
0001
,  // measure 15
0000
0002
0000
0000
,  // measure 16
0000
0013
0000
0100
,  // measure 17
0000
0200
0000
0000
,  // measure 18
0000
0300
0000
1000
,  // measure 19
0000
0010
0000
0100
,  // measure 20
0000
0010
0000
1000
,  // measure 21
0000
0002
0000
0000
,  // measure 22
0000
0003
0000
0100
,  // measure 23
0000
0020
0000
0000
,  // measure 24
0000
1030
0000
2000
,  // measure 25
0000
0000
0000
3000
,  // measure 26
0000
1000
0000
0100
,  // measure 27
0000
0010
0000
0100
,  // measure 28
0000
1000
0000
0010
,  // measure 29
1000
0000
2000
0000
,  // measure 30
0000
3000
0000
0001
,  // measure 31
0000
0010
0000
0100
,  // measure 32
0000
0010
0000
0002
,  // measure 33
0000
0000
0000
0000
,  // measure 34
0000
0003
0000
1000
,  // measure 35
0000
0010
0000
0100
,  // measure 36
0000
0010
0000
2000
,  // measure 37
0000
0000
0000
0000
,  // measure 38
0000
3000
0000
0001
,  // measure 39
0000
0100
0000
0010
,  // measure 40
0000
0100
0000
0002
,  // measure 41
0000
0203
0000
0000
0320
0000
0000
2030
,  // measure 42
0000
0000
0000
0000
,  // measure 43
0000
3000
0000
0001
,  // measure 44
0010
0001
0000
1000
,  // measure 45
0010
1000
0000
0001
,  // measure 46
0100
1000
0100
0001
,  // measure 47
0000
1000
0000
0001
,  // measure 48
0100
0001
0000
1000
,  // measure 49
0100
1000
0000
0001
,  // measure 50
0010
1000
0010
0002
,  // measure 51
0000
0000
2003
0000
,  // measure 52
0000
3020
0000
0100
,  // measure 53
0000
0100
0000
1030
,  // measure 54
0001
0200
0000
0010
,  // measure 55
0000
0010
0000
0300
,  // measure 56
0000
0002
0000
1000
,  // measure 57
0000
1000
0000
0023
,  // measure 58
0000
0230
0000
0000
,  // measure 59
0000
2300
0000
0000
,  // measure 60
3000
0001
0000
0001
,  // measure 61
0000
1000
0000
1000
,  // measure 62
0000
0020
0000
0000
,  // measure 63
0000
0130
0000
0100
,  // measure 64
0000
0002
0000
0000
,  // measure 65
0000
0000
0000
1003
,  // measure 66
0000
2000
0000
0000
,  // measure 67
0000
0000
0000
3000
,  // measure 68
0000
0001
0000
0010
,  // measure 69
0000
0100
0000
1000
,  // measure 70
0000
0100
0000
0010
,  // measure 71
0000
0001
0000
0000
,  // measure 72
0000
1000
0000
0010
,  // measure 73
0000
0100
0000
0001
,  // measure 74
0000
1000
0010
0100
,  // measure 75
0002
0000
0000
0003
,  // measure 76
0000
1000
0000
0100
,  // measure 77
0000
0010
0000
0100
,  // measure 78
0000
2000
0000
0000
,  // measure 79
3100
0020
0000
0000
,  // measure 80
0130
1000
0000
0001
,  // measure 81
0000
0010
0000
0100
,  // measure 82
0000
1000
0000
0001
,  // measure 83
0000
0100
0000
0010
,  // measure 84
0000
1000
0010
1000
,  // measure 85
0000
0001
0010
0001
,  // measure 86
0000
0020
0000
0032
,  // measure 87
0000
2003
0000
3200
,  // measure 88
0000
1300
0000
0001
,  // measure 89
0000
2000
0000
3000
,  // measure 90
0000
0010
0000
1000
,  // measure 91
0000
0020
0000
0030
,  // measure 92
0000
0100
0000
0001
,  // measure 93
0000
0200
0000
0300
,  // measure 94
0000
0002
0000
0023
,  // measure 95
0000
0230
0000
2300
,  // measure 96
0000
0000
3001
0000
0000
0001
0000
0000
,  // measure 97
0002
0000
0000
0003
0000
0000
1000
0000
,  // measure 98
0000
1000
0000
0000
2000
0000
0000
3000
,  // measure 99
0000
0220
0000
0000
,  // measure 100
0000
0300
0000
0000
,  // measure 101
0000
0000
0000
0000
,  // measure 102
0000
0000
0230
0000
,  // measure 103
0000
0000
0000
0000
,  // measure 104
0000
0000
0000
0000
0000
0000
0000
0000
0000
0000
0000
0000
0000
0300
0000
0000
0000
0000
0000
0000
0000
0000
0000
0000
;

//---------------dance-single - ----------------
#NOTEDATA:;
#CHARTNAME:C 05 X 08;
#STEPSTYPE:dance-single;
#DESCRIPTION:;
#CHARTSTYLE:;
#DIFFICULTY:Medium;
#METER:5;
#RADARVALUES:0.287621,0.436980,0.027866,0.397096,0.017417,289.000000,285.000000,4.000000,57.000000,0.000000,0.000000,0.000000,0.000000,0.000000,0.287621,0.436980,0.027866,0.397096,0.017417,289.000000,285.000000,4.000000,57.000000,0.000000,0.000000,0.000000,0.000000,0.000000;
#CREDIT:vincentw;
#DISPLAYBPM:116.000000:232.000000;
#NOTES:
// measure 0
0000
0000
0000
0000
,  // measure 1
0000
0000
0000
0000
,  // measure 2
0000
0000
0000
0000
,  // measure 3
0000
0000
0000
0000
,  // measure 4
0000
0000
0000
0000
,  // measure 5
0000
0000
0000
0000
1000
0100
0010
0002
,  // measure 6
0000
0000
0003
0000
1000
0010
0100
0002
,  // measure 7
0000
0000
0003
0000
0010
0100
1000
0002
,  // measure 8
0000
0000
0000
0000
0000
0000
0000
0000
1003
0000
0000
0000
0001
0000
0000
0010
,  // measure 9
0000
0100
2000
0100
0010
0100
0002
0000
,  // measure 10
0000
0000
3000
0103
,  // measure 11
0000
1001
0000
0001
,  // measure 12
0010
0100
0000
1000
,  // measure 13
0000
0110
0000
0001
,  // measure 14
1000
0010
0000
1000
,  // measure 15
0010
1000
0200
0000
,  // measure 16
0000
0310
0000
0001
,  // measure 17
0010
0001
0200
0002
,  // measure 18
0300
0003
0000
0001
,  // measure 19
0010
0100
0000
1000
,  // measure 20
0010
0100
0000
0001
,  // measure 21
1000
0001
0200
0000
,  // measure 22
0000
0301
0000
1000
,  // measure 23
0001
1000
0200
0000
,  // measure 24
0000
1300
0000
2000
,  // measure 25
0000
0000
0000
3000
,  // measure 26
0000
0001
0100
2000
,  // measure 27
0000
3200
0000
0302
,  // measure 28
0003
1000
0010
0100
,  // measure 29
0001
2000
0200
3000
,  // measure 30
0000
0300
0000
1000
,  // measure 31
0010
0100
0000
0001
,  // measure 32
0010
0001
0000
2000
,  // measure 33
0000
0002
0000
0000
0000
0000
3000
0000
,  // measure 34
0000
0003
0000
0010
,  // measure 35
0001
0100
0000
0010
,  // measure 36
1000
0100
0000
0020
,  // measure 37
0000
0200
0000
0000
0000
0000
0030
0000
,  // measure 38
0000
0310
0000
0001
,  // measure 39
0010
1000
0010
0001
,  // measure 40
0000
1000
0100
0002
,  // measure 41
0000
0203
0000
0000
2300
0000
0000
3020
,  // measure 42
0000
1000
0001
0100
,  // measure 43
1030
0000
0000
0001
0010
0100
1000
0000
,  // measure 44
0010
1000
0000
0100
0010
0000
0001
0000
,  // measure 45
0010
0001
0000
0100
0010
0000
1000
0010
,  // measure 46
1000
0000
0001
0010
0001
0000
0100
0000
,  // measure 47
0100
0010
0010
1000
,  // measure 48
0100
1000
0000
0010
0100
0000
0001
0000
,  // measure 49
0100
0001
0000
0010
0100
0000
1000
0100
,  // measure 50
1000
0000
0001
0100
0001
0000
0020
0000
,  // measure 51
0000
0000
0000
0000
0031
0000
0000
2000
,  // measure 52
0000
3020
1000
0000
,  // measure 53
1000
0000
1030
0001
,  // measure 54
1000
0200
0010
0000
,  // measure 55
0010
0000
0310
0001
,  // measure 56
0000
0002
0100
0000
,  // measure 57
0100
0000
0103
0020
,  // measure 58
0000
2030
0001
0000
,  // measure 59
3001
0200
0001
0001
,  // measure 60
0300
0001
0100
0010
,  // measure 61
1000
0001
0010
0100
,  // measure 62
1000
0200
0000
0000
,  // measure 63
1300
0001
0010
0001
,  // measure 64
1000
0020
0000
1030
,  // measure 65
0001
1000
0000
0100
,  // measure 66
0010
0200
0000
0000
,  // measure 67
0000
0000
0310
0000
0000
0010
0000
0000
,  // measure 68
0001
1000
0010
0001
,  // measure 69
0020
0000
2030
0000
,  // measure 70
3001
0010
0001
0100
,  // measure 71
0010
0100
0000
0001
,  // measure 72
1000
0200
0000
2300
,  // measure 73
0000
0000
3010
0000
0000
0010
0000
0000
,  // measure 74
0100
0001
1000
0010
,  // measure 75
0100
0000
0001
0000
0000
0001
0000
0000
,  // measure 76
1000
0100
1000
0001
,  // measure 77
0100
0000
0010
0000
0000
0010
0000
0000
,  // measure 78
1000
0002
0000
0000
,  // measure 79
0000
0013
0100
1000
,  // measure 80
0001
0100
0001
1000
,  // measure 81
0100
0000
1000
0000
0000
1000
0000
0000
,  // measure 82
0001
0100
0001
0010
,  // measure 83
0100
0000
1000
0000
0000
1000
0000
0000
,  // measure 84
0100
1000
0010
0001
,  // measure 85
0000
0001
0010
1000
,  // measure 86
0000
0001
0100
1000
,  // measure 87
0000
1000
0100
0001
,  // measure 88
0000
2000
0000
3100
,  // measure 89
2000
0000
3001
2000
,  // measure 90
0000
3002
0000
0013
,  // measure 91
0002
0000
1003
0001
,  // measure 92
0000
0200
0000
1300
,  // measure 93
0200
0000
0310
0100
,  // measure 94
0001
0200
0000
0000
,  // measure 95
0000
0301
0010
0100
,  // measure 96
1000
0000
0000
0000
0020
0000
0000
0000
0000
0000
1030
0000
0000
0020
0000
0000
,  // measure 97
0000
0000
0000
0130
0000
0000
0020
0000
0000
0000
0000
0000
0230
0000
0000
0000
,  // measure 98
0000
0000
0301
0000
0000
0200
0000
0000
0000
0000
0000
0310
0000
0000
0100
0000
,  // measure 99
0000
2002
0000
0000
,  // measure 100
0000
3003
0000
0000
,  // measure 101
0000
0000
0000
0000
,  // measure 102
0000
0000
0220
0000
,  // measure 103
0000
0000
0000
0000
,  // measure 104
0000
0000
0000
0000
0000
0000
0000
0000
0000
0000
0000
0000
0000
0330
0000
0000
0000
0000
0000
0000
0000
0000
0000
0000
;

//---------------dance-single - ----------------
#NOTEDATA:;
#CHARTNAME:;
#STEPSTYPE:dance-single;
#DESCRIPTION:;
#CHARTSTYLE:;
#DIFFICULTY:Hard;
#METER:8;
#RADARVALUES:0.432925,0.801130,0.062699,0.264731,0.083599,435.000000,426.000000,9.000000,38.000000,0.000000,0.000000,2.000000,0.000000,0.000000,0.432925,0.801130,0.062699,0.264731,0.083599,435.000000,426.000000,9.000000,38.000000,0.000000,0.000000,2.000000,0.000000,0.000000;
#CREDIT:;
#DISPLAYBPM:116.000000:232.000000;
#NOTES:
// measure 0
0000
0000
0000
0000
,  // measure 1
0000
0000
0000
0000
,  // measure 2
0000
0000
0000
0000
,  // measure 3
0000
0000
0000
0000
,  // measure 4
0000
0000
0000
1000
,  // measure 5
0100
0000
0010
0000
0001
0001
0100
0001
,  // measure 6
0000
2000
0000
3000
0001
0001
0010
0001
,  // measure 7
0000
2000
0000
3000
0001
0010
0001
0000
,  // measure 8
1000
0000
0020
0000
1000
0000
0000
0000
1030
0010
0100
0001
1000
0100
0001
1000
,  // measure 9
0010
0001
1000
0001
0200
0000
0000
0000
0000
0000
0000
0000
0001
0000
0000
0010
,  // measure 10
0000
0000
1000
0000
0000
0010
0000
0000
0001
0000
0301
0000
1001
0000
0000
0000
,  // measure 11
1000
0010
0100
0001
,  // measure 12
0010
0001
0100
0010
,  // measure 13
1000
0010
0100
0001
,  // measure 14
0000
0001
0000
0000
0001
0000
1000
0000
,  // measure 15
0010
1000
0100
0010
,  // measure 16
0000
0010
0000
0000
0010
0000
0001
0000
,  // measure 17
0010
0100
1000
0002
,  // measure 18
0100
2003
0100
3001
,  // measure 19
0100
0010
1000
0001
,  // measure 20
0010
1000
0001
0100
,  // measure 21
0010
0001
1000
0010
,  // measure 22
0100
0001
0000
1000
0010
0000
0001
0000
,  // measure 23
1000
0100
0010
1000
,  // measure 24
0001
0020
0000
0031
,  // measure 25
0001
0000
1000
0010
1000
0010
2000
0000
,  // measure 26
0000
3100
0010
0001
,  // measure 27
0100
0010
0100
1000
,  // measure 28
0100
0010
1000
0001
,  // measure 29
0010
0100
1000
0001
,  // measure 30
0100
0010
1000
0010
,  // measure 31
0100
0000
0001
0000
0010
0001
0000
0001
,  // measure 32
1000
0000
0100
0000
0010
0000
0004
4000
,  // measure 33
0000
0000
0000
0000
0000
3000
0003
0000
,  // measure 34
1000
0010
0100
0010
,  // measure 35
1000
0000
1000
0000
0001
0010
0000
0010
,  // measure 36
0100
1000
0001
0100
,  // measure 37
0010
0001
0010
0100
,  // measure 38
0001
1000
0000
1000
0001
0000
1000
0000
,  // measure 39
0100
0000
0010
0000
1000
0010
0000
0100
,  // measure 40
1000
0001
1000
0020
,  // measure 41
0000
0032
0000
0000
0203
0000
0000
2300
,  // measure 42
0000
0100
0001
0010
,  // measure 43
3001
0000
0000
0000
0000
0000
2000
3000
0200
0300
0020
0030
0100
0000
0100
0000
,  // measure 44
1000
0100
1000
0001
0100
0010
1000
1000
,  // measure 45
0001
0000
0000
1000
0000
0000
0100
0000
0000
0010
0000
0000
0001
0000
0001
0010
0000
0000
0001
0000
0000
0100
0000
0000
,  // measure 46
1000
0000
0100
0000
0001
0000
0010
0000
0100
0000
1000
0000
0001
0010
0001
0000
,  // measure 47
1000
0100
1000
0000
0001
0100
0001
0000
1000
0010
1000
0000
0001
0000
0001
0000
,  // measure 48
0010
0000
0000
0001
0000
0000
1000
0000
0000
0010
0000
0000
0100
0000
0100
0001
0000
0000
0010
0000
0000
0010
0000
0000
,  // measure 49
0100
0000
0010
0000
0001
0000
1000
0000
0010
0100
0000
0001
0000
0000
0010
0000
,  // measure 50
1000
0010
0001
0010
0100
1000
0200
0000
,  // measure 51
0000
0000
0000
0000
0000
0000
0000
0000
0000
0000
0000
0000
0000
0000
0000
0000
1300
0000
0000
0000
0000
0000
1000
0000
0000
0001
0000
0000
0000
0000
0000
0001
,  // measure 52
0000
0100
0000
0000
0001
0000
0000
0000
0100
0000
0000
0000
1000
0000
0000
0000
,  // measure 53
0100
0000
0001
0000
1000
0010
0000
0000
,  // measure 54
1010
0010
1000
0001
,  // measure 55
0100
0000
0010
1000
0100
0010
0100
1000
,  // measure 56
0010
1000
0100
0001
,  // measure 57
0100
0000
1000
0000
0001
0010
0000
0000
,  // measure 58
0011
0010
0001
1000
,  // measure 59
0100
0000
1000
0000
0001
0100
0000
0100
,  // measure 60
0001
1000
0010
0001
,  // measure 61
1000
0001
0010
1000
,  // measure 62
0001
0020
0000
0000
,  // measure 63
0031
1000
0100
0000
1000
0000
0001
0000
,  // measure 64
0100
0000
0020
0000
0000
0030
1000
0010
,  // measure 65
0100
0000
0001
0010
0100
0000
1000
0001
,  // measure 66
0100
0001
1000
0000
0002
0000
0000
0000
,  // measure 67
0000
0023
0000
0030
,  // measure 68
0000
0001
0010
0100
,  // measure 69
0010
0000
0001
0001
0000
0001
0000
1000
,  // measure 70
1000
0020
0230
0302
,  // measure 71
2003
3100
0000
0010
,  // measure 72
0001
1000
0100
0010
,  // measure 73
0100
0000
1000
0000
0001
0100
0000
0000
,  // measure 74
0101
0001
0010
1000
,  // measure 75
0010
0001
0100
1000
,  // measure 76
0100
0001
0001
0100
,  // measure 77
0010
0000
1000
0000
0001
0010
0000
0000
,  // measure 78
0011
0000
0002
0000
0000
2000
0000
0000
,  // measure 79
0003
0001
3001
1000
,  // measure 80
1000
0010
1000
0100
,  // measure 81
1000
0000
0001
0000
0100
0010
0000
0000
,  // measure 82
1010
1000
0100
0001
,  // measure 83
0100
0000
1000
0000
0010
0100
0000
0001
,  // measure 84
0010
0001
1000
0010
,  // measure 85
0001
0000
0010
0000
1000
0001
0000
0000
,  // measure 86
1100
0200
0000
0302
,  // measure 87
0000
0023
0000
2030
,  // measure 88
0000
3001
0010
1000
,  // measure 89
0001
0100
1000
0001
,  // measure 90
0000
1000
0010
0001
,  // measure 91
1000
0100
0001
1000
,  // measure 92
0000
0001
0010
0100
,  // measure 93
0001
0100
0010
0001
,  // measure 94
1000
0001
0100
0010
,  // measure 95
1000
0001
0010
0100
,  // measure 96
1000
0000
0000
0000
0002
0000
0000
0000
0000
0000
0010
0000
0000
2003
0000
0000
,  // measure 97
0000
0000
0000
0010
0000
0000
3001
0000
0000
0000
0000
0000
2000
0000
0000
0000
,  // measure 98
0000
0000
0100
0000
0000
3002
0000
0000
0000
0000
0000
0100
0000
0000
1003
0000
,  // measure 99
0000
0220
0000
0000
,  // measure 100
0000
0330
1000
1000
,  // measure 101
0100
0010
0100
0010
,  // measure 102
0001
0000
2002
0000
,  // measure 103
0000
0000
0000
0000
,  // measure 104
0000
0000
0000
0000
0000
0000
0000
0000
0000
0000
0000
0000
0000
3003
0000
0000
0000
0000
0000
0000
0000
0000
0000
0000
;
