#TITLE:LIBERTINE;
#SUBTITLE:;
#ARTIST:KATE RYAN;
#TITLETRANSLIT:;
#SUBTITLETRANSLIT:;
#ARTISTTRANSLIT:;
#GENRE:;
#CREDIT:;
#BANNER:[VIP Room Round 1] - LIBERTINE.png;
#BACKGROUND:[VIP Room Round 1] - LIBERTINE-bg.png;
#LYRICSPATH:;
#CDTITLE:cdtitle.png;
#MUSIC:[VIP Room Round 1] - LIBERTINE.ogg;
#OFFSET:-0.404000;
#SAMPLESTART:42.080353;
#SAMPLELENGTH:13.000000;
#SELECTABLE:YES;
#DISPLAYBPM:138.000000;
#BPMS:0.000000=138.046005
;
#STOPS:
;
#BGCHANGES:;
#KEYSOUNDS:;
#ATTACKS:;

//---------------dance-single - ----------------
#NOTES:
     dance-single:
     :
     Beginner:
     1:
     0.137905,0.188578,0.011225,0.000000,0.000000,86.000000,85.000000,1.000000,0.000000,0.000000,0.000000,0.137905,0.188578,0.011225,0.000000,0.000000,86.000000,85.000000,1.000000,0.000000,0.000000,0.000000:
0000
0000
0000
0000
,
0000
0000
0000
0000
,
0000
0000
0000
0000
,
0000
0000
0000
0000
,
0001
0000
0000
0000
,
0000
0000
0000
0000
,
1000
0000
0000
0000
,
0000
0000
0000
0000
,
0010
0010
0000
0000
,
1000
1000
0000
0000
,
0001
0001
0000
0000
,
0100
0100
0000
0000
,
0010
0010
0000
0000
,
0100
0100
0000
0000
,
0001
0001
0000
0000
,
1000
1000
0000
0000
,
0001
0000
0010
0000
,
0100
0100
0100
0000
,
1000
0000
0001
0000
,
1000
1000
1000
0000
,
0010
0000
0100
0000
,
0010
0010
0010
0000
,
1000
0000
0001
0000
,
1001
0000
0000
0000
,
0001
0001
0000
0000
,
1000
1000
0000
0000
,
0010
0000
0100
0000
,
0010
0000
0000
0000
,
0100
0100
0000
0000
,
0001
0001
0000
0000
,
1000
0000
0001
0000
,
1000
0000
0000
0000
,
0010
0000
0100
0000
,
0010
0010
0010
0000
,
1000
0000
0001
0000
,
1000
1000
1000
0000
,
0100
0000
0010
0000
,
0100
0100
0100
0000
,
0001
0000
1000
0000
,
0001
0001
0001
0000
,
1000
1000
0000
0000
,
0010
0010
0000
0000
,
0100
0000
0001
0000
,
0010
0000
0000
0000
,
0001
0001
0000
0000
,
0010
0010
0000
0000
,
0100
0000
1000
0000
,
0010
0000
0000
0000
,
0100
0000
0000
0000
;

//---------------dance-single - ----------------
#NOTES:
     dance-single:
     :
     Easy:
     4:
     0.277414,0.377155,0.448994,0.011225,0.000000,173.000000,133.000000,40.000000,1.000000,0.000000,0.000000,0.277414,0.377155,0.448994,0.011225,0.000000,173.000000,133.000000,40.000000,1.000000,0.000000,0.000000:
0000
0000
0000
0000
,
0000
0000
0000
0000
,
0000
0000
0000
0000
,
0000
0000
0000
0000
,
1000
0000
1000
0000
0000
0100
0000
0000
,
0010
0010
0000
0000
,
0001
0000
0001
0000
0000
0100
0000
0000
,
0010
0010
0000
0000
,
1001
0000
1001
0000
0000
0010
0000
0000
,
1001
1001
0000
0000
,
0110
0000
0110
0000
0000
0001
0000
0000
,
0110
0110
0000
0000
,
0101
0000
0101
0000
0000
1000
0000
0000
,
0101
0101
0000
0000
,
1010
0000
1010
0000
0000
0001
0000
0000
,
1010
1010
0000
0000
,
0001
0010
0100
1000
,
0100
0010
0001
0000
,
1000
1000
0010
0100
,
0001
0100
0010
0000
,
1000
0100
0010
0000
,
0001
0010
0100
0000
,
1000
1000
0010
0100
,
0002
0000
0000
0003
,
1001
1001
0001
0001
,
1001
1001
1000
1000
,
1001
1000
0010
0100
,
0001
0000
0000
0000
,
0110
0110
0010
0010
,
0110
0110
0100
0100
,
0110
0010
1000
0100
,
0010
0000
0000
0000
,
0001
0000
1000
0000
,
0010
0010
0010
0010
,
1000
0000
0001
0000
,
0010
0010
0010
0010
,
0001
0000
1000
0000
,
0100
0100
0100
0100
,
1000
0000
0001
0000
,
0010
0010
0010
0010
,
0011
0011
0100
1000
,
1010
1010
0100
0001
,
1001
0000
0100
0000
,
1001
1001
0010
0100
,
1100
1100
0010
0001
,
0101
0101
0010
1000
,
1100
0000
1001
0000
,
0101
0000
0010
0010
,
0010
0000
0000
0000
;

//---------------dance-single - ----------------
#NOTES:
     dance-single:
     :
     Medium:
     6:
     0.322314,0.350216,0.336746,0.078574,0.000000,201.000000,171.000000,30.000000,7.000000,0.000000,0.000000,0.322314,0.350216,0.336746,0.078574,0.000000,201.000000,171.000000,30.000000,7.000000,0.000000,0.000000:
0000
0000
0000
0000
,
0000
0000
0000
0000
,
0000
0000
0000
0000
,
0000
0000
0000
0000
,
1000
0000
1000
0000
0000
0002
0000
0000
,
0103
0100
0000
0000
,
0001
0000
0001
0000
0000
2000
0000
0000
,
3100
0100
0000
0000
,
0011
0000
0011
0000
0001
0100
0001
0000
,
1010
1010
0000
0000
,
1100
0000
1100
0000
1000
0010
1000
0000
,
0101
0101
0000
0000
,
1001
0000
1001
0000
0001
0100
0001
0000
,
0110
0110
0000
0000
,
0110
0000
0110
0000
0010
1000
0010
0000
,
1001
1001
0000
0000
,
0001
0010
0001
0000
1000
0000
1000
0000
,
0010
1000
0010
0000
0100
0000
0100
0000
,
0001
0000
0001
0000
0010
0100
1000
0000
,
0001
0010
0100
1000
0000
0000
0000
0000
,
0010
0100
0010
0000
1000
0000
1000
0000
,
0001
1000
0001
0000
0010
0000
0010
0000
,
0100
0000
0100
1000
0100
0010
0001
2000
,
0000
0000
0000
3000
,
1001
0000
1001
0000
0010
0100
0010
0000
,
1001
1001
0000
0000
,
0110
0000
0000
0000
0011
0000
0000
1001
,
0000
0000
0000
0000
,
0110
0000
0110
0000
1000
0001
1000
0000
,
0110
0110
0000
0000
,
1100
0000
0000
0000
0101
0000
0000
1001
,
0000
0000
0000
0000
,
2000
0010
3001
0000
,
0100
0010
0100
0000
0001
1000
0001
0000
,
0002
0010
1003
0000
,
1000
0010
1000
0000
0001
0010
0001
0000
,
2000
0100
3001
0000
,
0001
0010
0001
0000
1000
0100
1000
0000
,
0020
1000
0130
0000
,
0001
0100
0001
0000
1000
0010
1000
0000
,
0001
0010
0001
0000
1000
0100
1000
0000
,
0001
0000
0001
0000
1000
0001
1000
0000
,
0010
0000
0000
0000
1000
0100
1000
0000
,
0001
0000
0001
0000
1000
0001
1000
0000
,
0010
0000
0010
0000
1000
0100
1000
0000
,
0001
0000
0001
0000
0100
0001
0100
0000
,
0010
0000
0000
0000
1000
0001
1000
0000
,
0001
0000
0001
0000
1000
0100
1000
0100
,
1000
0000
0000
0000
;

//---------------dance-single - ----------------
#NOTES:
     dance-single:
     :
     Hard:
     7:
     0.420130,0.457974,0.651042,0.011225,0.000000,262.000000,204.000000,58.000000,1.000000,0.000000,0.000000,0.420130,0.457974,0.651042,0.011225,0.000000,262.000000,204.000000,58.000000,1.000000,0.000000,0.000000:
// measure 0
0000
0000
0000
0000
,  // measure 1
0000
0000
0000
0000
,  // measure 2
0000
0000
0000
0000
,  // measure 3
0000
0000
0000
0000
,  // measure 4
1100
0000
1100
0000
0000
0101
0000
0000
,  // measure 5
1001
1001
0000
0000
,  // measure 6
1001
0000
1001
0000
0000
0011
0000
0000
,  // measure 7
1010
1010
0000
0000
,  // measure 8
1001
0000
1001
0000
0001
0100
0010
0000
,  // measure 9
1010
1010
0100
0010
,  // measure 10
0011
0000
0011
0000
0100
1000
0001
0000
,  // measure 11
0101
0101
0010
1000
,  // measure 12
1100
0000
1100
0000
0010
0001
1000
0000
,  // measure 13
0110
0110
0001
1000
,  // measure 14
0110
0000
0110
0000
0010
1000
0001
0000
,  // measure 15
0011
0011
0100
1000
,  // measure 16
0001
0010
0100
1000
0000
1000
0100
0010
,  // measure 17
0001
0100
0010
1000
0000
0001
0000
0000
,  // measure 18
0100
0000
0100
0000
0001
0010
0100
1000
,  // measure 19
0010
0100
0001
0000
,  // measure 20
1000
0100
0010
0001
0000
0001
0010
0100
,  // measure 21
1000
0010
0100
0001
0000
1000
0000
0000
,  // measure 22
0001
0000
0010
0100
1000
0100
0010
0002
,  // measure 23
0000
0000
0000
0003
,  // measure 24
1100
0000
0101
0000
0010
1000
0001
0000
,  // measure 25
0011
0000
1010
0000
0100
0001
1000
0000
,  // measure 26
1100
0000
0010
0100
0001
0101
0000
0000
,  // measure 27
1001
1001
0000
0000
,  // measure 28
1100
0000
0011
0000
0100
1000
0001
0000
,  // measure 29
0101
0000
1010
0000
0100
0001
1000
0000
,  // measure 30
1100
0000
0010
0100
0001
0101
0000
0000
,  // measure 31
1001
0000
1001
0000
0000
0000
0000
0010
,  // measure 32
0100
0001
1000
0100
,  // measure 33
1000
0100
1000
0100
0010
0001
0010
0000
,  // measure 34
0001
0100
0010
1000
,  // measure 35
0001
1000
0001
1000
0010
0100
0010
0000
,  // measure 36
0100
0001
0010
0100
,  // measure 37
1000
0010
1000
0010
0100
0001
0100
0000
,  // measure 38
0001
0010
0100
1000
,  // measure 39
1000
0001
1000
0001
0100
0010
0100
0000
,  // measure 40
1001
0000
1001
0000
0010
0100
0010
0000
,  // measure 41
0110
0000
0110
0000
0001
0010
0100
1000
,  // measure 42
1001
0000
0000
0000
0000
0101
0000
0000
,  // measure 43
1001
0000
1001
0000
0010
1000
0100
0010
,  // measure 44
0011
0000
0011
0000
0100
1000
0100
0000
,  // measure 45
1001
0000
1001
0000
0010
1000
0001
0100
,  // measure 46
0110
0000
0000
0000
0000
0110
0000
0000
,  // measure 47
1001
0000
1001
0000
0001
0010
0100
1000
,  // measure 48
0001
0000
0000
0000
;
