#TITLE:Girl Front;
#SUBTITLE:;
#ARTIST:LOOΠΔ/ODD EYE CIRCLE;
#TITLETRANSLIT:;
#SUBTITLETRANSLIT:;
#ARTISTTRANSLIT:LOONA/ODD EYE CIRCLE;
#GENRE:;
#CREDIT:hooky;
#BANNER:[VIP Room Round 1] - Girl Front.png;
#BACKGROUND:[VIP Room Round 1] - Girl Front-bg.png;
#LYRICSPATH:;
#CDTITLE:;
#MUSIC:[VIP Room Round 1] - Girl Front.ogg;
#OFFSET:0.000000;
#SAMPLESTART:43.261002;
#SAMPLELENGTH:16.000000;
#SELECTABLE:YES;
#DISPLAYBPM:140.000000;
#BPMS:0.000000=140.000000
;
#STOPS:
;
#BGCHANGES:0.000=[VIP Room Round 1] - Girl Front.avi=1.000=0=0=0=StretchNoLoop====,
99999=-nosongbg-=1.000=0=0=0 // don't automatically add -songbackground-
;
#KEYSOUNDS:;
#ATTACKS:;

//---------------dance-single - ----------------
#NOTES:
     dance-single:
     :
     Medium:
     8:
     0.471347,0.590828,0.306924,0.187564,0.144936,387.000000,351.000000,36.000000,22.000000,0.000000,0.000000,0.471347,0.590828,0.306924,0.187564,0.144936,387.000000,351.000000,36.000000,22.000000,0.000000,0.000000:
0000
0000
0000
0000
,
0000
0000
0000
0000
,
0000
0000
0000
0000
,
0000
0000
0000
0000
,
0000
0000
0000
0000
,
0000
0000
0000
0000
,
1000
0010
0010
1000
0010
0010
0000
0000
,
1000
0001
0001
1000
0001
0001
0000
0001
,
0010
0100
0100
0010
0100
0100
0000
0000
,
1000
0000
0000
0001
0000
0000
0100
0000
0001
0000
0001
0000
1001
0000
1001
0000
,
1010
0000
0000
0000
1100
0000
0000
0000
1000
0000
1000
0001
0000
0001
0100
0000
,
0010
0000
0100
0000
0001
0000
0010
0000
0001
0000
0001
0100
0000
0000
0010
0000
,
0100
0000
0000
0000
0100
0001
0100
0001
0010
0000
0001
1000
0000
0000
0010
0000
,
0000
0100
0001
0010
0001
1000
1000
0001
,
0100
0000
0000
0001
0100
0000
0000
0000
0001
0000
0001
1000
0000
1000
0001
0000
,
0100
0000
0010
0000
1000
0000
1000
0000
0001
0000
0000
0001
0000
0000
0100
0000
,
0001
0000
0000
0000
0010
0001
0010
0001
1000
0000
0001
1000
0000
0000
0001
0000
,
0000
1000
0001
0100
0001
0010
0100
1000
,
0002
0000
0000
0000
0203
0000
0000
0000
0320
0000
0000
0100
0030
0000
0100
0000
,
0001
0010
0100
1000
0001
0100
0110
0010
,
1000
0010
1000
0100
1000
1000
0001
0010
,
0001
0100
0001
1000
1000
1001
0101
0101
,
0200
0000
0310
1000
0200
0000
0310
0001
,
0100
0000
0100
0000
0001
0000
1000
0000
0001
0000
0001
0010
0000
0000
0001
0000
,
0001
0000
1000
0000
1010
0000
0010
0000
0100
0000
0100
0001
0000
0001
0010
0000
,
0001
0000
0000
1000
0000
0000
0010
0000
0100
0000
0010
0000
0110
0000
0110
0000
,
1001
0000
0010
1000
0100
0000
0010
1000
,
0100
0000
0010
1000
0100
1000
0001
0100
,
0001
0000
0000
0000
0010
0000
0001
0000
0100
0000
0000
0100
0000
0000
0200
0000
,
0000
0000
0300
0001
0001
1000
0002
0000
,
0103
0000
0000
0000
0010
0000
1000
0000
0100
0000
0000
0100
0000
0000
1000
0000
,
0000
0000
0000
0000
1000
0000
0001
0000
0100
0000
0000
0100
0000
0000
0001
0000
,
0000
0000
0000
0000
0010
0000
0001
0000
0100
0000
0000
0100
0000
0000
0010
0000
,
0000
0000
0100
0001
0010
0001
1000
0000
,
1001
0000
0000
0000
0001
0000
0001
0000
1000
0000
0000
1000
0000
0000
1010
0000
,
0000
0000
0010
0000
0100
0000
0001
0000
0010
0000
0000
0010
0000
0000
0011
0000
,
0001
0100
1000
0100
0001
0100
1000
0200
,
0000
0000
0300
0001
0010
0001
1000
0010
,
0200
0010
0001
1300
,
0020
1000
0001
0130
,
0002
0000
1000
0000
0010
0000
0103
0001
,
1000
0000
0001
0010
0001
0001
1001
0000
,
1010
1000
1010
1010
,
1100
1000
1100
1100
,
0011
0001
0011
0011
,
0101
0100
0101
0101
,
2002
0000
0000
0000
0003
0000
0000
0000
0010
0000
0000
0010
0000
0000
3020
0000
,
0000
0000
0000
0000
0000
0000
0000
0000
0100
0000
0000
0100
0000
0000
0230
0000
,
0000
0000
0000
0000
0000
0000
0000
0000
0001
0000
0000
0001
0000
0000
0002
0000
,
0000
0000
0303
1001
,
0110
0000
0100
0001
0010
0000
0100
0001
,
0010
0000
0100
0001
0010
0001
1000
0010
,
1000
0000
0000
0000
0100
0000
1000
0000
0010
0000
0000
0010
0000
0000
0020
0000
,
0000
0000
0030
1000
1000
0001
2000
0000
,
3010
0000
0000
0000
0100
0000
0001
0000
0010
0000
0000
0010
0000
0000
0001
0000
,
0000
0000
0000
0000
0001
0000
1000
0000
0010
0000
0000
0010
0000
0000
1000
0000
,
0000
0000
0000
0000
0100
0000
1000
0000
0010
0000
0000
0010
0000
0000
0100
0000
,
0000
0000
0010
1000
0100
1000
0001
0000
,
1001
0000
0000
0000
1000
0000
1000
0000
0001
0000
0000
0001
0000
0000
0101
0000
,
0000
0000
0100
0000
0010
0000
1000
0000
0100
0000
0000
0100
0000
0000
1100
0000
,
1000
0010
0001
0010
1000
0010
0001
0020
,
0000
0000
0030
1000
0100
1000
0001
0100
,
0020
0100
1000
0031
,
0200
0001
1000
0310
,
2000
0000
0001
0000
0100
0000
3010
1000
,
0001
0000
1000
0100
1000
1000
1001
0000
,
0110
0000
0000
0000
;

//---------------dance-single - ----------------
#NOTES:
     dance-single:
     :
     Hard:
     10:
     0.746604,0.937236,0.434809,0.025577,0.660738,613.000000,562.000000,51.000000,3.000000,0.000000,0.000000,0.746604,0.937236,0.434809,0.025577,0.660738,613.000000,562.000000,51.000000,3.000000,0.000000,0.000000:
0000
0000
0000
0000
,
0000
0000
0000
0000
,
0000
0000
0000
0000
,
0000
0000
0000
0000
,
0000
0000
0000
0000
,
0000
0000
0000
0000
,
1000
0001
0001
1000
0001
0001
0000
0000
,
0001
0001
0100
0001
0001
0100
0000
0100
,
0100
0010
0010
0100
0010
0010
0000
0000
,
0010
0000
0000
1000
0000
0000
0100
0000
0001
0000
0100
0000
1000
0000
1000
0000
,
1001
0000
0000
0000
0110
0000
0000
0000
0010
0000
0010
1000
0000
1000
0010
0000
,
0100
0000
0001
0010
0001
0000
0100
0000
0110
0000
0000
0110
0000
0000
1010
0000
,
0000
0000
0000
0000
1000
0001
1000
0010
0100
0000
0100
0010
0000
0000
0010
0000
,
0000
0000
0100
0001
0010
0000
0001
0000
1000
0000
0001
1000
0010
0000
0100
0000
,
0010
0000
0000
0000
0110
0000
0000
0000
0010
0000
0010
1000
0000
1000
0100
0000
,
1000
0000
1000
0000
1100
0000
0000
0000
1010
0000
0010
0100
0000
0000
0101
0000
,
0000
0000
0000
0000
0001
0100
0010
0100
0001
0000
0001
0010
0000
0000
0101
0000
,
0000
0000
0100
0001
0100
0000
0001
1000
0001
0000
1000
0010
1000
0000
0010
0000
,
0110
0000
0000
0100
0010
0000
0010
1000
0100
1000
0010
0100
0000
0100
0001
0000
,
0010
0000
0001
0010
0001
0000
0100
0000
0010
0000
1010
0000
0101
0000
0011
0000
,
0100
0000
0100
0000
0110
0000
0010
0000
1010
0000
0010
1000
0000
1000
0200
0000
,
0000
1000
1300
0001
1000
0011
1100
0110
,
1001
0000
0000
0001
1000
0000
0000
1000
0010
0000
0010
0100
0000
0000
0001
0000
,
0001
1000
0001
0100
0001
0011
0101
0100
,
1010
0000
0000
0000
0110
0000
0000
0000
0101
0000
0000
0100
0000
0000
1001
0000
,
0001
0000
0000
0100
0000
0000
0001
0000
0010
0000
0100
0000
1000
0000
1000
0000
,
1001
0000
0001
0100
0001
0000
0010
0001
0010
0000
0001
1000
0001
0000
1000
0010
,
1000
0000
0010
0100
0010
0000
0100
0001
0010
0001
0100
0001
0100
0000
0010
0000
,
0110
0000
0100
0001
0010
0000
0001
0100
0001
0000
0000
1000
0000
0000
0100
0000
,
0000
0000
1000
0000
1000
0000
0001
0100
0010
0000
0010
0000
0110
0000
0000
0000
,
1010
0000
0000
1000
0001
0000
1000
0010
0100
0000
0100
0001
0000
0000
0011
0000
,
0000
0000
0001
1000
0010
0000
0100
0000
0001
0000
0100
0010
0000
0000
1010
0000
,
0010
0000
0000
0000
0100
0001
0010
0001
1000
0000
1000
0001
0000
0000
0101
0000
,
0001
0100
0010
1000
0100
1000
0100
1000
0001
0100
0001
0010
0001
0100
0001
1000
,
0100
0000
0100
0000
1000
0000
0001
0100
0010
0000
0010
0100
0000
0100
0001
0000
,
0001
0010
0100
0000
1000
0000
0001
0100
0010
0000
0010
0100
0000
0100
0001
0000
,
1000
0010
1000
0010
0100
0010
1000
0001
0100
0001
0010
0001
0100
0001
0100
0000
,
0001
0000
1000
0001
0000
0001
0100
0010
1000
0001
0100
0001
0010
0000
0011
0000
,
1001
0000
0001
0000
1000
0000
0010
0100
0010
0000
1000
0000
0100
0000
0010
0000
,
0001
0000
0001
0000
0100
0000
0001
0010
0001
0000
0100
0000
0010
0000
1000
0000
,
0100
0000
0100
0000
1000
0000
0010
0100
0001
0000
0010
0000
0001
0000
1000
0000
,
0002
0000
0103
0010
1000
0001
1001
0000
,
0100
0100
0010
0100
0100
0010
0110
0000
,
1000
1000
0001
1000
1000
0001
0101
0000
,
0001
0001
0010
0001
0001
0010
0011
0000
,
0100
1000
0010
1000
1000
0010
1010
0000
,
0100
0000
0010
0100
0010
0000
1000
0000
1000
0000
0001
1000
0000
1000
0001
0000
,
0000
0001
0100
0000
0001
0000
0010
0001
0010
0000
0001
0100
0000
0001
0010
0000
,
0000
0001
1000
0000
0001
0000
0100
0010
1000
0000
1000
0001
0000
0001
0200
0000
,
0000
0001
0001
0310
,
1001
0000
0001
0100
0010
0000
0010
1000
0100
0000
0100
1000
0001
0000
0001
0100
,
0001
0000
0001
0100
0010
1000
0100
1000
0001
1000
0001
0100
0001
0000
0001
0000
,
0101
0000
0100
0010
1000
0000
0100
0000
1001
0000
0000
0101
0000
0000
0011
0000
,
0000
0000
0100
0000
0110
0000
0010
1000
0100
0000
1000
0000
0101
0000
0101
0000
,
0110
0000
0010
1000
0100
0000
1000
0001
0100
0000
0100
0001
0000
0001
0010
0000
,
0001
0000
1000
0010
0100
0000
0100
0000
0001
0000
0001
1000
0000
1000
0001
0000
,
0001
0000
0100
0010
1000
0000
1000
0100
0010
0000
0001
0010
0000
0010
0001
0000
,
0001
0100
1000
0100
0001
0010
1000
0010
,
0001
0000
0001
0000
0001
0000
0001
1000
0001
0000
0001
0100
0000
0000
0110
0000
,
0000
0000
0010
1000
0100
0000
0100
1000
0001
0000
0001
1000
0000
1000
0010
0000
,
0100
0010
1000
0100
1000
0010
0100
0001
0100
0001
0010
0001
1000
0000
0001
0000
,
0100
0001
0010
0000
0001
1000
0001
0000
0100
0010
1000
0000
0100
1000
0100
0000
,
1000
0100
1000
0100
1000
0100
1000
0100
0010
0001
0010
0001
0010
0001
0010
0001
,
0100
0001
0100
0001
0100
0001
0100
0001
1000
0010
1000
0010
1000
0010
1000
0010
,
0100
0010
0100
0001
0010
0001
1000
0001
1000
0001
0100
0001
0100
0000
0001
0000
,
0000
0000
0000
0000
0001
0100
0010
0000
1000
0000
0001
0000
0110
0000
0000
0000
,
1000
1000
0001
1000
1000
0001
0000
0000
;

//---------------dance-single - ----------------
#NOTES:
     dance-single:
     :
     Easy:
     4:
     0.305706,0.450155,0.298398,0.102308,0.000000,251.000000,216.000000,35.000000,12.000000,0.000000,0.000000,0.305706,0.450155,0.298398,0.102308,0.000000,251.000000,216.000000,35.000000,12.000000,0.000000,0.000000:
0000
0000
0000
0000
,
0000
0000
0000
0000
,
0000
0000
0000
0000
,
0000
0000
0000
0000
,
0000
0000
0000
0000
,
0000
0000
0000
0000
,
1000
1000
1000
0000
,
0001
0001
0001
0000
,
1000
0010
0010
0000
,
0200
0000
0010
0310
,
0110
1001
1000
0010
,
1000
0000
1000
0000
0100
0000
0010
0100
,
0000
0000
1000
0001
1000
0000
1000
0000
,
0010
0100
0001
0010
,
0001
0001
1000
1000
,
1010
0000
0100
0100
,
0100
0000
0001
0000
1000
0000
1000
0100
,
0000
1000
1000
1000
,
1000
0001
0101
0000
,
0001
0010
0011
0000
,
0010
0100
1100
0000
,
1000
0010
1010
0000
,
0020
0130
0200
0310
,
0010
1000
0100
0100
,
1000
0001
0100
0001
,
0202
0300
1000
1003
,
1010
0000
0000
1000
1100
0000
0000
0001
,
0011
0000
0100
0100
,
0110
0000
0010
1000
,
0100
0000
1000
1000
,
0001
0100
0001
0001
,
0101
0000
0100
0100
,
0110
0000
0010
0010
,
1010
0000
1000
0001
,
1001
0001
0100
0100
,
0010
1000
0100
1000
,
0001
1000
0001
2000
,
0000
0000
0001
3001
,
0002
0100
0010
1003
,
2000
0000
0100
0000
0010
0000
0001
3000
,
0020
0100
0001
1030
,
1000
0001
0010
0100
,
0110
0010
0110
0110
,
1010
0010
1010
1010
,
1100
0100
1100
1100
,
1010
0001
1010
1010
,
1001
0000
0000
0000
0001
0000
1000
0001
,
0000
0000
0000
0000
1000
0000
0010
0100
,
0000
0000
0000
0000
0010
0000
1000
0200
,
0000
0010
0010
0310
,
1001
0000
0000
0100
0010
0000
0000
0100
,
0010
0000
0010
1000
,
0100
0000
0000
1000
0001
0000
0001
0000
,
0002
0000
0000
0003
0100
0000
0100
0000
,
0010
1000
0100
0100
,
1100
1000
0010
0100
,
0101
0001
0010
0001
,
0011
0001
1000
0001
,
1001
0001
0100
0100
,
0010
1000
0100
0100
,
1000
0001
1000
0002
,
0000
0000
1000
1003
,
1000
0100
0010
0001
,
0001
0010
0100
1000
,
1000
0001
0100
0010
,
0000
0100
0100
0100
,
1001
0000
0000
0000
;

//---------------dance-single - ----------------
#NOTES:
     dance-single:
     :
     Beginner:
     2:
     0.174167,0.225077,0.093782,0.042628,0.000000,143.000000,132.000000,11.000000,5.000000,0.000000,0.000000,0.174167,0.225077,0.093782,0.042628,0.000000,143.000000,132.000000,11.000000,5.000000,0.000000,0.000000:
// measure 0
0000
0000
0000
0000
,  // measure 1
0000
0000
0000
0000
,  // measure 2
0000
0000
0000
0000
,  // measure 3
0000
0000
0000
0000
,  // measure 4
0000
0000
0000
0000
,  // measure 5
0000
0000
0000
0000
,  // measure 6
1000
0000
1000
0000
,  // measure 7
0001
0000
0001
0000
,  // measure 8
1000
0000
0001
0000
,  // measure 9
0200
0000
0000
0310
,  // measure 10
0010
1000
0100
0000
,  // measure 11
1000
1000
0001
0000
,  // measure 12
1000
0000
0000
0000
,  // measure 13
0001
0000
0100
0000
,  // measure 14
0010
0010
0100
0000
,  // measure 15
0100
0100
0010
0000
,  // measure 16
0010
0000
1000
0000
,  // measure 17
0100
0000
1000
0000
,  // measure 18
0001
0000
0001
0000
,  // measure 19
1000
0000
1000
0000
,  // measure 20
0010
0000
0100
0000
,  // measure 21
0001
0000
0001
0000
,  // measure 22
2000
0000
0100
0000
,  // measure 23
0010
0000
0001
3000
,  // measure 24
0002
0000
0100
0000
,  // measure 25
0013
0000
1000
0010
,  // measure 26
0110
0000
0010
0000
,  // measure 27
1000
0000
0100
0100
,  // measure 28
0100
0000
1000
0001
,  // measure 29
1000
0000
0010
0010
,  // measure 30
0100
0000
0100
0000
,  // measure 31
0001
0000
0001
0000
,  // measure 32
1000
0000
0010
0000
,  // measure 33
1000
0000
0100
0000
,  // measure 34
1001
0000
0001
0000
,  // measure 35
0100
0000
0010
0010
,  // measure 36
0010
0100
0010
0100
,  // measure 37
0000
0000
0100
0100
,  // measure 38
0001
0000
1000
0000
,  // measure 39
0001
0000
1000
0000
,  // measure 40
0001
0000
1000
0000
,  // measure 41
0000
0010
0010
0010
,  // measure 42
0110
0000
1000
0000
,  // measure 43
1100
0000
0001
0000
,  // measure 44
0011
0000
0001
0000
,  // measure 45
0101
0000
0001
0000
,  // measure 46
2002
0000
0000
0000
,  // measure 47
0000
0000
0000
0000
,  // measure 48
0000
0000
0000
0000
0000
0000
0000
3003
,  // measure 49
0000
0010
0010
0010
,  // measure 50
1001
0000
0010
0000
,  // measure 51
1000
0000
0100
0100
,  // measure 52
0100
0000
1000
0000
,  // measure 53
0001
0000
1000
0010
,  // measure 54
0100
0000
0100
0000
,  // measure 55
0001
0000
0001
0000
,  // measure 56
1000
0000
0001
0000
,  // measure 57
0100
0000
1100
0000
,  // measure 58
0110
0000
0001
0000
,  // measure 59
1000
0000
0100
0000
,  // measure 60
1000
1000
0001
0001
,  // measure 61
0000
0000
0100
0000
,  // measure 62
0010
0000
1000
0000
,  // measure 63
0100
0000
0010
0000
,  // measure 64
0001
0000
0100
0000
,  // measure 65
0000
0010
0100
0010
,  // measure 66
1001
0000
0000
0000
;
