#TITLE:GO CRY GO;
#SUBTITLE:;
#ARTIST:OxT;
#TITLETRANSLIT:;
#SUBTITLETRANSLIT:;
#ARTISTTRANSLIT:;
#GENRE:;
#CREDIT:;
#BANNER:GO CRY GO.png;
#BACKGROUND:GO CRY GO-bg.png;
#LYRICSPATH:;
#CDTITLE:;
#MUSIC:GO CRY GO.ogg;
#OFFSET:0.980000;
#SAMPLESTART:3.772000;
#SAMPLELENGTH:15.000000;
#SELECTABLE:YES;
#BPMS:0.000000=202.000000
,115.000000=101.000000
,140.000000=202.000000
;
#STOPS:16.000000=0.891000,
140.000000=0.111000,
140.375000=0.111000,
140.750000=0.074000,
233.000000=0.891000
;
#BGCHANGES:1.125=GO CRY GO.avi=1.000=0=0=0=StretchNoLoop====,
265.500=GO CRY GO-bg.png=1.000=1=0=1===CrossFade==,
99999=-nosongbg-=1.000=0=0=0 // don't automatically add -songbackground-
;
#KEYSOUNDS:;
#ATTACKS:;

//---------------dance-single - ----------------
#NOTES:
     dance-single:
     :
     Hard:
     9:
     0.705067,0.871255,0.493547,0.231022,0.183768,470.000000,423.000000,47.000000,22.000000,2.000000,0.000000,0.705067,0.871255,0.493547,0.231022,0.183768,470.000000,423.000000,47.000000,22.000000,2.000000,0.000000:
0000
0000
0000
0000
,
0000
0000
0000
0000
,
0000
0000
0000
0000
,
0000
0000
0000
0000
,
0000
0000
0001
0100
0001
0100
1000
0100
,
1000
0100
1000
0010
1000
0010
0001
0010
,
0001
0010
0001
1000
0001
1000
0001
0100
,
0001
0000
0100
0000
0010
0000
0100
0000
0010
0000
0100
0000
0010
0100
0001
0000
,
1000
0000
0100
0010
0000
0100
0001
0100
,
1000
0001
0010
0100
0000
0010
1000
0010
,
0100
1000
0110
1000
,
0110
0000
1000
0100
1000
0001
0010
0010
,
0100
0200
0000
0000
0300
0000
1200
0000
,
0010
0000
0001
0000
0310
0100
1000
0001
,
0000
0010
0000
1000
0010
0001
2000
0000
,
3020
0000
0032
0000
2003
0000
3100
1000
,
0100
0010
1000
0001
0010
0000
0021
0000
,
0100
0000
1030
0010
0100
1000
0001
0100
,
0000
0010
0000
0001
0000
0010
0200
0000
,
0301
0000
0000
0000
2000
0000
0000
0000
3100
0000
0000
0000
1000
0100
1000
0000
,
0100
1000
0100
0000
1000
0100
1000
0100
1000
0000
0000
0000
0001
0000
1000
0000
,
0100
1000
0001
0100
0010
0001
1000
0001
,
0010
0100
0001
1000
0100
0010
1000
0010
,
0100
0010
1000
0010
0100
0010
1000
0010
,
0100
1000
0001
0100
0001
0001
0100
010M
,
1000
0010
0100
0010
1000
0001
0010
001M
,
1000
0100
0010
0100
1000
0001
0100
0010
,
0001
1000
0100
0010
1000
0001
0010
0100
,
0010
1000
0010
0100
1000
0001
0200
0000
,
0310
0000
0000
0000
0200
0000
0000
0010
0000
0000
0301
0000
2000
0000
0000
0000
,
3100
0000
0000
0010
0000
0000
0100
0000
2000
0000
0000
0000
0000
0000
0000
0000
3001
0000
1000
0000
0010
0000
0010
0000
0200
0000
0000
0000
0000
0000
0000
0000
,
0310
0000
0000
0000
0100
0001
1000
0000
0100
0000
1000
0100
1100
0000
0000
0000
,
0101
0000
0000
0000
2100
0000
0100
0000
0001
0000
0001
0000
3010
0000
0100
0010
,
1000
0001
0010
0100
1100
0000
0001
0000
1100
0000
1000
0000
0002
0000
0000
0000
,
0000
0000
0000
0000
0103
0001
1000
0100
0010
0001
0100
0010
0100
0100
0001
1000
,
0100
0000
0000
0010
0000
0000
0100
0000
0110
0000
0000
0000
0000
0000
0000
0000
0011
0000
0000
0000
0000
0000
0000
0000
1001
0000
0000
0000
0000
0000
0000
0000
,
1010
0000
0000
0000
0000
0000
0000
0000
0110
0000
0000
0000
0000
0000
0110
0000
0000
0000
0000
1010
0000
0000
0000
0000
0010
0000
0000
0000
1000
0000
0000
0000
,
0001
1001
1100
0110
,
1100
0000
0000
0000
0100
0000
1000
0000
0001
0000
0010
0100
1000
0000
0001
0000
,
0100
0010
0110
0000
0110
0000
1010
0000
,
1010
1001
1001
1100
,
1100
0000
1000
0100
0010
0100
1000
0001
,
0100
0010
0001
0010
1000
0001
0010
0100
,
1000
0100
1200
0000
0310
0000
2100
0000
,
3001
0000
0100
0010
0000
0100
0002
0000
,
1003
0021
0130
0012
,
1003
0000
0001
0000
0100
0010
0000
0100
,
0000
0001
2000
0000
0010
0000
0001
0000
,
0100
3001
1000
0010
,
0100
0000
0001
0100
0001
0100
0001
1000
,
0001
1000
0100
1000
0100
1000
0100
0010
,
0100
1000
1100
0000
1001
0000
1000
1010
,
0000
0110
0000
1010
0000
1000
0001
0000
,
0100
0000
0110
0000
0101
0000
0001
1000
,
0000
1100
0000
1000
0001
0010
1000
0010
,
0100
1000
1100
0000
1100
0000
0001
0011
,
0000
0110
0000
0011
0000
0001
1000
0000
,
0000
0000
1000
0010
0001
0010
1000
0100
,
0010
0000
1001
0000
1000
0100
1000
0100
,
0001
0100
0001
0100
0001
0010
0001
0010
,
1000
0010
1000
0010
1000
0001
1000
0001
,
1000
0100
1000
0100
0010
0100
0010
0100
,
0010
0100
0010
0000
0010
0100
0010
0000
0100
0000
0010
0000
0001
0000
0010
0001
,
1000
0000
0010
0000
0100
0000
0001
0000
0100
0000
0010
0000
1000
0000
0010
1000
,
0001
0000
0100
0000
0010
0000
0100
0000
0001
0000
1000
0000
0100
0000
0010
0100
,
1000
0000
0001
0000
0010
0000
0100
0000
1000
0001
0010
0100
1000
0000
0001
0010
,
0100
1000
0001
0000
0011
0000
0010
0000
0000
0000
0000
0000
0000
0000
0000
0000
;

//---------------dance-single - ----------------
#NOTES:
     dance-single:
     :
     Medium:
     7:
     0.460544,0.627304,0.178517,0.483046,0.005251,307.000000,290.000000,17.000000,46.000000,0.000000,0.000000,0.460544,0.627304,0.178517,0.483046,0.005251,307.000000,290.000000,17.000000,46.000000,0.000000,0.000000:
0000
0000
0000
0000
,
0000
0000
0000
0000
,
0000
0000
0000
0000
,
0000
0000
0000
0000
,
0000
0002
0103
2000
,
3100
0020
0031
0020
,
1030
0002
0013
2000
,
3010
0200
0301
0200
,
1300
0000
0001
0000
0001
0000
0010
0001
,
0100
0000
0001
0000
0001
0000
0100
0001
,
0010
0100
0001
0100
,
0010
0000
0001
0000
1000
0000
0001
1000
,
0001
1000
0000
0000
0000
0000
2002
0000
,
0000
0000
3003
0000
0001
1000
0100
0000
,
0000
0010
0000
0100
1000
0000
0002
0000
,
0203
0320
0230
0301
,
0001
1000
0000
1000
0100
0000
0220
0000
,
0330
0000
0100
1000
0001
0000
0200
0000
,
0000
0310
0000
0100
0000
0100
0020
0000
,
2030
3200
0320
0032
,
1003
1001
0000
2000
,
0010
0000
3001
1000
0100
0010
0200
0000
,
1000
1300
0000
0100
1000
0001
0200
0000
,
0320
0000
0230
0000
0302
0000
1003
1000
,
0001
1000
0000
0000
0000
0000
0001
1000
,
0100
0020
0000
0000
0000
0000
0031
0010
,
0100
1000
0000
0100
1000
0100
1000
0001
,
0000
0001
1000
0010
0100
0010
0100
0001
,
1000
0100
0010
0100
1000
0001
0100
0000
,
0010
1000
0001
0010
,
0100
0010
0001
0000
1000
0000
0010
0000
,
0001
1000
0100
0110
,
1010
0000
1001
0001
0010
0100
0001
0100
,
0010
0001
0000
1000
0010
0100
2002
0000
,
0000
0000
3003
0000
1000
0000
0000
1000
0000
0000
1000
0000
0001
0000
0100
0000
,
0020
0130
0001
0100
,
0010
0000
0100
0000
0100
0010
1000
0000
,
0000
0100
0010
0100
,
1000
0000
0001
0000
0001
0100
0000
0010
,
0000
0200
0000
0000
0010
0000
0010
0000
,
0010
0301
0000
1000
,
1000
0200
1000
0010
,
0001
0320
0001
0130
,
1000
0001
0110
0001
,
0110
0001
0010
0100
,
0000
1000
0110
1000
,
0110
1000
0100
0010
,
0001
2000
0010
0010
,
0001
3001
0000
1000
,
0100
0020
0130
0020
,
1030
0000
0020
0000
0130
0000
0010
0100
,
1000
0001
1000
0000
0001
0000
0100
0010
,
0000
0001
0000
0010
0000
0100
0010
0000
,
0100
0000
0001
0000
1000
0000
0100
0010
,
0000
1100
0000
0001
0010
0100
1000
0001
,
1000
0000
0011
0000
0011
0000
0100
0010
,
0000
1000
0000
0010
0000
0100
0010
0000
,
0000
0000
0100
1000
0100
0010
0001
0100
,
0010
1001
2000
3100
,
0002
0103
0020
1030
,
0020
0031
2000
3010
,
0002
0013
0200
1300
,
1100
0000
1100
0000
0010
0100
0010
0100
,
0010
1000
0100
0000
1000
0100
1000
0100
,
1000
0100
0010
0000
0010
0100
0010
0100
,
0010
0001
0100
0000
1000
0100
0010
1000
,
0001
0010
0100
0100
0000
0000
0000
0000
;

//---------------dance-single - ----------------
#NOTES:
     dance-single:
     :
     Easy:
     4:
     0.304529,0.418202,0.126012,0.367535,0.000000,203.000000,191.000000,12.000000,35.000000,0.000000,0.000000,0.304529,0.418202,0.126012,0.367535,0.000000,203.000000,191.000000,12.000000,35.000000,0.000000,0.000000:
0000
0000
0000
0000
,
0000
0000
0000
0000
,
0000
0000
0000
0000
,
0000
0000
0000
0000
,
0000
2000
0000
3200
,
0000
0302
0000
0023
,
0000
2030
0000
3200
,
0000
0302
0000
0023
,
0000
1030
0000
0010
,
1000
0100
0000
0100
,
0010
0100
1000
0000
,
1000
0000
1000
1100
,
1100
0000
0000
2000
,
0000
0000
0001
3100
,
0000
0010
0000
0000
0010
0000
0100
0000
,
1000
0001
0100
1000
,
0100
0010
0000
2000
,
0000
3001
1000
0100
,
0000
0010
0000
0000
0100
0000
0010
0000
,
0001
0100
0010
1000
,
0001
0010
0000
0100
,
0100
0010
0010
0001
,
0001
1000
1000
0010
,
0100
0010
0100
0010
,
0100
0001
0001
1000
,
0100
0001
0000
0001
,
0100
1000
0100
0010
,
1000
0010
0100
1000
,
0001
0100
0010
0200
,
0000
0302
0000
0023
,
0000
0230
0000
0320
,
0000
0032
0000
2003
,
0001
3020
0100
1030
,
0100
0110
0011
2002
,
0000
3003
0001
0000
0100
0000
0010
0000
,
0020
0130
0010
0100
,
0010
0100
0100
0001
,
0000
1000
0001
1000
,
0001
1000
0100
0010
,
0001
2000
0000
0000
,
0000
3000
0000
0010
,
0010
2000
0000
0010
,
0000
3002
0000
1003
,
1000
0001
0010
1000
,
0010
0001
0010
0001
,
0000
1000
0100
0001
,
0100
1000
0100
1000
,
0001
0020
0000
0000
,
0000
0030
0000
0001
,
0010
0200
0000
2300
,
0000
3020
0000
0130
,
0100
0010
1100
0010
,
0101
0010
1100
0010
,
0000
0100
0011
0100
,
1010
0001
0000
0000
,
0000
0001
0001
0100
,
1010
0100
0011
0100
,
0000
1000
0100
0001
,
1000
0100
2000
0000
,
3200
0000
0302
0000
,
0023
0000
2030
0000
,
3200
0000
0302
0000
,
0013
0010
0100
0001
,
0010
0100
0001
1000
,
0010
0001
1000
0010
,
0100
1000
0001
0010
,
1000
0000
0001
0001
0000
0000
0000
0000
;

//---------------dance-single - ----------------
#NOTES:
     dance-single:
     :
     Beginner:
     3:
     0.181517,0.243951,0.010501,0.073507,0.000000,121.000000,120.000000,1.000000,7.000000,0.000000,0.000000,0.181517,0.243951,0.010501,0.073507,0.000000,121.000000,120.000000,1.000000,7.000000,0.000000,0.000000:
// measure 0
0000
0000
0000
0000
,  // measure 1
0000
0000
0000
0000
,  // measure 2
0000
0000
0000
0000
,  // measure 3
0000
0000
0000
0000
,  // measure 4
0000
1000
0000
1000
,  // measure 5
0000
0001
0000
0001
,  // measure 6
0000
1000
0000
1000
,  // measure 7
0000
0001
0000
0001
,  // measure 8
0000
0100
0000
0010
,  // measure 9
0000
0100
0000
0001
,  // measure 10
0000
1000
0000
0100
,  // measure 11
0000
0010
0000
0001
,  // measure 12
0000
0000
0000
0000
,  // measure 13
1000
0000
0001
0000
,  // measure 14
0100
0000
0010
0010
,  // measure 15
0000
0100
0000
0001
,  // measure 16
0000
0001
0000
0000
,  // measure 17
1000
0000
0100
0000
,  // measure 18
0010
0000
0100
0100
,  // measure 19
0000
0010
0000
0100
,  // measure 20
0000
0100
0000
0020
,  // measure 21
0000
0030
0000
0002
,  // measure 22
0000
0003
0000
1000
,  // measure 23
1000
1000
1000
0000
,  // measure 24
0000
0000
0000
0001
,  // measure 25
0000
1000
0000
1000
,  // measure 26
0000
0001
0000
0100
,  // measure 27
0000
0100
0000
1000
,  // measure 28
0000
0100
0000
0001
,  // measure 29
0000
0001
0000
1000
,  // measure 30
0000
0100
0000
0010
,  // measure 31
0000
0001
0000
1000
,  // measure 32
0000
0010
0000
0100
,  // measure 33
0000
0010
0000
2000
,  // measure 34
3000
0001
0000
1000
,  // measure 35
0000
0000
0100
0000
,  // measure 36
0100
0100
0000
0010
,  // measure 37
0000
0000
0100
0000
,  // measure 38
0100
0100
0000
1000
,  // measure 39
0000
0002
0000
0000
,  // measure 40
0000
0003
0000
0000
,  // measure 41
0000
2000
0000
3000
,  // measure 42
0000
0002
0000
0003
,  // measure 43
0000
0000
1000
0000
,  // measure 44
1000
1000
1000
1000
,  // measure 45
0000
0000
0001
0000
,  // measure 46
0001
0001
0000
0100
,  // measure 47
0000
0020
0000
0000
,  // measure 48
0000
0030
0000
0000
,  // measure 49
0000
0100
0000
0001
,  // measure 50
0000
0010
0000
0100
,  // measure 51
0000
0100
0100
0100
,  // measure 52
0000
1000
1000
1000
,  // measure 53
0000
0010
0010
0010
,  // measure 54
0000
0100
0000
0000
,  // measure 55
0000
0010
0010
0010
,  // measure 56
0000
0100
0100
0100
,  // measure 57
0000
0001
0000
0010
,  // measure 58
0000
1001
1000
0000
,  // measure 59
1000
0000
0001
0000
,  // measure 60
0001
0000
1000
0000
,  // measure 61
1000
0000
0001
0000
,  // measure 62
0001
0001
0001
0000
,  // measure 63
0100
0000
0010
0000
,  // measure 64
0100
0000
0001
0000
,  // measure 65
1000
0000
0100
0000
,  // measure 66
0000
0000
0000
1000
0000
0000
0000
0000
;
