#TITLE:Buckle Your Pants;
#SUBTITLE:;
#ARTIST:Stamper;
#TITLETRANSLIT:;
#SUBTITLETRANSLIT:;
#ARTISTTRANSLIT:;
#GENRE:Chiptune?;
#CREDIT:TiKAL;
#MUSIC:[You Won't See This In DDR VI] - Buckle Your Pants.ogg;
#BANNER:[You Won't See This In DDR VI] - Buckle Your Pants.png;
#BACKGROUND:[You Won't See This In DDR VI] - Buckle Your Pants-bg.png;
#CDTITLE:cdtitle.png;
#SAMPLESTART:17.487;
#SAMPLELENGTH:17.455;
#SELECTABLE:YES;
#OFFSET:-0.032;
#BPMS:0.000=110.000;
#STOPS:;
#BGCHANGES:;
#FGCHANGES:;

//--------------- dance-single - TiKAL ----------------
#NOTES:
     dance-single:
     TiKAL:
     Hard:
     7:
     0,0,0,0,0:
0000
0000
0000
0000
,
0000
0000
0000
0000
,
0000
0000
0000
0000
,
0000
0000
0000
0000
,
1000
0000
0000
0100
0000
0000
1000
0000
1000
0000
0000
0010
0000
0000
0000
0000
,
0100
0000
0000
0010
0000
0000
1000
0000
0001
0000
0000
0000
1001
0000
0000
0000
,
0001
0000
0001
0000
0010
0000
0010
0000
0001
0000
0000
0100
0000
0000
0000
0000
,
0001
0010
0100
1000
0001
0100
0010
1000
,
0001
0000
0000
0100
0000
0000
0001
0000
0001
0000
0000
0010
0000
0000
0000
0000
,
0000
1100
0000
0001
1000
0000
1001
0000
,
1000
0000
1000
0000
0010
0000
0010
0000
1000
0000
0000
0100
0000
0000
0000
0000
,
1000
0010
0100
0001
1000
0100
0010
0001
,
1000
0000
1010
0000
0100
0100
0100
0000
,
0001
0000
0011
0000
0100
0100
0100
0000
,
1000
0100
0001
0110
,
0001
1000
0010
0000
0100
0100
0100
0000
,
0010
0000
0101
0000
1000
0100
1000
0000
,
0010
0000
1100
0000
0001
0100
0001
0000
,
1000
0100
0001
0000
1000
0010
0001
0000
,
1000
0000
1000
0000
0000
0001
0001
0000
,
1000
0100
2000
0000
0020
0000
3000
0000
,
0130
0001
0200
0002
0000
0000
0300
0000
,
1003
0100
2000
0000
3200
0000
1300
0100
,
0020
0000
0032
0000
2003
0000
3010
0200
,
0002
0000
0300
0000
1003
0100
0020
0000
,
0200
0030
2300
3002
,
0103
0100
0020
0000
1030
0002
0000
0020
,
0003
0200
0030
2000
0300
0002
0000
3003
,
0001
0100
1000
0000
0001
0010
1000
0000
,
0001
0001
0010
0010
0100
1000
0001
0000
,
1000
0100
0001
0000
1000
0010
0001
0000
,
1000
1000
0010
0010
0100
0001
1000
0000
,
M001
0010
0M00
0100
00M0
1000
000M
0001
,
M000
0100
00M0
0010
0M00
1000
000M
0001
,
M000
01M0
000M
0M01
M000
1M00
000M
01M0
,
M000
1M00
000M
00M1
M000
0M10
000M
01M0
,
1000
0000
0000
0000
0002
0000
0000
2000
,
0000
0000
0000
0000
0000
0000
0000
0000
0000
0000
0000
0000
0000
0000
0000
0000
0000
0000
0000
0000
0000
0000
0000
0000
0000
0000
0000
0000
0000
0000
0000
0000
3003
0000
0000
0000
M000
00M0
0M00
000M
00M0
0M00
00M0
000M
M000
00M0
0M00
00M0
M000
000M
00M0
0M00
M000
000M
0M00
00M0
0M00
00M0
M000
000M
0000
0000
0000
0000
;

//--------------- dance-single - TiKAL ----------------
#NOTES:
     dance-single:
     TiKAL:
     Challenge:
     9:
     0,0,0,0,0:
0000
0000
0000
0000
,
0000
0000
0000
0000
,
0000
0000
0000
0000
,
0000
0000
0000
0000
,
0001
0100
0001
2000
0000
3000
0001
0100
0001
0100
0001
2000
0000
0000
3000
0000
,
0010
0100
0000
0001
1000
0000
0100
0000
0110
0000
0000
0000
1001
0000
0000
0000
,
1000
0000
1000
0000
0100
0000
0100
0000
0010
0001
1000
0002
0000
0000
0003
0000
,
0100
0010
0100
0010
1000
0001
1000
0001
0010
0100
1000
0001
1000
0010
0000
0010
,
1000
0001
1000
0200
0000
0300
1000
0001
1000
0001
1000
0200
0000
0000
0300
0000
,
0000
0000
0110
0000
0000
0001
1000
0000
1001
0000
0000
0000
0110
0000
0000
0000
,
0001
0000
0001
0000
0100
0000
0100
0000
0010
1000
0001
2000
0000
0000
3000
0000
,
0100
0010
0100
0010
0001
1000
0001
1000
0010
0100
0001
1000
0001
0010
0000
0010
,
0001
0000
1000
0000
2200
0000
3300
0000
1000
0100
0010
0200
0000
0000
0300
0000
,
1000
0001
1000
0000
0202
0000
0303
0000
0001
0100
0010
0200
0000
0000
0300
0000
,
0001
0000
0001
1000
0000
1000
0001
0000
0100
0000
0010
0000
0110
0000
0000
0000
,
1000
0001
0010
0200
0000
0300
1000
0100
0010
0000
0010
0000
0001
1000
0000
1000
,
0001
0000
0100
0000
0110
0000
0000
0000
0010
1000
0001
2000
0000
0000
3000
0000
,
0000
0000
0000
0000
0000
0000
0000
0000
0000
0000
0000
0000
0000
0000
0000
0000
0000
0000
0000
0000
0000
0000
0000
0000
0100
0000
0000
0000
0000
0000
0000
0000
0000
0000
0000
0000
0000
0000
0000
0000
0000
0000
0000
0000
0000
0000
0000
0000
0110
0000
0000
0000
0000
0000
0000
0000
0000
0000
0000
0000
0000
0000
0000
0000
0000
0000
0000
0000
0000
0000
0000
0000
0000
0000
0000
0000
0000
0000
0000
0000
0000
0000
0000
0000
0000
0000
0000
0000
0000
0000
0000
0000
0000
0000
0000
0000
0010
0000
0000
0000
0000
0000
0000
0000
0000
0000
0000
0000
0001
0000
0000
0000
0000
0000
0000
0000
0000
0000
0000
0000
1000
0000
0000
0000
0000
0000
0000
0000
0000
0000
0000
0000
0002
0000
0000
0000
0000
0000
0000
0000
0000
0000
0000
0000
0000
0000
0000
0000
0000
0000
0000
0000
0000
0000
0000
0000
0000
0000
0000
0000
0000
0000
0000
0003
0000
0000
0000
0000
0000
0000
0000
0000
0000
0000
0000
0000
0000
0000
0000
0000
0000
0000
0000
0000
0000
0000
0000
0000
0000
0000
0000
0000
,
1000
0000
1000
0020
0000
0000
0130
0000
0001
1000
0100
0020
0000
0000
0030
0001
,
0010
0000
0000
0000
0100
0000
0000
0000
1000
0000
0000
0000
0000
0000
0000
0000
1000
0000
0000
0000
0000
0000
0000
0000
0001
0000
0000
0000
0000
0000
0000
0000
MMMM
0000
0000
0000
0000
0000
0000
0000
0100
0000
0000
0000
0000
0000
0000
0000
0100
0000
0000
0000
0000
0000
0000
0000
MM00
00M0
000M
M000
00MM
M000
0M00
000M
,
1000
0100
0010
0100
0010
0001
1000
0001
0100
0000
0010
0000
0100
0001
0100
0001
,
1000
0100
0010
0100
1000
0001
0100
0010
1000
0000
0001
0000
0010
0001
0010
0100
,
1000
0001
0100
0010
0100
0001
1000
0100
0010
0000
0001
0000
1000
0100
0010
0100
,
1000
0001
0100
0010
1000
0001
0010
0001
1000
0010
1000
0001
1000
0100
M00M
0100
,
0001
0100
0010
0100
0010
1000
0001
1000
0100
0000
0010
0000
0100
1000
0100
1000
,
0001
0100
0010
0100
0001
1000
0100
0010
0001
0000
1000
0000
0010
1000
0010
0100
,
0001
1000
0100
0010
0100
1000
0001
0100
0010
0000
1000
0000
0001
0100
0010
0100
,
0001
1000
0100
0010
0001
1000
0010
1000
0001
0010
0001
1000
0001
0100
M00M
0100
,
1000
0000
0100
0010
0000
0002
0000
0000
0000
1003
0000
1000
0001
0000
0100
0010
0000
2000
0000
0000
0000
3001
0000
1000
,
1100
0000
0000
0101
0000
0000
0011
0000
0000
1010
0000
0000
1000
0000
0010
0100
0000
0020
0000
0000
0000
1030
0000
0000
,
0001
0000
0010
0100
0000
2000
0000
0000
0000
3001
0000
0001
1000
0000
0010
0100
0000
0002
0000
0000
0000
1003
0000
0001
,
0011
0000
0000
0000
0000
0000
1010
0000
0000
0000
0000
0000
1100
0000
0000
0000
0000
0000
0101
0000
0000
0000
0000
0000
0001
0000
0000
0000
0100
0000
0010
0000
0000
0000
0100
0000
0001
0000
0000
1000
0000
0000
0001
0000
0000
1000
0000
0000
,
0001
0000
0100
M010
0000
2000
0000
0000
0000
3M01
0000
0001
1000
0000
0100
001M
0000
0002
0000
0000
0000
10M3
0000
0001
,
0101
0000
0000
110M
0000
0000
1010
0000
0000
0M11
0000
0000
0001
0000
0010
M100
0000
0020
0000
0000
0000
0M31
0000
0000
,
1000
0000
0000
0000
0000
0000
0000
0000
0010
000M
0000
0000
0100
0000
0000
0000
0000
0000
M000
0000
0002
0000
0000
0000
0000
0000
0000
0000
0000
0000
0M00
0000
0000
0000
0000
0000
1003
0000
0000
0000
0000
0000
00M0
0000
1000
0000
0000
0000
0M01
0000
0000
0000
0000
0000
0000
0000
0010
0000
0000
0000
M100
0000
0000
0000
0000
0000
000M
0000
2000
0000
0000
0000
00M0
0000
0000
0000
0000
0000
0M00
0000
0000
0000
0000
0000
3001
0000
0000
0000
0000
0000
0M00
0000
1000
0000
0000
0000
,
1010
0000
0000
0000
0M11
0000
M000
0000
0101
0000
00M0
0000
110M
0000
00M0
0000
1000
0000
0100
0000
0010
M000
0001
0000
1000
0000
0010
000M
0100
0000
0001
0000
,
1000
0000
0000
00M0
0M00
0M00
0M00
0M00
0M00
0M00
00M0
000M
0M00
M000
0000
0000
0000
0000
0000
0000
0000
0000
M000
0M00
00M2
0M00
M000
0000
0000
0000
0000
0000
0000
0000
0000
0000
0000
0000
0000
0000
0000
0000
2000
0000
0000
0000
0000
0000
,
0000
0000
0000
0000
0000
0000
0000
0000
0000
0000
0000
0000
0000
0000
0000
0000
0000
0000
0000
0000
0000
0000
0000
0000
0000
0000
0000
0000
0000
0000
0000
0000
3003
0000
0000
0000
M000
00M0
0M00
000M
00M0
0M00
00M0
000M
M000
00M0
0M00
00M0
M000
000M
00M0
0M00
M000
000M
0M00
00M0
0M00
00M0
M000
000M
0M00
0000
0000
0000
;

//--------------- dance-single - TiKAL ----------------
#NOTES:
     dance-single:
     TiKAL:
     Edit:
     9:
     0,0,0,0,0:
0000
0000
0000
0000
,
0000
0000
0000
0000
,
0000
0000
0000
0000
,
0000
0000
0000
0000
,
1000
0000
1000
0001
0010
0000
0100
0000
0010
0000
0100
1000
0001
0100
0010
1000
,
0002
0000
0003
0020
0000
0030
2000
0000
3002
0000
0003
0200
0000
0300
2000
0000
,
3001
0000
0001
0000
0100
0000
0100
0000
0001
0000
1000
0001
0000
0000
1000
0100
,
0010
0100
0000
1000
0000
0000
0001
0100
0010
0000
1000
0000
0001
0000
0010
0000
,
0001
0000
0001
1000
0010
0000
0100
0000
0010
0000
0100
0001
1000
0100
0010
0001
,
2000
0000
3000
0020
0000
0030
0002
0000
2003
0000
3000
0200
0000
0300
0002
0000
,
1003
0000
1000
0000
0100
0000
0100
0000
1000
0000
0001
1000
0000
0000
0001
0100
,
0010
0100
0000
0001
0000
0000
1000
0100
0010
0001
0000
1000
0000
0000
0010
0000
,
1000
0000
0010
0000
1000
0000
0002
0000
0000
0000
0003
0000
1000
0000
0010
0000
1000
0000
0001
0000
1000
0000
0001
0000
1000
0000
0001
0000
1000
0100
0010
0001
,
2000
0000
0000
0000
3010
0000
0100
0000
0010
0000
1000
0000
0000
0000
0001
0000
1000
0000
0100
0000
0010
0000
0002
0000
0000
0000
0003
0000
0001
0010
0100
1000
,
0002
0000
2003
0000
3001
0100
0001
0100
0010
0100
0010
0100
0010
1000
0001
0010
,
0100
1000
0000
1000
0000
0000
0001
0000
0100
0000
0010
1000
0001
0000
0010
0000
,
0001
0000
0010
0000
0001
0000
2000
0000
0000
0000
3000
0000
0001
0000
0010
0000
0001
0000
1000
0000
0001
0000
1000
0000
0001
0000
1000
0000
0001
0100
0010
1000
,
0002
0000
0000
0000
0013
0100
0010
0100
0010
0000
0001
0000
0000
0000
1000
0000
0001
0000
0100
0000
0010
0000
2000
0000
0000
0000
3000
0000
1000
0010
0100
0001
,
2000
0000
3002
0000
1003
0100
1000
0100
0010
0100
0010
0100
0020
0000
0032
0000
,
1003
0000
0000
0010
0000
0000
0001
0000
1000
0000
0100
0000
0001
0000
1000
0000
,
0001
0001
0001
0001
0001
0001
0001
0001
,
0000
0010
0010
0010
0010
0010
0010
0010
,
0000
0100
0100
0100
0100
0100
1000
0100
,
0010
0010
0010
0010
0010
0001
0100
0001
,
1000
1000
1000
1000
1000
1000
1000
1000
,
0010
0010
0010
0010
0010
0010
0010
0010
,
0000
0100
0100
0100
0100
0100
0001
0100
,
0001
0010
0010
0010
0010
0010
0010
0000
,
0001
0000
0010
0001
0000
0000
1000
0000
0010
0000
0010
0000
0100
0000
0000
0100
,
0001
0000
0000
0011
0000
0000
1001
0000
0000
1010
0000
0000
1000
0000
0100
0010
0000
0200
0000
0000
0000
0300
0000
0000
,
1000
0000
0010
1000
0000
0000
0001
0000
0010
0000
0010
0000
0100
0000
0000
0100
,
1000
0000
1010
0000
1001
0000
0011
0000
0001
0000
0001
0000
0001
1000
0100
1000
,
00M1
0000
M010
0001
0M00
0000
00M0
0100
001M
0000
M010
0000
010M
0000
00M0
0001
,
1M00
0000
0000
11M0
0000
0000
1M01
0000
0000
01M1
0000
0000
0M01
0000
1000
00M0
0000
0000
0M01
0000
0000
M000
0000
0000
,
1M00
0010
010M
1000
00M0
0100
M001
1000
00M0
0000
000M
0000
M100
0010
0M00
0000
,
00M0
0000
0000
0000
0000
0000
000M
0000
0000
0000
0001
0000
M000
0000
0000
0000
0010
0000
010M
0000
0000
0000
0001
0000
M000
0000
0000
0000
0000
0000
000M
0000
0000
0100
0000
0000
10M0
0000
0000
0001
0000
0000
0M00
0000
0000
0000
0000
0000
,
0100
0000
0000
0000
0020
0000
0000
0200
,
0000
0000
0000
0000
0000
0000
0000
0000
0000
0000
0000
0000
0000
0000
0000
0000
0000
0000
0000
0000
0000
0000
0000
0000
0000
0000
0000
0000
0000
0000
0000
0000
0330
0000
0000
0000
M000
00M0
0M00
000M
00M0
0M00
00M0
000M
M000
00M0
0M00
00M0
M000
000M
00M0
0M00
M000
000M
0M00
00M0
0M00
00M0
M000
000M
0000
0000
0000
0000
;
