#TITLE:Battleground;
#SUBTITLE:;
#ARTIST:kors k;
#TITLETRANSLIT:;
#SUBTITLETRANSLIT:;
#ARTISTTRANSLIT:;
#GENRE:;
#CREDIT:;
#BANNER:[VIP Room Round 1] - Battleground.png;
#BACKGROUND:[VIP Room Round 1] - Battleground-bg.png;
#LYRICSPATH:;
#CDTITLE:;
#MUSIC:[VIP Room Round 1] - Battleground.ogg;
#OFFSET:-0.148000;
#SAMPLESTART:46.693455;
#SAMPLELENGTH:10.181816;
#SELECTABLE:YES;
#BPMS:0.000000=165.000000
;
#STOPS:220.000000=1.091000
;
#BGCHANGES:;
#KEYSOUNDS:;
#ATTACKS:;

//---------------dance-single - ----------------
#NOTES:
     dance-single:
     :
     Hard:
     9:
     0.603190,0.883850,0.330373,0.088637,0.435126,524.000000,483.000000,41.000000,11.000000,0.000000,0.000000,0.603190,0.883850,0.330373,0.088637,0.435126,524.000000,483.000000,41.000000,11.000000,0.000000,0.000000:
// measure 0
0000
0000
0000
0000
,  // measure 1
0000
0000
0000
0000
,  // measure 2
0000
0000
0000
0000
,  // measure 3
0000
0000
0000
0000
,  // measure 4
1001
0001
0020
0100
,  // measure 5
0130
1000
0100
0100
1000
0000
0001
0000
,  // measure 6
1001
1000
0001
0010
,  // measure 7
1001
1001
1001
0000
,  // measure 8
0011
0000
0000
0000
0001
0000
0000
0000
1000
0000
0000
1000
0000
0000
0100
0000
,  // measure 9
0000
0000
1000
0000
0000
1000
0000
0000
0001
0000
0000
0100
0000
0000
0010
0000
,  // measure 10
0100
0000
0000
0000
0001
0000
0000
0000
0010
0000
0000
0010
0000
0000
0001
0000
,  // measure 11
0000
0000
0100
0000
0000
0100
0000
0000
0010
0000
0000
0100
0000
0000
0001
0000
,  // measure 12
1000
0000
0000
0000
0100
0000
0000
0000
0010
0000
0000
0010
0000
0000
0100
0000
,  // measure 13
0000
0000
0010
0000
0000
0010
0000
0000
0001
0000
0000
0100
0000
0000
0001
0000
,  // measure 14
1000
0000
0000
0000
0100
0000
0000
0000
1000
0000
0000
1000
0000
0000
0100
0000
,  // measure 15
0000
0000
0010
0000
0000
0010
0000
0000
0100
0000
0000
1000
0000
0000
0001
0000
,  // measure 16
1001
0001
0100
0000
,  // measure 17
1001
1000
0100
0000
,  // measure 18
1001
0001
0010
0000
,  // measure 19
1001
1000
0010
0000
,  // measure 20
1001
0010
1001
0010
,  // measure 21
1001
0100
1001
0100
,  // measure 22
1001
0001
1000
0001
1000
0001
1000
0001
,  // measure 23
0100
0100
0100
0010
,  // measure 24
1001
0000
0000
0000
0011
0000
0000
0000
0010
0000
0000
0100
0000
0000
1100
0000
,  // measure 25
0000
0000
0100
0000
0000
0001
0000
0000
0100
0000
0000
1000
0000
0000
0010
0000
,  // measure 26
1010
0000
0000
0000
0110
0000
0000
0000
0100
0000
0000
0001
0000
0000
0011
0000
,  // measure 27
0000
0000
0010
0000
0000
0001
0000
0000
0010
0000
0000
1000
0000
0000
0010
0000
,  // measure 28
0110
0000
0000
0000
0011
0000
0000
0000
0001
0000
0000
1000
0000
0000
1010
0000
,  // measure 29
0000
0000
1000
0000
0000
0010
0000
0000
0001
0000
0000
0010
0000
0000
0100
0000
,  // measure 30
0001
0000
1000
0000
0010
0000
0000
0100
0000
0010
1000
0000
0100
0000
0000
0000
,  // measure 31
0010
0000
0001
0000
0100
0000
0000
0010
0000
0100
0001
0000
1000
0000
0000
0000
,  // measure 32
1001
0000
0000
0000
0011
0000
0000
0000
0001
0000
0000
0100
0000
0000
0010
1000
,  // measure 33
0000
0000
0100
0000
0000
0010
0000
0000
0001
0000
0100
0010
0000
0010
0100
0000
,  // measure 34
0101
0000
0000
0000
0011
0000
0000
0000
0001
0000
0000
0010
0000
0000
0100
0010
,  // measure 35
0000
0000
0100
0000
0000
0010
0000
0000
0001
0000
1000
0001
0000
0001
1000
0000
,  // measure 36
1010
0000
0000
0000
1100
0000
0000
0000
0100
0000
0000
0010
0000
0000
0001
1000
,  // measure 37
0000
0000
0001
0000
0000
0100
0000
0000
1000
0000
0100
0010
0000
0010
1000
0000
,  // measure 38
0001
0000
0010
0000
0100
0000
0000
1000
0000
0100
0010
0000
0001
0000
0000
0000
,  // measure 39
0200
0000
0000
0000
,  // measure 40
0310
0000
1000
0000
0100
0000
0010
0001
,  // measure 41
1000
0000
0010
0000
0100
0000
0010
0100
,  // measure 42
0001
0000
1000
0000
0010
0000
0100
0010
,  // measure 43
1000
0000
0100
0000
0010
0000
0100
0010
,  // measure 44
1001
0000
0001
0000
0100
0000
0001
0100
,  // measure 45
0010
0000
1000
0000
0001
0000
0010
0100
,  // measure 46
1000
0000
0100
0000
0010
0000
0100
1000
,  // measure 47
0010
0000
0100
0010
0110
0000
1001
0000
,  // measure 48
0102
0013
0100
1000
,  // measure 49
0010
0100
0001
1000
,  // measure 50
1200
0310
0100
1000
,  // measure 51
0010
0100
0001
1000
,  // measure 52
0001
0000
1000
0100
1000
0000
0100
0010
0100
0000
0010
0001
0010
0000
0001
0100
,  // measure 53
0001
0000
0100
0010
0100
0000
0010
1000
0010
0000
1000
0100
1000
0000
0100
0010
,  // measure 54
0100
0000
0010
0001
0010
0000
0001
0100
0001
0000
0100
0010
0100
0000
0010
1000
,  // measure 55
0000
0000
0001
1000
0010
1000
0001
0100
,  // measure 56
0010
1000
0001
1000
0010
1000
0001
0100
,  // measure 57
0010
1000
0001
1000
0100
1000
0001
0100
,  // measure 58
0010
0000
1000
0000
0001
0000
1000
0000
0100
0000
1000
0000
0001
0000
1000
0001
,  // measure 59
1000
0000
0001
1000
0001
0000
0010
0000
1000
0000
0010
0000
0001
0000
0100
0000
,  // measure 60
0010
1000
0001
0100
1000
0100
0001
0100
,  // measure 61
0010
1000
0002
0000
0013
1000
0010
0100
,  // measure 62
0010
0001
0100
1000
0100
0010
0110
0110
,  // measure 63
0110
0000
0000
0000
1000
0000
0000
0000
0010
0000
0000
0000
1000
0010
0100
0001
,  // measure 64
0000
0010
0100
0000
0010
0000
0000
0000
0001
0000
0000
0000
1000
0001
0100
0010
,  // measure 65
0000
1000
0100
0000
0010
0000
0000
0000
0100
0000
0000
0000
1000
0001
0100
0010
,  // measure 66
0000
0100
0001
0000
0010
0000
0000
0000
0001
0000
0000
0000
0010
0001
1000
0100
,  // measure 67
0000
1000
0010
0000
0100
0000
0000
0000
0001
0000
0000
0000
0010
0001
0100
0010
,  // measure 68
0000
1000
0100
0000
1000
0000
0000
0000
0010
0000
0000
0000
0100
0010
1000
0100
,  // measure 69
0000
0010
0100
0000
0010
0001
0100
0010
0000
0100
0000
0010
1000
0000
0000
0001
,  // measure 70
0000
0010
0200
0000
0320
0000
0002
0000
,  // measure 71
0033
0000
0000
0000
2100
0000
0000
0000
3010
0100
0010
0100
0001
1000
0010
0100
,  // measure 72
0001
1000
0001
0000
0010
0000
4000
3000
0010
0000
0100
0000
0010
0001
0100
0010
,  // measure 73
0100
0001
1000
0100
0010
0000
0100
0010
0001
1000
0000
0010
0100
0000
0010
1000
,  // measure 74
0000
0001
0010
0000
0400
0300
0010
0001
0000
0000
1000
0000
0010
0000
0000
0100
,  // measure 75
0000
0000
0001
0000
1000
0000
0000
0000
0010
0000
0100
0010
1000
0001
0010
0001
,  // measure 76
1000
0010
0100
0001
0010
0000
0010
0000
0001
0000
0001
0000
0100
0000
0100
0000
,  // measure 77
0010
0000
0010
0000
1000
0000
0000
0000
0001
0100
0010
1000
0001
0010
0100
0010
,  // measure 78
0001
0100
0010
1000
0001
0000
0100
0000
1000
0000
0100
0000
0010
0000
1000
0010
,  // measure 79
0100
0001
0010
0000
0220
0000
0000
0000
0000
0000
0000
0000
0000
0000
0000
0000
,  // measure 80
0000
0000
0000
0000
,  // measure 81
0330
1001
0000
0000
;

//---------------dance-single - ----------------
#NOTES:
     dance-single:
     :
     Medium:
     8:
     0.471962,0.556498,0.161158,0.185331,0.145042,410.000000,390.000000,20.000000,23.000000,0.000000,0.000000,0.471962,0.556498,0.161158,0.185331,0.145042,410.000000,390.000000,20.000000,23.000000,0.000000,0.000000:
// measure 0
0000
0000
0000
0000
,  // measure 1
0000
0000
0000
0000
,  // measure 2
0000
0000
0000
0000
,  // measure 3
0000
0000
0000
0000
,  // measure 4
0001
1000
0102
0100
,  // measure 5
0013
0100
1000
0001
0100
0000
0010
0000
,  // measure 6
1001
0001
1000
0010
,  // measure 7
0110
1001
0110
0000
,  // measure 8
1000
1010
1000
0001
,  // measure 9
0010
1000
0010
0001
,  // measure 10
0100
0101
0001
1000
,  // measure 11
0001
0100
1000
0100
,  // measure 12
0010
1001
0001
1000
,  // measure 13
0100
1000
0001
0100
,  // measure 14
0010
1001
0001
0010
,  // measure 15
0100
0000
0010
0000
0001
0000
1000
0001
,  // measure 16
0100
0010
1000
0000
,  // measure 17
0010
0100
0001
0000
,  // measure 18
1000
0001
0100
0000
,  // measure 19
0001
1000
0010
0000
,  // measure 20
1000
0001
1000
0001
,  // measure 21
1000
0001
1000
0001
,  // measure 22
0100
0010
0100
0010
0100
0010
0100
0010
,  // measure 23
0100
0100
0100
0010
,  // measure 24
1001
0000
0000
0000
1000
0000
0000
0000
0001
0000
0000
1000
0000
0000
0100
0000
,  // measure 25
0000
0000
1000
0000
0000
0010
0000
0000
0100
0000
0000
0001
0000
0000
0010
0000
,  // measure 26
0100
0000
0000
0000
0010
0000
0000
0000
0001
0000
0000
0010
0000
0000
0001
0000
,  // measure 27
0000
0000
0010
0000
0000
0100
0000
0000
1000
0000
0000
0010
0000
0000
0100
0000
,  // measure 28
0001
0000
0000
0000
1000
0000
0000
0000
0100
0000
0000
1000
0000
0000
0010
0000
,  // measure 29
0000
0000
0100
0000
0000
0010
0000
0000
1000
0000
0000
0001
0000
0000
0010
0000
,  // measure 30
0100
0000
0010
0000
0001
0000
0000
1000
0000
0000
0100
0000
1000
0000
0000
0000
,  // measure 31
0100
0000
1000
0000
0010
0000
0000
0100
0000
0000
0001
0000
0010
0000
0000
0000
,  // measure 32
0100
0000
0000
0000
0010
0000
0000
0000
0001
0000
0000
1000
0000
0000
0010
0000
,  // measure 33
0000
0000
1000
0000
0000
0010
0000
0000
0100
0000
0000
0001
0000
0000
0010
0000
,  // measure 34
0100
0000
0000
0000
0010
0000
0000
0000
0001
0000
0000
1000
0000
0000
0010
0000
,  // measure 35
0000
0000
0100
0000
0000
0010
0000
0000
1000
0000
0000
0100
0000
0000
0010
0000
,  // measure 36
0110
0000
0000
0000
1001
0000
0000
0000
1000
0000
0000
0001
0000
0000
0100
0000
,  // measure 37
0000
0000
0010
0000
0000
0100
0000
0000
0001
0000
0000
1000
0000
0000
0100
0000
,  // measure 38
0010
0000
0100
0000
1000
0000
0000
0001
0000
0000
0100
0000
0010
0000
0000
0000
,  // measure 39
0220
0000
0000
0330
,  // measure 40
1001
0001
0100
0001
,  // measure 41
1000
0000
0100
0000
1000
0000
0100
0010
,  // measure 42
0001
0010
0001
1000
,  // measure 43
0010
0000
1000
0000
0001
0000
1000
0001
,  // measure 44
0101
0001
0010
0001
,  // measure 45
1000
0000
0100
0000
0010
0000
0100
1000
,  // measure 46
0010
0100
0001
0010
,  // measure 47
0100
0000
1000
0001
1001
0000
0011
0000
,  // measure 48
1100
0100
0010
0001
,  // measure 49
0100
1000
0100
0010
,  // measure 50
1001
1000
0100
1000
,  // measure 51
0010
0001
0010
0100
,  // measure 52
0001
0000
0000
1000
0010
0000
0000
0010
0100
0000
0000
0100
0001
0000
0000
0001
,  // measure 53
0010
0000
0000
0010
0100
0000
0000
0100
1000
0000
0000
1000
0001
0000
0000
0001
,  // measure 54
0100
0000
0000
0100
0010
0000
0000
0010
1000
0000
0000
1000
0001
0000
0000
0001
,  // measure 55
0010
0000
0100
1000
0100
0000
1000
0001
,  // measure 56
1000
0000
0001
0100
0001
0000
0100
0010
,  // measure 57
0100
0000
0010
1000
0010
0000
1000
0100
,  // measure 58
1000
0000
0100
0010
0100
0000
0010
0001
,  // measure 59
0010
0001
1000
0001
0100
0000
0010
1000
,  // measure 60
0100
0000
0010
0001
0100
0000
0010
0100
,  // measure 61
0001
0000
2000
0000
3001
0100
0010
1000
,  // measure 62
0001
1000
0020
0000
0000
0000
0100
0100
,  // measure 63
0130
0000
0010
0000
1000
0000
0010
1000
,  // measure 64
0100
0010
0001
0000
0010
0000
0100
0020
,  // measure 65
0032
2003
3010
0000
0100
0000
0001
0100
,  // measure 66
0010
1000
0100
0000
0010
0000
0001
0200
,  // measure 67
0320
2030
3010
0000
0100
0000
0001
1000
,  // measure 68
0010
0100
0010
0000
1000
0000
0100
0020
,  // measure 69
0032
0000
2003
0000
3010
0000
0000
1000
0000
0000
0001
0000
0010
0000
0000
0100
,  // measure 70
0000
0010
0002
0000
0203
0000
0020
0000
,  // measure 71
0330
0000
1001
0000
0001
1000
0010
0100
,  // measure 72
0001
0010
0200
0000
0310
0001
0100
1000
,  // measure 73
0100
0010
2000
0000
3001
0010
0001
0100
,  // measure 74
0010
0000
1000
0000
0200
0000
0000
0000
1300
0000
0001
0000
0100
0000
0000
0010
,  // measure 75
0000
1000
0002
0000
1003
0010
0100
0001
,  // measure 76
0010
0100
1000
0001
1000
0001
0100
0010
,  // measure 77
0100
0010
2000
0000
3100
0010
0001
0100
,  // measure 78
0010
1000
0001
0010
0100
1000
0001
0010
,  // measure 79
0100
1000
0020
0000
0000
0000
0000
0000
,  // measure 80
0000
0000
0000
0000
,  // measure 81
0000
0130
0000
0000
;

//---------------dance-single - ----------------
#NOTES:
     dance-single:
     :
     Easy:
     5:
     0.346489,0.425557,0.161158,0.241737,0.000000,301.000000,281.000000,20.000000,30.000000,0.000000,0.000000,0.346489,0.425557,0.161158,0.241737,0.000000,301.000000,281.000000,20.000000,30.000000,0.000000,0.000000:
0000
0000
0000
0000
,
0000
0000
0000
0000
,
0000
0000
0000
0000
,
0000
0000
0000
0000
,
1000
0001
0020
0000
,
0130
0010
0001
1000
,
1001
0000
0000
0000
,
0110
0110
0110
0000
,
0010
1000
0000
0001
,
0000
0010
0000
0100
,
0010
0001
0000
1000
,
0000
0010
0000
0100
,
0010
1000
0000
0001
,
0000
0100
0000
0001
,
1000
0100
0000
1000
,
0000
0010
0000
0100
,
1001
0000
0001
0000
,
1001
0000
1000
0000
,
0110
0000
0010
0000
,
0110
0000
0100
0000
,
0001
1000
0001
1000
,
0010
0100
0010
0100
,
0010
0010
0010
0010
,
0100
0100
0100
0010
,
1001
0001
0010
0001
,
0100
0001
1000
0100
,
0010
0100
1000
0010
,
0100
0001
0010
0010
,
0001
1000
0010
0100
,
0010
1000
0001
0010
,
0200
0310
0020
0031
,
0002
1003
2000
3010
,
0100
0010
1000
0001
,
0010
0001
0100
0001
,
1000
0100
1000
0010
,
0100
0001
0010
0100
,
0010
1001
0001
0010
,
0001
0100
0010
1000
,
0002
0013
0020
0130
,
0200
0000
0000
0000
,
1300
0100
1000
0100
,
1000
0100
1000
0100
,
0010
0001
0010
0001
,
0010
0001
0010
0001
,
1000
0001
1000
0001
,
1000
0001
1000
0001
,
0100
0010
0100
0010
,
0100
0010
0110
1001
,
0110
0010
1000
0010
,
0100
0001
0100
0001
,
1001
0001
0010
0001
,
1000
0100
1000
0100
,
2000
3010
0200
0301
,
0020
0130
2000
3001
,
0002
0203
0320
2030
,
3100
1000
0010
0100
,
0001
0010
0100
0010
,
0001
1000
0010
0100
,
0001
0010
0100
0010
,
0001
1000
0010
0100
,
0001
0010
0100
1000
,
0100
1000
0010
0100
,
0001
0000
0010
0000
0100
0000
1000
0001
,
1000
0001
0100
0020
,
2030
3100
1000
0020
,
0230
0301
0010
0200
,
2300
3010
0100
0002
,
2003
3100
1000
0020
,
0230
0301
0010
0200
,
0320
0031
0010
0100
,
1000
1001
0110
2002
,
3003
0110
0001
0100
,
0010
1000
0010
0000
0100
0000
0001
0000
,
0010
0100
0010
0000
0100
0000
1000
0000
,
0001
0100
0001
0000
0100
0000
0010
0100
,
0010
0000
0100
0000
0001
0000
1000
0100
,
1000
0100
1000
0010
,
0100
0000
0001
0000
1000
0000
0010
0100
,
0010
0100
0010
1000
,
0001
0110
0000
0000
,
0000
0000
0000
0000
,
0000
1001
0000
0000
;

//---------------dance-single - ----------------
#NOTES:
     dance-single:
     :
     Beginner:
     2:
     0.125473,0.229146,0.064463,0.000000,0.000000,109.000000,101.000000,8.000000,0.000000,0.000000,0.000000,0.125473,0.229146,0.064463,0.000000,0.000000,109.000000,101.000000,8.000000,0.000000,0.000000,0.000000:
0000
0000
0000
0000
,
0000
0000
0000
0000
,
0000
0000
0000
0000
,
0000
0000
0000
0000
,
1000
0000
0000
0000
,
0001
0000
1000
0000
,
0010
0000
0000
0000
,
0100
0100
0100
0000
,
1001
0000
0000
0000
,
0001
0000
0000
0000
,
0100
0000
0000
0000
,
0010
0000
0000
0000
,
1000
0000
0000
0000
,
0100
0000
0000
0000
,
1000
0000
0000
0000
,
0001
0000
0000
0000
,
0110
0000
0000
0000
,
0100
0000
0000
0000
,
0010
0000
0000
0000
,
1000
0000
0000
0000
,
0001
0000
0001
0000
,
0001
0000
0001
0000
,
1000
0000
1000
0000
,
0010
0010
0010
0010
,
0100
0000
0000
0000
,
0010
0000
1000
0000
,
0001
0000
0000
0000
,
0010
0000
0001
0000
,
1000
0000
0000
0000
,
0100
0000
1000
0000
,
0010
0000
0000
0000
,
0010
0000
0000
0000
,
0100
0000
0000
0000
,
0010
0000
1000
0000
,
0001
0000
0000
0000
,
0010
0000
0001
0000
,
1000
1000
0000
0000
,
0001
0000
0000
0000
,
0100
0000
0000
0000
,
0100
0000
0000
0000
,
1001
0000
0000
0000
,
0000
0000
0000
0000
,
0000
0000
0000
0000
,
0000
0000
0000
0000
,
0110
0000
0000
0000
,
0000
0000
0000
0000
,
0000
0000
0000
0000
,
0000
0000
1000
0001
,
0110
0000
0000
0000
,
0100
0000
0000
0000
,
0010
0000
0000
0000
,
1000
0000
0000
0000
,
0001
0000
0010
0000
,
0100
0000
1000
0000
,
0100
0000
0010
0000
,
0000
0001
0000
0000
,
0000
1000
0000
0000
,
0000
0010
0000
0000
,
0000
1000
0000
0001
,
0000
0100
0000
0000
,
0000
0010
0000
0000
,
0000
1000
0000
0001
,
0000
0100
0000
0010
,
0010
0000
0000
0100
,
0100
0000
0000
0010
,
0010
0000
0000
1000
,
1000
0000
0000
0001
,
0001
0000
0000
1000
,
0010
0000
0000
0000
,
0100
0001
0000
0000
,
0000
1000
0000
0000
,
0000
0110
0000
0000
,
0000
0010
0000
0000
,
0000
1000
0000
0000
,
0000
0001
0000
0000
,
0000
0010
0000
0000
,
0000
0100
0000
0010
,
0000
0001
0000
0000
,
0000
1000
0000
0000
,
0000
0110
0000
0000
,
0000
0000
0000
0000
,
0000
1001
0000
0000
;
