#VERSION:0.82;
#TITLE:And Drugs↑↑;
#SUBTITLE:;
#ARTIST:lapix;
#TITLETRANSLIT:;
#SUBTITLETRANSLIT:;
#ARTISTTRANSLIT:;
#GENRE:;
#ORIGIN:;
#CREDIT:;
#BANNER:And Drugs.png;
#BACKGROUND:And Drugs-bg.png;
#PREVIEWVID:;
#JACKET:And Drugs-jacket.png;
#CDIMAGE:;
#DISCIMAGE:;
#LYRICSPATH:;
#CDTITLE:;
#MUSIC:And Drugs.ogg;
#OFFSET:-0.024000;
#SAMPLESTART:65.312164;
#SAMPLELENGTH:15.000000;
#SELECTABLE:YES;
#DISPLAYBPM:125.000000;
#BPMS:0.000=125.000,
7.000=250.000,
8.000=125.000,
8.250=250.000,
8.500=500.000,
9.000=125.000,
24.000=62.500,
24.250=125.000,
24.500=250.000,
25.000=125.000,
39.000=250.000,
41.000=125.000,
56.000=250.000,
57.000=125.000,
135.000=1000.000,
136.000=125.000,
144.000=250.000,
144.500=125.000,
144.750=62.500,
145.000=125.000,
176.000=250.000,
178.000=125.000,
201.250=250.000,
201.500=500.000,
202.000=125.000,
217.000=250.000,
217.500=125.000,
217.750=62.500,
218.000=125.000;
#STOPS:7.000=0.120,
7.500=0.120,
8.000=0.240,
39.000=0.120,
39.500=0.120,
40.750=0.240,
56.750=0.240,
135.000=0.210,
135.500=0.210,
201.000=0.240;
#DELAYS:;
#WARPS:;
#TIMESIGNATURES:0.000=4=4;
#TICKCOUNTS:0.000=4;
#COMBOS:0.000=1;
#SPEEDS:0.000=1.000=0.000=0,
40.000=2.000=0.375=0,
40.375=1.000=0.375=0,
56.000=0.700=0.375=0,
56.375=1.000=0.375=0,
120.000=2.000=12.000=0,
132.000=1.000=3.000=0,
160.000=1.250=0.125=0,
160.125=1.000=0.125=0,
160.750=1.200=0.250=0,
161.750=1.000=0.250=0,
162.750=1.200=0.250=0,
163.750=1.000=0.250=0,
164.750=1.200=0.250=0,
165.750=1.000=0.250=0,
166.750=1.200=0.250=0,
167.750=1.000=0.250=0,
224.875=0.750=0.375=0,
225.500=1.000=0.500=0,
226.000=1.500=3.000=0,
232.000=1.000=0.750=0,
233.000=5.000=1.000=0,
234.000=1.000=0.000=0;
#SCROLLS:0.000=1.000,
176.000=-1.000,
176.250=-0.500,
176.500=0.050,
176.750=0.500,
177.000=1.000;
#FAKES:;
#LABELS:0.000=Song Start;
#BGCHANGES:;
#KEYSOUNDS:;
#ATTACKS:
;

//---------------dance-single - ----------------
#NOTEDATA:;
#CHARTNAME:;
#STEPSTYPE:dance-single;
#DESCRIPTION:;
#CHARTSTYLE:;
#DIFFICULTY:Challenge;
#METER:9;
#RADARVALUES:0.649110,0.605261,0.413854,0.362122,0.426787,437.000000,48.000000,42.000000,0.000000,0.000000,0.000000,0.000000,0.000000,0.649110,0.605261,0.413854,0.362122,0.426787,437.000000,48.000000,42.000000,0.000000,0.000000,0.000000,0.000000,0.000000;
#CREDIT:;
#DISPLAYBPM:125.000000;
#NOTES:
0000
0000
0000
0000
,
0000
0000
0000
0000
0000
0000
1000
1000
,
0002
0000
0103
0001
0020
0000
0130
1000
,
0020
0000
0130
0001
1000
0100
1000
0001
,
0100
0000
0101
0001
1001
0000
1001
1000
,
1010
0000
1010
0001
0100
0010
2000
0000
,
3200
0000
1300
0001
0020
0000
0031
1000
,
0200
0000
1300
0100
0010
0100
0001
0100
,
1000
0000
1100
0100
0110
0000
0110
0010
,
0012
0000
0000
0000
1003
0010
0000
0100
0000
0010
1000
0000
0001
0000
0001
0000
,
2001
0000
3010
0100
0002
0000
0013
0100
,
2000
0000
3010
1000
0001
0010
0001
1000
,
0010
0000
1010
1000
1001
0000
1001
0001
,
0101
0000
0101
0100
0010
1000
0200
0000
,
0320
0000
0031
0100
1000
0000
1000
0100
,
0001
0000
0001
0010
1000
0010
0001
0000
,
2002
3003
1000
0100
2000
0000
3100
0010
,
0001
1000
0000
0001
0000
0001
0100
0000
0010
0000
0010
0000
0220
0000
0000
0000
,
0330
0000
0000
0000
0100
0001
0000
0001
0000
0001
0010
0000
0100
1000
0000
1000
,
0010
0000
0010
0000
0100
0001
0000
1000
0001
0000
0001
0020
0000
0000
0000
0000
,
0030
0000
0000
0000
0100
1000
0000
1000
0000
1000
0010
0000
0100
0001
0000
0001
,
0010
0000
0010
0000
0100
0010
0000
0100
1000
0000
0001
1000
0000
1000
0000
1000
,
0000
0100
1000
0000
0010
1000
0000
0001
0000
1000
0100
0000
0010
0001
0000
1000
,
0001
0000
0100
0000
0010
1000
0000
0001
0010
0000
0010
0200
0000
0000
0000
0000
,
0300
0000
0000
0000
0010
0001
0000
1000
0000
0001
0100
0000
0010
1000
0000
0001
,
1000
0000
0100
0000
0010
0001
0000
0100
0001
0000
1000
0001
0000
0001
0000
0001
,
0100
0001
0100
0000
0001
0010
0001
0000
0100
0001
0100
0000
0100
0000
0001
0010
,
0100
1000
0100
0000
1000
0010
1000
0000
0100
1000
0100
0000
0100
0000
1000
0010
,
0100
0001
1000
0000
0001
0100
0010
0000
0100
0001
1000
0000
1000
0000
0100
0010
,
0100
1000
0001
0000
1000
0100
0010
0000
0100
1000
0001
0000
0001
0000
0010
0100
,
1000
0000
0001
0000
1000
0000
0010
0100
0001
0000
1000
0000
0001
0000
0010
0100
,
0010
0000
0001
0000
0100
0000
0010
0100
0010
0000
1000
0000
0100
0000
0010
0001
,
0010
0000
0100
0010
0100
0000
1000
0100
1000
0000
0001
0100
0001
0000
1000
0001
,
1000
0000
1100
0000
1001
0000
0000
0001
0000
0101
0000
0020
0100
0000
0100
0000
,
1030
0000
0100
0000
0010
0000
0100
0000
1100
0000
0000
0001
0010
0001
0000
0000
,
0010
0000
0001
0000
0100
0000
0010
0000
1000
0100
0000
0100
1000
0000
1000
0000
,
0002
0003
0101
0010
1000
0001
0102
0000
,
1003
0000
1100
0001
0010
0100
1100
1000
,
0001
0000
0100
0000
0010
0000
0100
0000
0101
0000
0000
1000
0100
1000
0000
0000
,
0010
0000
1000
0000
0100
0000
1000
0000
0001
0010
0000
0010
0000
0000
0110
0000
,
1001
0000
1001
0100
0010
0100
1001
0000
,
0001
0000
0101
0000
1001
0000
0000
1000
0000
0010
0000
0010
0200
0000
0320
0000
,
1030
0000
0001
0000
0010
0000
1000
0000
0010
0000
0000
0100
1000
0100
0000
0000
,
1000
0000
0001
0000
0100
0000
1000
0000
0100
0010
0000
0010
0200
0000
0000
0000
,
0300
0000
0000
0000
0102
1000
0013
0000
,
2100
0001
3010
0000
0002
0013
2000
3010
,
0002
0000
0103
0000
0020
0000
0000
0000
0130
0000
0010
0000
1000
0001
0000
0001
,
0000
1000
0000
0100
0020
0000
0000
0000
0130
0000
0010
0000
0001
0100
0000
0100
,
0000
0100
0010
0000
1000
0000
0000
0000
0200
0000
1000
0000
0310
0000
0001
0000
,
0200
0000
0001
0000
0310
0000
0000
0000
0010
1000
0000
1000
0000
0001
0100
0000
,
0001
1000
1001
0000
0001
0100
1010
0000
,
1000
0100
0011
0000
0001
0100
1010
0001
,
0011
1000
1001
0000
1000
1000
0002
0000
,
0013
0010
0200
0000
1300
1000
0010
0010
,
0100
0001
0100
0000
0110
0000
0000
0000
0010
0000
1000
0000
0101
0000
0000
0000
,
0010
0001
1100
0000
0010
1000
0101
1000
,
1100
0001
2002
3003
0001
0100
0020
0000
,
1030
0000
0100
0000
0010
0001
0000
1000
0000
0001
0100
0000
0010
0000
0010
0000
,
1001
0220
0330
0000
;

//---------------dance-single - ----------------
#NOTEDATA:;
#CHARTNAME:;
#STEPSTYPE:dance-single;
#DESCRIPTION:;
#CHARTSTYLE:;
#DIFFICULTY:Hard;
#METER:8;
#RADARVALUES:0.554268,0.504384,0.284524,0.577671,0.112085,350.000000,33.000000,67.000000,0.000000,0.000000,0.000000,0.000000,0.000000,0.554268,0.504384,0.284524,0.577671,0.112085,350.000000,33.000000,67.000000,0.000000,0.000000,0.000000,0.000000,0.000000;
#CREDIT:;
#DISPLAYBPM:125.000000;
#NOTES:
0000
0000
0000
0000
,
0000
0000
0000
0000
0000
0000
1000
1000
,
0001
0000
0100
0001
1000
0000
1100
0000
,
0011
0000
1100
0000
0100
1000
0001
1000
,
0020
0000
0130
0100
0002
0000
0103
0100
,
0020
0000
1030
1000
0100
1000
0020
0000
,
0230
0000
0310
1000
0001
0000
0101
0000
,
1010
0110
0101
0110
,
2002
3003
1000
1000
0200
0000
0310
0010
,
0002
0000
2003
0000
3100
0010
0100
0100
,
0200
0000
1300
0020
0001
0000
1030
0000
,
0011
0000
1010
0000
2100
0000
3001
0001
,
0002
0000
0013
0010
0200
0000
1300
1000
,
0002
0000
1003
1000
0100
0100
2000
0000
,
3020
0000
1030
0200
0001
0000
1300
0000
,
0101
1001
0011
1010
,
0220
0330
0100
0100
0002
0000
0013
0010
,
0200
0300
0200
0300
1000
0100
2002
0000
,
3003
0000
1000
0100
0010
0000
0010
0100
,
1000
0000
0000
0000
1000
0000
0100
0000
0010
0000
0001
0020
0000
0000
0000
0000
,
0031
0000
0001
0100
0010
0000
0010
0100
,
0001
0000
0000
0000
0001
0000
1000
0000
0010
0000
0000
0010
0000
0020
0000
0000
,
1030
0000
0001
1000
0100
0000
1000
0001
,
0010
0000
0000
0000
0001
0000
1000
0000
0100
0000
0010
0200
0000
0000
0000
0000
,
1300
0000
0001
0100
0010
0000
1000
0010
,
0100
0000
0000
0000
0001
0000
1000
0000
0010
0000
0000
0010
0000
0020
0000
0000
,
1030
0100
0001
0100
1000
0001
1000
0000
,
0001
0100
1000
0100
0001
1000
0001
0000
,
1000
0010
0001
0010
1000
0100
1000
0000
,
0001
0010
1000
0010
0001
0100
0001
0000
,
1000
0100
0100
1000
0010
0100
0100
0010
,
1000
0001
0001
1000
0100
0010
0010
0100
,
1000
1000
0001
0001
0100
0100
0010
0010
,
1000
0000
0100
0000
1000
0000
0000
0001
0000
0010
0000
0002
0100
0000
0100
0000
,
2003
0000
0000
0000
3100
0000
2000
0000
0000
0000
3010
0000
0010
2000
0000
0000
,
3002
0000
0000
0000
0103
0000
0002
0000
1003
0100
0000
0100
0010
0000
0100
0000
,
2000
0000
3010
0100
0001
0100
0010
0000
,
0002
0000
0013
0100
1000
0100
0010
0010
,
0002
0000
0000
0000
0103
0000
0002
0000
0000
0000
0013
0000
0010
0002
0000
0000
,
2003
0000
0000
0000
3100
0000
2000
0000
3001
0100
0000
0100
0010
0000
0010
0000
,
0110
0000
0000
0000
0100
0000
0000
0100
0001
0000
0000
0001
0010
0000
0000
0010
,
0100
0000
0000
0100
1000
0000
0000
1000
0001
0000
0100
0000
0010
0000
1000
0000
,
0200
0000
0000
0000
1300
0000
0020
0000
0000
0000
1030
0000
1000
0002
0000
0000
,
0203
0000
0000
0000
0301
0000
0020
0000
0031
1000
0000
1000
0002
0000
0000
0000
,
0103
0000
1010
0101
,
0011
0000
1100
0000
1010
0000
0001
1000
,
0100
1000
0020
0000
1030
0200
0000
1300
,
1000
0002
0000
0000
0023
0000
0000
0000
0031
0000
0200
0000
0301
1000
0000
1000
,
0000
0100
1001
0000
0001
0001
0020
0000
,
0130
0100
2000
0000
3002
0000
0103
0100
,
0010
0010
0220
0330
1000
0001
0010
0001
,
1000
0100
0010
0000
1100
0000
0011
0001
,
1000
0100
0020
0000
0031
0001
0200
0000
,
0310
0010
2000
0000
3100
0100
0010
0100
,
2000
0000
3001
0000
0001
1000
0010
1000
,
0001
0100
0010
0000
0101
0000
1010
0000
,
0101
0100
0020
0000
1030
1000
0200
0000
,
0310
0010
0001
1000
0001
1000
0010
0100
,
0110
2002
3003
0000
;

//---------------dance-single - ----------------
#NOTEDATA:;
#CHARTNAME:;
#STEPSTYPE:dance-single;
#DESCRIPTION:;
#CHARTSTYLE:;
#DIFFICULTY:Beginner;
#METER:2;
#RADARVALUES:0.136720,0.175780,0.043110,0.000000,0.000000,106.000000,5.000000,0.000000,0.000000,0.000000,0.000000,0.000000,0.000000,0.136720,0.175780,0.043110,0.000000,0.000000,106.000000,5.000000,0.000000,0.000000,0.000000,0.000000,0.000000,0.000000;
#CREDIT:;
#DISPLAYBPM:125.000000;
#NOTES:
0000
0000
0000
0000
,
0000
0000
0000
0000
,
0000
0000
0000
1000
,
0000
0001
0000
1000
,
1000
0000
0100
0000
,
0010
0000
0001
0000
,
0000
0000
0000
0001
,
0000
1000
0000
0001
,
0001
0000
0100
0000
,
0010
0000
1000
0000
,
0000
0000
0000
1000
,
0000
0001
0000
1000
,
1000
0000
0010
0000
,
0100
0000
0001
0000
,
0000
0000
0000
0001
,
0000
1000
0000
0001
,
0001
0000
0010
0000
,
0100
0000
1000
0000
,
0000
1001
0000
0000
,
1000
0000
1000
0000
,
0000
1001
0000
0000
,
0001
0000
0001
0000
,
0000
1001
0000
0000
,
1000
0000
1000
0000
,
0000
1001
0000
0000
,
0001
0000
0001
0000
,
1000
1000
0000
0000
,
0100
0100
0000
0000
,
0001
0001
0000
0000
,
0100
0100
0000
0000
,
1000
0000
0001
0000
,
1000
0000
0001
0000
,
1000
1000
1000
1000
,
0001
0001
0001
0000
,
0000
1000
0000
1000
,
0000
0001
0000
0001
,
0010
0000
0000
0000
,
0010
0000
0000
0000
,
0000
0001
0000
0001
,
0000
1000
0000
1000
,
0010
0100
0000
0100
,
0000
0100
0000
0100
,
0001
0000
0000
0001
,
1000
0000
0000
1000
,
0100
0000
0000
0100
,
0000
0100
0000
0000
,
0000
0000
0001
0000
,
0001
0000
1000
0000
,
1000
0000
0010
0000
,
0010
0000
0100
0100
,
0100
0001
0000
0000
,
0001
0000
1000
0000
,
1000
0001
0000
0100
,
0000
0010
0000
1000
,
0000
0000
0000
0000
,
1000
0000
0001
0000
,
0001
1000
0000
0100
,
0000
0010
0000
0001
,
0000
1001
0000
0000
;

//---------------dance-single - ----------------
#NOTEDATA:;
#CHARTNAME:;
#STEPSTYPE:dance-single;
#DESCRIPTION:;
#CHARTSTYLE:;
#DIFFICULTY:Easy;
#METER:3;
#RADARVALUES:0.247573,0.302631,0.086220,0.275903,0.000000,159.000000,10.000000,32.000000,0.000000,0.000000,0.000000,0.000000,0.000000,0.247573,0.302631,0.086220,0.275903,0.000000,159.000000,10.000000,32.000000,0.000000,0.000000,0.000000,0.000000,0.000000;
#CREDIT:;
#DISPLAYBPM:125.000000;
#NOTES:
0000
0000
0000
0000
,
0000
0000
0000
0000
,
0000
1000
0000
1000
,
0000
0001
0002
0003
,
1000
0100
0010
0001
,
2000
3000
0002
0003
,
0000
0001
0000
0001
,
0000
1000
0000
1000
,
0001
0100
0010
1000
,
0002
0003
1000
1000
,
2000
3100
0000
0100
,
0000
0010
0020
0030
,
0001
0100
0010
1000
,
0002
0003
2000
3000
,
0000
0100
0000
0100
,
0000
0010
0000
0010
,
1000
0100
0010
0001
,
2000
3000
0001
0002
,
0003
0100
0001
0100
,
0010
0100
0002
0003
,
0000
1000
0100
1000
,
0001
1000
0010
0020
,
0030
0100
0001
1000
,
0100
1000
0002
0003
,
0000
0010
0001
1000
,
0010
1000
0100
0200
,
0300
0000
0010
0010
,
0001
0000
1000
1000
,
0100
0000
1000
1000
,
0010
0000
0100
0100
,
0002
0000
0203
0000
,
0320
0000
2030
0000
,
3002
0023
0230
2300
,
3001
0001
0002
0003
,
0000
1000
0000
1001
,
0000
0001
0000
1001
,
0000
0010
0010
0010
,
0000
0100
0100
0200
,
0300
1000
0000
1001
,
0000
0001
0000
1001
,
1001
0100
0100
0100
,
0000
0010
0010
0020
,
0030
0001
0000
0101
,
0000
1000
0000
1100
,
0000
0000
0200
0300
,
0200
0300
0200
0310
,
0020
0030
0001
0000
,
0011
0000
1000
0000
,
1010
0000
1000
0001
,
1000
0001
0001
1000
,
1000
0010
0000
0001
,
0100
0001
0100
0002
,
0003
0000
1000
0100
,
0100
0010
0010
0001
,
0001
1000
0000
1000
,
0100
1000
0100
1000
,
0000
0000
0001
0100
,
0100
0010
0010
1000
,
0001
2002
3003
0000
;

//---------------dance-single - ----------------
#NOTEDATA:;
#CHARTNAME:;
#STEPSTYPE:dance-single;
#DESCRIPTION:;
#CHARTSTYLE:;
#DIFFICULTY:Medium;
#METER:5;
#RADARVALUES:0.387988,0.403507,0.112085,0.543183,0.012933,239.000000,13.000000,63.000000,0.000000,0.000000,0.000000,0.000000,0.000000,0.387988,0.403507,0.112085,0.543183,0.012933,239.000000,13.000000,63.000000,0.000000,0.000000,0.000000,0.000000,0.000000;
#CREDIT:;
#DISPLAYBPM:125.000000;
#NOTES:
// measure 0
0000
0000
0000
0000
,  // measure 1
0000
0000
0000
0000
0000
0000
1000
1000
,  // measure 2
0002
1003
0100
1000
,  // measure 3
0001
0000
1000
0000
0002
0000
0013
0010
,  // measure 4
0002
0203
0320
2030
,  // measure 5
3002
0023
0230
2300
,  // measure 6
3020
0130
0001
0001
,  // measure 7
1000
1000
0100
0100
,  // measure 8
0020
0032
2003
3020
,  // measure 9
1030
0100
1000
0000
0001
0100
0010
0010
,  // measure 10
0020
0130
0001
0100
,  // measure 11
0010
0100
0010
1000
,  // measure 12
0002
2003
3200
0320
,  // measure 13
0032
2003
3020
0230
,  // measure 14
0302
0103
0001
0001
,  // measure 15
1000
1000
0010
0010
,  // measure 16
2000
0100
0001
3010
,  // measure 17
0002
0000
2003
0000
3001
1000
0001
0000
,  // measure 18
1001
1000
0100
1000
,  // measure 19
0001
0000
1000
0000
0001
0010
0002
0000
,  // measure 20
0003
0001
0100
0001
,  // measure 21
1000
0001
0010
0010
,  // measure 22
0100
1000
0010
1000
,  // measure 23
0001
1000
0100
2000
,  // measure 24
3000
0001
0010
0001
,  // measure 25
1000
0001
0100
0110
,  // measure 26
1001
1000
1000
1000
,  // measure 27
1100
0100
0100
0100
,  // measure 28
0110
0010
0010
0010
,  // measure 29
0011
0001
0001
0001
,  // measure 30
0101
0100
1010
1000
,  // measure 31
1100
0100
0011
0001
,  // measure 32
2000
3002
2003
3002
,  // measure 33
1003
0000
0100
0000
1000
0000
0000
0001
0000
0100
0000
0001
0000
0000
0000
0000
,  // measure 34
2000
0100
0000
0100
,  // measure 35
3002
0100
0000
0100
,  // measure 36
2003
3010
0200
0310
,  // measure 37
2000
3010
0100
0200
,  // measure 38
0302
0010
0000
0010
,  // measure 39
2003
0010
0000
0010
,  // measure 40
3002
0013
2000
3100
,  // measure 41
0002
0000
0013
0000
0001
1000
0001
1000
,  // measure 42
0200
0010
0000
1000
,  // measure 43
0320
0100
0000
0031
,  // measure 44
0001
0000
2000
3020
,  // measure 45
2030
3020
2030
3001
,  // measure 46
0001
0100
0020
0000
1000
0000
0000
0000
,  // measure 47
0100
0230
0001
0000
,  // measure 48
0010
0310
1000
0001
,  // measure 49
0010
0000
0100
1000
0100
0000
0010
0001
,  // measure 50
1000
1000
2000
0000
3001
0000
0100
0000
,  // measure 51
0010
1000
0001
0200
,  // measure 52
0310
0010
2000
0000
3001
0001
0200
0000
,  // measure 53
0310
0010
2000
0000
3200
0000
0310
0010
,  // measure 54
0001
1000
0002
0000
1003
0000
0100
0000
,  // measure 55
0010
0001
1000
0100
,  // measure 56
0110
0000
1001
0000
0001
0001
0100
0000
,  // measure 57
1000
1000
0100
0000
0100
0000
0010
0100
,  // measure 58
0010
2002
3003
0000
;
