#TITLE:conflict;
#SUBTITLE:;
#ARTIST:siromaru + cranky;
#TITLETRANSLIT:;
#SUBTITLETRANSLIT:;
#ARTISTTRANSLIT:;
#GENRE:HARMONIC SCHRANZ;
#CREDIT:;
#BANNER:[Uncommon Time] - conflict.png;
#BACKGROUND:[Uncommon Time] - conflict-bg.png;
#LYRICSPATH:;
#CDTITLE:cdtitle.png;
#MUSIC:[Uncommon Time] - conflict.ogg;
#OFFSET:-1.144000;
#SAMPLESTART:12.375001;
#SAMPLELENGTH:15.000000;
#SELECTABLE:YES;
#DISPLAYBPM:80.000000:160.000000;
#BPMS:0.000000=160.000000
,128.000000=80.000000
,144.000000=160.000000
,232.000000=640.000000
,233.000000=160.000000
;
#STOPS:232.000000=0.070000,
232.250000=0.070000,
232.500000=0.070000,
232.750000=0.070000
;
#BGCHANGES:-3.000=[Uncommon Time] - conflict.avi=1.000=0=0=0=StretchNoLoop==CrossFade_Faster==,
99999=-nosongbg-=1.000=0=0=0 // don't automatically add -songbackground-
;
#KEYSOUNDS:;
#ATTACKS:;

//---------------dance-single - ----------------
#NOTES:
     dance-single:
     :
     Beginner:
     2:
     0.154813,0.273903,0.130043,0.130043,0.000000,150.000000,132.000000,18.000000,18.000000,0.000000,0.000000,0.154813,0.273903,0.130043,0.130043,0.000000,150.000000,132.000000,18.000000,18.000000,0.000000,0.000000:
// measure 0
0000
0000
0000
0000
,  // measure 1
0000
0000
0000
0000
,  // measure 2
0000
0000
0000
0000
,  // measure 3
0000
0000
0000
0000
,  // measure 4
1000
0000
1000
0000
,  // measure 5
0001
0000
0001
0000
,  // measure 6
1000
0000
0001
0000
,  // measure 7
1000
0000
0001
0000
,  // measure 8
1000
0000
1000
0000
,  // measure 9
0010
0010
0000
0000
,  // measure 10
0100
0000
0100
0000
,  // measure 11
0001
0001
0000
0000
,  // measure 12
1000
0000
1000
0000
,  // measure 13
0100
0100
0000
0000
,  // measure 14
0010
0000
0010
0000
,  // measure 15
1001
1001
0000
0000
,  // measure 16
0001
0000
0001
0000
,  // measure 17
0010
0010
0000
0000
,  // measure 18
0100
0000
0100
0000
,  // measure 19
1000
1000
0000
0000
,  // measure 20
0001
0000
0001
0000
,  // measure 21
0100
0000
0100
0000
,  // measure 22
0010
0000
0010
0000
,  // measure 23
1001
1001
0000
0000
,  // measure 24
1000
0000
0000
1000
,  // measure 25
0000
0000
0010
0000
,  // measure 26
0010
0000
0000
0100
,  // measure 27
0000
0000
0001
0000
,  // measure 28
0001
0000
0000
0001
,  // measure 29
0000
0000
0010
0000
,  // measure 30
0010
0000
0000
0100
,  // measure 31
0000
0000
1000
0000
,  // measure 32
1000
0000
1000
0000
,  // measure 33
0001
0000
0001
0000
,  // measure 34
0100
0000
0100
0000
,  // measure 35
0010
0000
0010
0000
,  // measure 36
2000
0000
3000
0000
,  // measure 37
0200
0000
0300
0000
,  // measure 38
0020
0000
0030
0000
,  // measure 39
0002
0000
0003
0000
,  // measure 40
0002
0000
0003
0000
,  // measure 41
0200
0000
0300
0000
,  // measure 42
0020
0000
0030
0000
,  // measure 43
2000
0000
3000
0000
,  // measure 44
1001
0000
0000
0000
,  // measure 45
0000
0000
0000
0000
,  // measure 46
0000
0000
0000
0000
,  // measure 47
0000
0000
0001
0000
,  // measure 48
0000
0001
0000
0000
,  // measure 49
1000
1000
0000
0000
,  // measure 50
1000
0000
0000
0001
,  // measure 51
0001
0000
0000
0001
,  // measure 52
0000
0100
0100
0100
,  // measure 53
0000
0000
0100
0000
,  // measure 54
0010
0010
0010
0000
,  // measure 55
0000
0010
0000
1000
,  // measure 56
1000
1000
0000
0000
,  // measure 57
1000
0000
1001
1001
,  // measure 58
2002
0000
0000
0000
,  // measure 59
0000
3003
0000
0220
,  // measure 60
0000
0000
0000
0000
,  // measure 61
0330
0000
2002
0000
,  // measure 62
0000
0000
0000
3003
,  // measure 63
0000
0220
0000
0330
,  // measure 64
0000
1001
0000
1001
,  // measure 65
0000
0001
0000
0001
,  // measure 66
0000
0010
0010
0000
,  // measure 67
0000
0100
0000
0100
,  // measure 68
0000
1000
1000
0000
,  // measure 69
0000
0001
0000
0001
,  // measure 70
0000
0100
0100
0000
,  // measure 71
0000
0010
0000
0010
,  // measure 72
0000
1001
1001
0000
,  // measure 73
0000
1000
0000
1000
,  // measure 74
0000
0010
0010
0000
,  // measure 75
0000
0100
0000
0100
,  // measure 76
0000
0001
0001
0000
,  // measure 77
0000
1000
0000
1000
,  // measure 78
0000
0100
0000
0100
,  // measure 79
0000
0010
0000
0010
,  // measure 80
0000
0001
0000
0001
,  // measure 81
0000
1001
2002
0000
,  // measure 82
0000
0000
0000
0000
,  // measure 83
0000
0000
0000
3003
,  // measure 84
0000
1001
0000
0000
;

//---------------dance-single - ----------------
#NOTES:
     dance-single:
     :
     Easy:
     5:
     0.344717,0.431128,0.195064,0.375679,0.000000,334.000000,307.000000,27.000000,52.000000,0.000000,0.000000,0.344717,0.431128,0.195064,0.375679,0.000000,334.000000,307.000000,27.000000,52.000000,0.000000,0.000000:
0000
0000
0000
0000
,
0000
0000
0000
0000
,
0000
0000
0000
0000
,
0000
0000
0000
0000
,
1000
0010
1000
0010
,
0100
0001
0100
0001
,
1000
0100
1000
0100
,
0010
0001
0010
0001
,
1000
0010
0001
0010
,
1000
1001
0001
0010
,
0001
0100
1000
0100
,
0001
1001
1000
0100
,
1000
0001
0100
0010
,
1000
1001
0001
0010
,
0001
0100
0010
1000
,
0002
2003
3200
0310
,
0001
0010
1000
0010
,
0001
1001
1000
0010
,
1000
0100
0001
0100
,
1000
1001
0001
0100
,
0001
1000
0100
0010
,
0001
1000
0010
0100
,
0001
1000
0100
0010
,
0002
0100
0010
1003
,
0001
0001
1000
1000
,
0001
0100
0020
1000
,
1030
1000
0001
0001
,
1000
0100
0020
0001
,
0031
0001
1000
1000
,
0001
0010
0200
1000
,
1300
1000
0001
0001
,
2000
3020
0230
0302
,
2003
0010
3020
0100
,
0230
0001
0302
1003
,
0002
0010
0023
0100
,
0230
1000
2300
3001
,
2000
0010
3100
1000
,
0002
0100
0013
0001
,
2000
0100
3010
1000
,
0002
0010
0103
0001
,
2000
3100
0020
0031
,
2000
3010
0200
0301
,
0002
0013
0200
1300
,
0002
0103
0020
1030
,
2002
0000
0000
0000
,
0000
0000
3003
0001
,
0001
1000
1000
0010
,
0100
0001
1000
1000
,
0001
0001
0010
0100
,
1000
0001
1001
1000
,
0010
0100
0110
0010
,
2000
0001
0100
0010
,
0100
0001
0010
3002
,
1000
0100
0010
0100
,
1000
0010
2003
0001
,
0010
0100
0010
0001
,
0100
3002
1000
0010
,
0100
0013
1001
0110
,
2001
0000
0000
0100
0000
0000
0100
0000
,
0000
0100
0000
0000
0100
0000
3002
0000
,
0000
0100
0000
0000
0100
0000
0000
0100
,
0000
0000
0100
0000
2003
0000
0000
0010
,
0000
0000
0010
0000
0000
0010
0000
0000
,
3010
2002
0000
0000
,
3003
0110
1001
0110
,
1001
0001
0010
1000
,
0010
0011
1001
1000
,
0010
1000
0100
0001
,
0100
1100
1001
0001
,
0100
0001
1000
0100
,
0010
0011
1001
1000
,
0010
1000
0100
0010
,
0001
2000
3002
0203
,
0310
1000
0010
0001
,
0010
1010
1001
0001
,
0010
0001
0100
1000
,
0100
0101
1001
1000
,
0100
1000
0001
0100
,
0010
1000
0001
0010
,
0100
2000
0010
0100
,
3001
0002
0010
0100
,
1003
1000
0010
0100
,
0001
1000
0100
0010
,
0001
2000
3020
0230
,
0301
2002
0000
0000
,
0000
3003
0000
0000
;

//---------------dance-single - ----------------
#NOTES:
     dance-single:
     :
     Medium:
     7:
     0.487144,0.523512,0.549069,0.505722,0.057797,472.000000,396.000000,76.000000,70.000000,0.000000,0.000000,0.487144,0.523512,0.549069,0.505722,0.057797,472.000000,396.000000,76.000000,70.000000,0.000000,0.000000:
0000
0000
0000
0000
,
0000
0000
0000
0000
,
0000
0000
0000
0000
,
0000
0000
0000
0000
,
2000
0010
0001
0100
,
3002
0100
1000
0010
,
2003
0010
3002
0010
,
2003
0100
3002
0103
,
0011
0000
1100
0000
1001
0000
0001
1000
,
0010
0000
1010
0000
1000
0001
0100
0000
,
0101
0000
1010
0000
1000
0001
0010
0000
,
0110
0000
1001
0000
0001
1000
0010
0000
,
1010
0000
0101
0000
0001
1000
0100
0000
,
1100
0000
0011
0000
0001
1000
0010
0000
,
1010
0000
1000
0001
0100
0000
0010
1000
,
0002
0023
0230
1300
,
1010
0000
0101
0000
1001
0000
1000
0001
,
0010
0000
0011
0000
0001
1000
0100
0000
,
1100
0000
0011
0000
0001
1000
0010
0000
,
0110
0000
1001
0000
1000
0001
0010
0000
,
0011
0000
1100
0000
1000
0001
0100
0000
,
0101
0000
1010
0000
1000
0001
0010
0000
,
0011
0000
0001
1000
0100
0000
0010
0001
,
2000
3020
0230
0301
,
1001
0000
1000
0001
0020
0000
0130
1000
,
0002
0000
0103
0010
1000
0000
1100
0000
,
0011
0000
0001
1000
0200
0000
0310
0001
,
2000
0000
3010
0100
0001
1000
0100
0000
,
1001
0000
0001
1000
0020
0000
0130
0001
,
2000
0000
3100
0010
0001
0000
0101
0000
,
1010
0000
1000
0001
0200
0000
0310
1000
,
0001
0000
0000
1000
0000
0000
0010
0000
0000
0100
0000
0000
0001
0000
0000
0000
,
2001
3020
0230
0302
,
0023
0230
2300
0001
,
3002
0023
0230
2300
,
3020
0230
0302
1003
,
2001
0010
3020
0100
,
0230
0001
0302
1000
,
2003
0100
3200
0010
,
0320
0001
0032
1003
,
2001
0010
3002
0010
,
2003
0100
3002
0100
,
2003
0010
3002
0100
,
2003
0100
3002
0013
,
2002
0000
0000
0000
,
0000
0000
3003
2000
,
3010
0100
0002
0000
1003
0100
0020
0000
,
0031
1000
0010
0100
0002
0000
0013
0100
,
2000
0000
3001
0100
0020
0000
1030
0001
,
0010
0100
1000
0000
1001
0000
0001
0100
,
0010
1000
0000
1001
0000
0001
1000
0000
,
1002
0010
0100
1000
,
0013
0101
1010
2001
,
0010
0100
0001
3010
,
1100
0011
1002
0100
,
0010
1000
0103
0011
,
1100
0000
1000
0001
0100
0010
1000
0001
,
0010
0100
1000
0001
0100
0000
0110
0000
,
1001
0000
0000
1000
0000
0000
0100
0000
0000
0001
0000
0000
0100
0000
0000
1000
,
0000
0000
0010
0000
0000
0100
0000
0000
0002
0000
0000
0000
1003
0000
0000
0001
,
0000
0000
0100
0000
0000
1000
0000
0000
0100
0000
0000
0001
0000
0000
0010
0000
,
0000
0100
0000
0000
2000
0000
0000
0000
3001
0000
0000
1000
0000
0000
0010
0000
,
0000
0001
0000
0000
0010
0000
0000
1000
0000
0000
0100
0000
0000
0010
0000
0000
,
0002
0000
2000
0000
3003
0000
1000
0001
,
0100
0000
0010
0000
1000
0000
0000
0001
0000
0000
0010
0000
0000
0100
0000
0000
,
1000
1010
0101
1001
,
1000
0001
0010
0000
1001
0000
1000
0010
,
0100
0001
1000
0000
0101
0000
0001
1000
,
0100
0000
0110
0000
1001
0000
0001
0100
,
0010
1000
0001
0000
1001
0000
1000
0100
,
0010
0000
0011
0000
1001
0000
1000
0010
,
0100
0000
0101
0000
0001
1000
0100
0000
,
0010
0001
1000
0000
1010
0000
0101
0000
,
1001
0011
1100
1001
,
0001
1000
0010
0000
1001
0000
0001
0010
,
0100
1000
0001
0000
1100
0000
1000
0001
,
0100
0000
0110
0000
1001
0000
1000
0100
,
0010
0001
1000
0000
1001
0000
0001
0100
,
0010
0000
1010
0000
1001
0000
0001
1000
,
0100
0000
1002
0000
0103
0010
2000
0000
,
3100
0000
2001
0000
3100
0010
0002
0000
,
0103
0000
0001
1000
0100
0001
0000
0001
,
0100
1000
0000
0001
0010
1000
0000
1000
,
0010
0001
1000
0010
0100
0001
0010
0100
,
1000
2002
0000
0000
,
0000
3003
0000
0000
;

//---------------dance-single - ----------------
#NOTES:
     dance-single:
     :
     Hard:
     9:
     0.650214,0.708282,0.382904,0.375679,0.480436,630.000000,577.000000,53.000000,52.000000,0.000000,0.000000,0.650214,0.708282,0.382904,0.375679,0.480436,630.000000,577.000000,53.000000,52.000000,0.000000,0.000000:
0000
0000
0000
0000
,
0000
0000
0000
0000
,
0000
0000
0000
0000
,
0000
0000
0000
0000
,
2010
0001
0100
3001
,
0012
1000
0100
1003
,
1000
0010
0100
0001
1000
0100
0010
0001
,
0101
0000
0000
0000
1010
0000
0000
0000
1100
0000
0000
0000
0011
0000
0000
0001
,
1000
0000
0000
1000
0010
0000
0000
0010
0100
0000
0000
0100
0001
0000
1000
0000
,
1100
0000
0011
0000
0001
0100
1000
0100
,
0001
0000
0000
0001
1000
0000
0000
1000
0010
0000
0100
0000
0001
0000
0000
0000
,
1001
0000
0000
1000
0100
0000
0000
0100
1000
0000
0010
0000
0001
0000
0010
0000
,
1000
0000
0000
1000
0001
0000
0000
0001
0010
0000
0100
0000
1000
0000
0000
0000
,
1010
0000
0000
0010
0100
0000
0000
0100
0001
0000
1000
0000
0100
0000
0010
0000
,
0001
0000
0000
0001
1000
0000
0000
1000
0100
0000
0010
0000
0001
0000
0100
0000
,
0101
0000
0000
0000
1010
0000
0000
0000
0110
0000
0000
0000
1001
0000
0000
1000
,
0001
0000
0000
0001
0010
0000
0000
0010
0100
0000
0000
0100
1000
0000
0001
0000
,
0101
0000
1010
0000
1000
0100
0001
0100
,
1000
0000
0000
1000
0001
0000
0000
0001
0010
0000
0100
0000
1000
0000
0000
0000
,
1001
0000
0000
0001
0100
0000
0000
0100
0001
0000
0010
0000
1000
0000
0010
0000
,
0001
0000
0000
0001
1000
0000
0000
1000
0010
0000
0100
0000
0001
0000
0000
0001
,
0010
0000
0000
0010
0100
0000
0000
0100
1000
0000
0001
0000
0100
0000
0010
0000
,
1000
0000
0000
1000
0001
0000
0000
0001
0100
0000
0010
0000
1000
0000
0100
0000
,
0010
0000
0001
0000
0100
0000
0010
0000
1000
0000
0001
1000
0002
0000
0000
0000
,
1003
0100
0001
0100
1000
0001
0010
1000
,
0010
0000
0001
0000
1000
0000
0010
0000
0100
0001
0100
0000
0020
0000
0000
0000
,
1030
0100
0001
0100
1000
0010
0001
0010
,
1000
0000
0100
0000
0010
0000
0001
0000
1000
0010
1000
0000
0001
0000
0010
0000
,
0001
0100
1000
0100
0001
1000
0010
0001
,
0010
0000
1000
0000
0001
0000
0010
0000
0100
1000
0100
0000
0020
0000
0000
0000
,
0031
0100
1000
0100
0001
0010
1000
0010
,
0011
0000
0000
0101
0000
0000
1010
0000
0000
1100
0000
0000
1000
0000
0001
0000
,
2001
3200
0302
0023
,
2030
0000
3100
0010
0002
0000
2003
0000
,
3002
0203
2300
3020
,
0032
0000
0103
0010
2000
0000
3002
0000
,
1003
0000
0000
1000
0010
0000
0000
0010
0001
0000
0000
0001
0010
0000
0000
0010
,
1000
0000
0000
1000
0100
0000
0000
0100
0001
0000
0000
0001
0100
0000
0000
0100
,
1000
0000
0000
1000
0010
0000
0000
0010
0100
0000
0000
0100
0001
0000
0000
0001
,
1000
0000
0000
1000
0100
0000
0000
0100
0010
0000
0000
0010
0001
0000
1000
0000
,
0001
0000
0000
0001
0010
0000
0000
0010
1000
0000
0000
1000
0010
0000
0000
0010
,
0001
0000
0000
0001
0100
0000
0000
0100
1000
0000
0000
1000
0100
0000
0000
0100
,
0001
0000
0000
0001
0010
0000
0000
0010
0100
0000
0000
0100
1000
0000
0000
1000
,
0001
0000
0000
0001
0100
0000
0000
0100
0010
0000
0000
0010
1000
0000
0000
0000
,
2002
0000
0000
0000
,
0000
0000
0000
0000
0000
0000
0000
0000
3003
0000
0000
0000
0001
0000
0000
0010
,
0001
0000
1000
0000
0000
0100
1000
0000
0001
0000
0000
0100
0001
0000
1000
0000
,
0000
0010
1000
0000
0001
0100
0001
0000
1000
0000
0000
0010
1000
0000
0001
0000
,
0000
0100
0001
0000
1000
0000
0000
0100
1000
0000
0001
0000
0000
0010
0001
0000
,
1000
0100
1000
0000
0001
0000
1000
0000
1002
0000
0000
0000
0103
0000
0010
0000
,
1000
0100
0010
0210
0000
1300
0001
0010
,
0001
0100
1000
0001
0010
1000
0100
0010
,
0001
1000
1010
0000
0110
0010
1000
0100
,
0001
1000
0010
0001
0100
0010
1000
0001
,
0011
0000
0110
0010
0001
0100
1000
0100
,
0001
0010
0100
1000
0001
0100
0101
0000
,
1010
0010
1000
0100
0001
0100
1000
0010
,
0100
0001
1000
0100
1100
0000
0011
0000
,
0001
1000
0001
2000
0000
0000
3020
0000
0000
0032
0000
0000
0023
0000
0000
2030
,
0000
0000
3200
0000
0000
0320
0000
0000
0032
0000
1000
0000
2003
0000
0000
3002
,
0000
0000
0023
0000
0000
2030
0000
0000
3020
0000
0000
0032
0000
0000
0203
0000
,
0000
0320
0000
0000
2030
0000
0001
0000
3002
0000
0000
2003
0000
0000
3200
0000
,
0000
0320
0000
0000
0032
0000
0000
2003
0000
0000
3020
0000
0000
0230
0000
0000
,
0302
0000
1000
0000
1003
0000
0000
0000
2001
0000
0000
0000
3010
0100
0010
0100
,
0001
0000
1000
0000
1010
0000
0000
0101
0000
0000
0011
0000
0000
1100
0000
0000
,
1001
0000
0000
0001
0100
0000
0000
0010
0100
0000
0000
0001
1000
0000
0000
0100
,
1000
0000
0001
0000
0101
0000
0000
0000
1010
0000
0000
1000
0001
0000
0010
0000
,
1000
0000
0010
0000
0001
0000
0000
0100
0010
0000
0000
0100
0001
0000
1000
0000
,
0100
0000
0010
0000
0011
0000
0000
0001
1000
0000
0000
1000
0010
0000
0100
0000
,
0001
0000
0010
0000
0001
0000
0000
1000
0100
0000
0000
1000
0001
0000
0100
0000
,
0010
0000
1000
0000
1100
0000
0000
0100
0010
0000
0000
0010
0001
0000
1000
0000
,
0010
0000
0100
0000
0001
0000
0000
1000
0010
0000
0000
0100
0010
0000
0000
1000
,
0001
0010
0011
0000
1100
0000
0110
0000
,
1001
0000
0000
1000
0100
0000
0000
0010
0100
0000
0000
1000
0001
0000
0000
0100
,
0001
0000
1000
0000
1100
0000
0000
0000
0011
0000
0000
0001
1000
0000
0010
0000
,
0001
0000
0010
0000
1000
0000
0000
0100
0010
0000
0000
0100
1000
0000
0001
0000
,
0100
0000
0010
0000
1010
0000
0000
1000
0001
0000
0000
0001
0010
0000
0100
0000
,
1000
0000
0010
0000
1000
0000
0000
0001
0100
0000
0000
0001
1000
0000
0100
0000
,
0010
0000
0001
0000
0101
0000
0000
0100
0010
0000
0000
0010
1000
0000
0001
0000
,
0010
0000
0001
0000
1001
0000
0000
1000
0001
0000
0000
0001
0100
0000
0000
0100
,
0010
0000
1000
0000
1001
0000
0000
0001
1000
0000
0000
1000
0100
0000
0000
0100
,
0010
0001
1000
0100
0001
0100
1000
0001
,
0010
1000
0010
0001
0100
0010
1000
0100
,
0010
0000
0001
0000
1000
0100
1000
0000
0001
0100
0001
0000
1000
0010
1000
0010
,
0100
0001
0100
0002
2000
0000
0000
0000
0000
0000
0000
0000
0000
0000
0000
0000
,
0000
3003
0000
0000
;

//---------------dance-single - ----------------
#NOTES:
     dance-single:
     :
     Challenge:
     11:
     0.841150,0.893051,0.325107,0.592417,0.798318,815.000000,770.000000,45.000000,82.000000,0.000000,0.000000,0.841150,0.893051,0.325107,0.592417,0.798318,815.000000,770.000000,45.000000,82.000000,0.000000,0.000000:
0000
0000
0000
0000
,
0000
0000
0000
0000
,
0000
0000
0000
0000
,
0000
0000
0000
0000
,
1000
0000
0010
0000
0100
0000
0001
0000
0100
0000
0010
0000
1000
0000
0001
1000
,
0001
0000
0010
0000
0100
0000
1000
0000
0100
0000
0010
0000
0001
0000
1000
0001
,
1000
0000
0010
0000
0100
0001
0100
0000
0001
0000
0010
0000
0100
1000
0100
0000
,
1000
0010
1000
0000
0001
0010
0001
0000
1000
0100
1000
0100
1000
0100
1000
0000
,
0001
0000
0100
0001
0100
0000
0010
0000
1000
0000
0100
1000
0100
0000
0010
0000
,
0011
0000
0000
0001
1000
0000
0000
1000
0010
0000
0100
0000
0001
0000
1000
0000
,
0100
0000
0010
0100
0010
0000
0001
0000
1000
0000
0010
1000
0010
0000
0100
0000
,
0101
0000
0000
0001
1000
0000
0000
1000
0100
0000
0010
0000
0001
0000
1000
0000
,
0010
0000
0100
0010
0100
0000
0001
0000
1000
0000
0100
0010
0100
0000
0010
0000
,
0011
0000
0000
0001
1000
0000
0000
1000
0010
0000
0100
0000
0001
0000
1000
0000
,
0001
0000
0010
0100
0010
0000
0100
0000
1000
0000
0001
1000
0001
0000
0100
0000
,
0101
0000
0000
0001
0010
0000
0000
0010
1000
0000
0000
1000
0010
0000
0001
0000
,
1000
0000
0100
1000
0100
0000
0010
0000
0001
0000
0100
0001
0100
0000
0010
0000
,
1010
0000
0000
1000
0001
0000
0000
0001
0010
0000
0100
0000
1000
0000
0001
0000
,
0100
0000
0010
0100
0010
0000
1000
0000
0001
0000
0010
0001
0010
0000
0100
0000
,
1100
0000
0000
1000
0001
0000
0000
0001
0100
0000
0010
0000
1000
0000
0001
0000
,
1000
0000
0010
1000
0010
0000
0100
0000
0001
0000
0010
0001
0010
0000
0100
0000
,
1000
0000
0100
1000
0100
0000
0010
0000
0001
0000
0100
0001
0100
0000
0010
0000
,
1000
0000
0100
1000
0100
0000
0010
0001
0010
0000
0001
1000
0001
0000
1000
0000
,
0001
0000
0100
0010
0100
0010
1000
0010
1000
0001
1000
0001
0010
0000
0100
0000
,
1000
0000
0100
1000
0100
0000
0010
0000
0001
0010
0001
0000
1000
0000
0010
1000
,
0010
0000
0100
0000
0001
0100
0001
0000
1000
0100
0010
0100
1000
0000
0001
0000
,
1000
0000
0010
0100
0010
0000
1000
0000
0001
0010
0001
0000
1000
0000
0100
0010
,
0100
0000
1000
0000
0001
0100
0001
0000
1000
0001
0010
0000
0100
0000
1000
0000
,
0001
0000
0100
0001
0100
0000
0010
0000
1000
0010
1000
0000
0001
0000
0010
0001
,
0010
0000
0100
0000
1000
0100
1000
0000
0001
0100
0010
0100
0001
0000
1000
0000
,
0001
0000
0010
0100
0010
0000
0001
0000
1000
0010
1000
0000
0001
0000
1000
0000
,
1100
0000
0000
0011
0000
0000
0101
0000
0000
1010
0000
0000
1000
0001
0010
0001
,
2000
0000
0001
0000
3002
0000
0100
0103
0020
0000
1000
0000
2030
0000
0001
3001
,
0200
0000
0000
0000
0310
0000
1000
0000
0002
0000
0000
0000
0013
0000
0100
0000
2000
0000
0000
0000
0010
0000
3010
1000
0020
0000
0000
0000
0230
0000
0000
0000
,
0302
0000
1000
0000
2003
0000
0100
3100
0020
0000
0001
0000
0032
0000
1000
1003
,
0200
0000
0000
0000
0310
0000
0001
0000
2000
0000
0000
0000
3010
0000
0100
0000
0002
0000
0000
0000
0010
0000
0013
0001
0020
0000
0000
0000
0230
0000
0000
0000
,
1300
0000
0000
1000
0100
0000
0000
0100
0001
0000
0000
0001
1000
0000
0000
1000
,
0010
0000
0000
0010
0001
0000
0000
0001
0100
0000
0000
0100
1000
0000
0000
1000
,
0001
0000
0000
0001
0010
0000
0000
0010
1000
0000
0000
1000
0001
0000
0000
0001
,
0010
0000
0000
0010
0100
0000
0000
0100
1000
0000
0000
1000
0010
0000
0100
0000
,
0001
0000
0000
0001
0100
0000
0000
0100
1000
0000
0000
1000
0001
0000
0000
0001
,
0010
0000
0000
0010
1000
0000
0000
1000
0100
0000
0000
0100
0001
0000
0000
0001
,
1000
0000
0000
1000
0010
0000
0000
0010
0001
0000
0000
0001
1000
0000
0000
1000
,
0010
0000
0000
0010
0100
0000
0000
0100
0001
0000
0010
0000
0100
0000
1000
0000
,
2002
0000
0000
0000
,
0000
0000
0000
0000
0000
0000
0000
0000
3003
0000
0000
0000
0001
0000
0100
0001
,
0100
0000
0010
0000
1000
0010
1000
0000
0001
0000
0010
0001
0010
0000
0100
0000
,
1000
0100
1000
0000
0001
0100
0010
0000
1000
0000
0100
1000
0100
0000
0010
0000
,
0001
0010
0001
0000
1000
0000
0010
1000
0010
0000
0100
0000
0001
0100
0001
0000
,
1000
0100
0010
0100
1000
0000
0001
0000
2002
0000
3003
0000
1000
0010
1000
0000
,
0001
0100
0010
0000
1000
0000
2002
0000
3003
0000
0001
0010
0001
0000
1000
0000
,
0001
0000
0100
0001
0100
0000
0010
0000
1000
0010
1000
0000
0001
0000
0010
0001
,
0010
0000
0100
0000
1100
0000
0000
0000
0011
0000
0001
0000
1000
0000
0100
1000
,
0100
0000
0010
0000
0001
0010
0001
0000
1000
0000
0010
1000
0010
0000
0100
0000
,
0101
0000
0000
0000
1010
0000
1000
0000
0001
0000
1000
0001
1000
0000
0100
0000
,
0010
0100
0010
0000
0001
0000
0100
0001
0100
0000
0010
0000
1010
0000
0000
0000
,
0101
0000
0001
0000
1000
0000
0001
1000
0001
0000
0100
0000
0010
0100
0010
0000
,
1000
0000
0100
1000
0100
0000
0010
0000
0001
0100
0010
0000
1000
0100
0010
0000
,
0002
0203
0320
2030
3000
0000
2200
3300
0000
0202
0303
0000
0022
0033
0000
2020
,
3030
0000
2200
3300
0000
0022
0033
0000
0010
0001
1000
0001
0020
0030
0000
0022
,
0033
0000
0202
0303
0000
2200
3300
0000
2020
3030
0000
0022
0033
0000
0202
0303
,
0000
2020
3030
0000
0010
1000
0001
1000
0020
0030
0000
2020
3030
0000
2200
3300
,
0000
0022
0033
0000
0202
0303
0000
2002
3003
0000
0220
0330
0000
2002
3003
0000
,
1000
0010
0100
0001
1000
0100
0010
0002
2000
0000
3003
0000
1000
0010
0100
0001
,
1000
0000
0100
0000
2200
3300
0000
0022
0033
0000
0202
0303
0000
2020
3030
0000
,
1000
0000
0001
0000
1000
0000
0001
0100
0001
0000
1000
0010
1000
0000
0001
0010
,
0100
0000
1000
0000
0001
0000
0100
0010
0100
0000
0001
1000
0010
0000
1000
0000
,
0100
0000
0010
0000
0001
0000
1000
0100
1000
0000
0001
0010
0001
0000
1000
0010
,
0100
0000
0001
0000
1000
0000
0100
0010
0100
0000
1000
0001
0010
0000
0001
0000
,
0100
0000
0010
0000
1000
0000
0001
0010
0001
0000
1000
0100
1000
0000
0001
0100
,
0010
0000
1000
0000
0001
0000
0100
0010
0100
0000
0001
1000
0100
0000
0010
0000
,
0001
0000
0100
0000
0001
0000
1000
0010
1000
0000
0001
0100
0001
0000
1000
0100
,
0010
0000
0001
0000
0101
0000
0000
0000
1010
0000
0000
1000
0100
0000
0001
0000
,
0100
0000
1000
0000
0001
0000
1000
0010
1000
0000
0001
0100
0001
0000
1000
0100
,
0010
0000
0001
0000
1000
0000
0010
0100
0010
0000
1000
0001
0100
0000
0001
0000
,
0010
0000
0100
0000
1000
0000
0001
0010
0001
0000
1000
0100
1000
0000
0001
0100
,
0010
0000
1000
0000
0001
0000
0010
0100
0010
0000
0001
1000
0100
0000
1000
0000
,
0010
0000
0100
0000
0001
0000
1000
0100
1000
0000
0001
0010
0100
0000
1000
0010
,
0100
0000
0001
0000
1000
0000
0001
0100
0001
0000
1000
0010
0100
0000
0001
0010
,
0100
0000
1000
0000
0001
0000
1000
0010
0100
0000
0001
0010
0100
0000
1000
0100
,
0010
0000
0001
0000
1000
0000
0001
0010
0100
0000
1000
0010
0100
0000
0001
0100
,
0010
0000
1000
0000
0001
0100
0001
0100
0010
0000
1000
0100
1000
0000
0001
0100
,
0001
0000
1000
0010
1000
0000
0001
0010
0001
0000
1000
0010
0100
0000
0001
0010
,
0100
0000
1000
0001
1000
0001
1000
0001
0100
0010
0100
0010
0100
0010
1000
0001
,
0010
0100
1000
0002
2000
0000
0000
0000
0000
0000
0000
0000
0000
0000
0000
0000
,
0000
3003
0000
0000
;
