#TITLE:Trip Machine Eternal;
#SUBTITLE:;
#ARTIST:STM 200;
#TITLETRANSLIT:;
#SUBTITLETRANSLIT:;
#ARTISTTRANSLIT:;
#GENRE:;
#CREDIT:;
#BANNER:Trip Machine Eternal-bn.png;
#BACKGROUND:Trip Machine Eternal-bg.png;
#LYRICSPATH:;
#CDTITLE:;
#MUSIC:Trip Machine Eternal.ogg;
#OFFSET:-0.280000;
#SAMPLESTART:17.059999;
#SAMPLELENGTH:12.000000;
#SELECTABLE:YES;
#BPMS:0.000000=200.000000
;
#STOPS:51.979168=1.200000
;
#BGCHANGES:;
#KEYSOUNDS:;
#ATTACKS:;

//---------------dance-single - ----------------
#NOTES:
     dance-single:
     :
     Hard:
     9:
     0.730530,0.725791,0.302076,0.053942,0.000000,474.000000,446.000000,28.000000,5.000000,0.000000,0.000000,0.730530,0.725791,0.302076,0.053942,0.000000,474.000000,446.000000,28.000000,5.000000,0.000000,0.000000:
// measure 0
0000
0000
0000
0000
,  // measure 1
0000
0000
0000
0000
,  // measure 2
0000
0000
0000
0000
,  // measure 3
0000
0000
0000
0000
,  // measure 4
0000
0000
0000
0000
,  // measure 5
0000
0000
0000
0000
,  // measure 6
0000
0000
0000
0000
,  // measure 7
0001
0100
0010
1000
0100
0010
0001
0101
,  // measure 8
0000
0100
0010
1000
0100
0010
0011
0000
,  // measure 9
0001
1000
0010
0100
0001
0011
0000
0010
,  // measure 10
0001
0100
0010
1000
1100
0000
0010
0001
,  // measure 11
0100
0010
1000
1100
0000
0100
1000
0010
,  // measure 12
0100
0001
0011
0000
0010
0100
1000
0001
,  // measure 13
0100
0000
0010
1000
0100
1000
0001
0010
,  // measure 14
1000
0010
0001
0010
0100
1000
0010
0100
,  // measure 15
0001
0000
0100
1000
0100
0001
0010
0100
,  // measure 16
1000
0010
0100
0001
0010
0000
0100
1000
,  // measure 17
0010
1000
0001
0100
1000
0100
0001
0100
,  // measure 18
0010
1000
0100
0010
0001
0000
0010
1000
,  // measure 19
0010
0001
0100
0100
0010
0010
1000
0000
,  // measure 20
0010
0000
0100
0001
0010
0001
1000
0100
,  // measure 21
0001
0100
1000
0100
0010
0001
0100
0010
,  // measure 22
1000
0000
0010
0001
0010
1000
0100
0010
,  // measure 23
0001
0100
0010
1000
0100
0000
0010
0001
,  // measure 24
0100
0001
1000
0010
0001
0010
1000
0010
,  // measure 25
0100
0001
0010
0100
1000
0000
0100
0100
,  // measure 26
0000
0010
0010
0000
0001
0001
0000
0000
,  // measure 27
1000
0000
0001
0000
0100
0010
1000
0000
,  // measure 28
0001
0000
0010
0000
0100
1000
1010
0000
,  // measure 29
0110
0000
0100
0000
0001
1000
0100
0000
,  // measure 30
0010
0000
0001
0000
1000
0100
0110
0000
,  // measure 31
0011
0000
0001
0000
1000
0001
0100
0000
,  // measure 32
0010
0000
1000
0000
0001
1000
1100
0000
,  // measure 33
1010
0000
0010
0000
0100
0001
1000
0000
,  // measure 34
0001
0000
0100
0000
0010
0100
0001
1000
,  // measure 35
0100
1000
0010
0001
0000
0010
1000
0100
,  // measure 36
0000
0001
0100
1000
0010
0000
0100
0001
,  // measure 37
0010
1000
0000
0010
0001
0100
0000
1000
,  // measure 38
0100
0001
0010
0000
0100
1000
0010
0001
,  // measure 39
0000
0010
1000
0100
0000
0001
0100
1000
,  // measure 40
0010
0000
0100
0001
0010
1000
0000
0010
,  // measure 41
0001
0100
0000
1000
0100
0001
0010
0000
,  // measure 42
2100
0000
0000
0000
,  // measure 43
3002
0000
0000
0203
0000
0320
0000
0000
,  // measure 44
1030
0010
0001
0010
1000
0100
0010
0001
,  // measure 45
0100
0010
1000
0001
0010
0100
1000
0000
,  // measure 46
0001
0100
0010
1000
0100
0001
0100
0010
,  // measure 47
0001
1000
0010
0100
0001
1000
0100
0000
,  // measure 48
0010
0001
0100
0010
0100
0001
1000
0100
,  // measure 49
0010
0001
0100
0010
1000
0001
0010
0000
,  // measure 50
0100
1000
0010
0100
0010
1000
0100
0010
,  // measure 51
0001
0001
1000
1000
1010
0000
0110
0000
,  // measure 52
0100
0001
0010
0001
1000
0100
0010
0001
,  // measure 53
0100
0010
1000
0001
0010
0100
1000
0000
,  // measure 54
0001
0100
0010
1000
0100
0001
0100
0010
,  // measure 55
0001
1000
0010
0100
0001
1000
0100
0000
,  // measure 56
0010
0001
0100
0010
0100
0001
1000
0100
,  // measure 57
0010
0001
0100
0010
1000
0001
0010
0001
,  // measure 58
0100
0000
0010
0010
0000
1000
1000
0000
,  // measure 59
0100
0100
0000
0010
0010
0001
0001
0000
,  // measure 60
0101
0000
0100
0010
1010
0000
1000
0100
,  // measure 61
0000
0100
0110
0000
0010
0001
0101
0000
,  // measure 62
0110
0000
0010
1000
1100
0000
0100
0010
,  // measure 63
0000
0010
0001
0100
0010
1000
0100
0010
,  // measure 64
0001
0100
1000
0001
0010
1000
0010
0100
,  // measure 65
0001
0010
1000
0001
0100
1000
0100
0010
,  // measure 66
1000
0010
0001
1000
0100
0001
0100
0010
,  // measure 67
0001
0100
1000
0001
0010
1000
0010
0100
,  // measure 68
0101
0000
0001
0010
0100
1000
0010
0110
,  // measure 69
0000
0100
0001
0010
0100
1000
1010
0000
,  // measure 70
0010
0100
0001
0010
0100
1100
0000
1000
,  // measure 71
0010
0100
0001
0010
0110
0000
0100
1000
,  // measure 72
0010
0100
0001
0011
0000
0010
0100
1000
,  // measure 73
0010
0100
0110
0000
0010
0100
0001
1000
,  // measure 74
0100
0001
0200
0000
0000
0000
0300
0000
;

//---------------dance-single - ----------------
#NOTES:
     dance-single:
     :
     Medium:
     8:
     0.650387,0.685469,0.614940,0.032365,0.000000,422.000000,365.000000,57.000000,3.000000,0.000000,0.000000,0.650387,0.685469,0.614940,0.032365,0.000000,422.000000,365.000000,57.000000,3.000000,0.000000,0.000000:
// measure 0
0000
0000
0000
0000
,  // measure 1
0000
0000
0000
0000
,  // measure 2
0000
0000
0000
0000
,  // measure 3
0000
0000
0000
0000
,  // measure 4
0000
0000
0000
0000
,  // measure 5
0000
0000
0000
0000
,  // measure 6
0000
0000
0000
0000
,  // measure 7
0001
0000
1000
0010
1000
0001
1000
0100
,  // measure 8
0000
0010
0001
1000
0001
0100
0001
0000
,  // measure 9
1000
0100
1000
0001
1000
0010
0000
0100
,  // measure 10
0001
1000
0001
0010
0001
0000
1000
0010
,  // measure 11
0100
0010
1000
0001
0000
1000
0100
0010
,  // measure 12
0100
1000
0001
0000
1000
0010
0100
0001
,  // measure 13
1000
0000
1010
0000
0010
1000
0000
1001
,  // measure 14
0000
1100
0000
0100
0010
0000
0011
0000
,  // measure 15
1001
0000
0000
0101
0000
0110
0000
1010
,  // measure 16
0000
1000
0100
0000
0010
0000
0011
0000
,  // measure 17
0010
0001
0000
1001
0000
0101
0000
0100
,  // measure 18
0010
0000
1010
0000
1001
0000
0000
1100
,  // measure 19
0000
0110
0000
0011
0000
0001
0100
0000
,  // measure 20
0001
0000
0011
0000
0010
0001
0000
1001
,  // measure 21
0000
0101
0000
0100
0010
0000
1010
0000
,  // measure 22
1001
0000
0000
1100
0000
0110
0000
0011
,  // measure 23
0000
0001
0100
0000
0010
0000
1010
0000
,  // measure 24
0010
1000
0000
1001
0000
1100
0000
0100
,  // measure 25
0010
0000
0011
0000
1001
0000
1000
0001
,  // measure 26
0000
0001
0010
0000
0010
0100
1000
0000
,  // measure 27
0001
0000
0001
0000
0001
0100
0010
0000
,  // measure 28
1000
0000
1000
0000
1000
0100
0010
0001
,  // measure 29
0100
0000
0100
0000
0100
0010
1000
0000
,  // measure 30
0100
0000
0100
0000
0100
0010
0001
0100
,  // measure 31
0010
0000
0010
0000
0010
1000
0001
0000
,  // measure 32
0010
0000
0010
0000
0010
0100
1000
0010
,  // measure 33
0100
0000
0100
0000
0100
0001
1000
0000
,  // measure 34
0100
0000
0100
0000
0100
0010
0001
1000
,  // measure 35
0001
0000
1000
0100
0000
0100
0001
0100
,  // measure 36
0000
0100
1000
0001
1000
0000
0001
0000
,  // measure 37
1000
0010
0000
0010
0001
0010
0000
0010
,  // measure 38
1000
0001
1000
0000
0001
0000
1000
0100
,  // measure 39
0000
0100
0001
0100
0000
0100
1000
0010
,  // measure 40
1000
0000
0001
0000
1000
0010
0000
0010
,  // measure 41
0001
0010
0000
0010
1000
0100
1000
0000
,  // measure 42
1200
0000
0000
0000
,  // measure 43
2300
0000
0000
0001
0000
3001
0000
0000
,  // measure 44
1000
0000
1000
0100
0000
0110
0000
0100
,  // measure 45
1000
1001
0101
0100
,  // measure 46
0100
0000
0001
0010
0000
0110
0000
1100
,  // measure 47
0000
1000
0100
0000
1100
0000
1010
0000
,  // measure 48
1100
0000
1000
0001
0000
0011
0000
0001
,  // measure 49
1000
1001
0011
0010
,  // measure 50
0010
0000
0001
0100
0000
0110
0000
1010
,  // measure 51
0000
1000
0010
0000
1010
0000
1001
0000
,  // measure 52
0011
0000
0010
0100
0000
1100
0000
0100
,  // measure 53
0010
0011
0101
0100
,  // measure 54
0100
0000
0001
0010
0000
0110
0000
1100
,  // measure 55
0000
1000
0100
0000
1100
0000
1010
0000
,  // measure 56
1100
0000
1000
0001
0000
0011
0000
0001
,  // measure 57
1000
1001
0011
0010
,  // measure 58
0010
0000
0001
0100
0000
0100
0010
0000
,  // measure 59
0010
1000
0000
1000
0100
0010
0100
0000
,  // measure 60
1000
0000
0001
0100
0001
0000
1000
0010
,  // measure 61
0000
0010
1000
0000
0001
0010
0001
0000
,  // measure 62
1000
0000
0100
0010
0100
0000
1000
0010
,  // measure 63
0000
0010
1000
0001
0010
0001
0010
0001
,  // measure 64
1000
0100
1000
0001
0100
0001
1000
0001
,  // measure 65
1000
0010
1000
0001
0010
0001
1000
0001
,  // measure 66
1000
0100
1000
0001
0100
0001
0010
0100
,  // measure 67
1000
0010
1000
0001
0010
0001
0100
0010
,  // measure 68
1000
0000
0010
1000
0100
1000
0001
1000
,  // measure 69
0000
0001
0010
0001
0100
0001
1000
0000
,  // measure 70
0100
1000
0010
1000
0001
1000
0000
0001
,  // measure 71
0100
0001
0010
0001
1000
0000
0100
1000
,  // measure 72
0001
1000
0010
1000
0000
0001
0100
0001
,  // measure 73
1000
0001
0010
0000
0100
1000
0010
0100
,  // measure 74
0001
0010
0200
0000
0000
0000
0300
0000
;

//---------------dance-single - ----------------
#NOTES:
     dance-single:
     :
     Easy:
     7:
     0.510138,0.564504,0.323653,0.032365,0.000000,331.000000,301.000000,30.000000,3.000000,0.000000,0.000000,0.510138,0.564504,0.323653,0.032365,0.000000,331.000000,301.000000,30.000000,3.000000,0.000000,0.000000:
// measure 0
0000
0000
0000
0000
,  // measure 1
0000
0000
0000
0000
,  // measure 2
0000
0000
0000
0000
,  // measure 3
0000
0000
0000
0000
,  // measure 4
0000
0000
0000
0000
,  // measure 5
0000
0000
0000
0000
,  // measure 6
0000
0000
0000
0000
,  // measure 7
0001
0000
1000
0000
0001
0000
1000
0100
,  // measure 8
0000
0010
0000
0100
0000
0010
0001
0000
,  // measure 9
1000
0000
0001
0000
1000
0010
0000
0100
,  // measure 10
0000
0010
0000
0100
0001
0000
0100
0000
,  // measure 11
0010
0000
1000
0001
0000
0010
0000
0100
,  // measure 12
0000
1000
0001
0000
0100
0000
0010
0000
,  // measure 13
1000
0000
1100
0000
0000
0100
0000
1000
,  // measure 14
0000
0010
0000
0100
0001
0000
0010
0000
,  // measure 15
0011
0000
0000
0001
0000
0010
0000
0100
,  // measure 16
0000
1000
0100
0000
1000
0000
1010
0000
,  // measure 17
0000
0010
0000
1000
0000
0100
0000
0010
,  // measure 18
0001
0000
0100
0000
0101
0000
0000
0001
,  // measure 19
0000
0100
0000
0010
1000
0001
1000
0000
,  // measure 20
1001
0000
0011
0000
0000
0010
0000
0001
,  // measure 21
0000
0100
0000
0010
1000
0000
0100
0000
,  // measure 22
1100
0000
0000
1000
0000
0100
0000
0010
,  // measure 23
0000
0001
0010
0000
0001
0000
0101
0000
,  // measure 24
0000
0100
0000
0001
0000
0010
0000
0100
,  // measure 25
1000
0000
0010
0000
1010
0000
1000
0001
,  // measure 26
0000
1000
0001
0000
0100
0010
0100
0000
,  // measure 27
0001
1000
0001
1001
,  // measure 28
0100
0010
0100
0110
,  // measure 29
0001
1000
0001
1001
,  // measure 30
0010
0100
0010
0110
,  // measure 31
0001
1000
0001
0101
,  // measure 32
1000
0001
1000
1100
,  // measure 33
0001
1000
0001
0011
,  // measure 34
1000
0001
1000
1010
,  // measure 35
1001
0000
0001
0100
0000
0010
1000
0010
,  // measure 36
0000
0100
0001
0100
0001
0000
1000
0000
,  // measure 37
0001
0010
0000
0100
1000
0100
0000
0010
,  // measure 38
0001
0010
0001
0000
1001
0000
1000
0100
,  // measure 39
0000
0010
0001
0010
0000
0100
1000
0100
,  // measure 40
1000
0000
0001
0000
1000
0010
0000
0100
,  // measure 41
0001
0100
0000
0010
1000
0010
1000
0000
,  // measure 42
0002
0000
0000
0000
,  // measure 43
2003
0000
0000
0100
0000
3100
0000
0000
,  // measure 44
1100
0000
0000
0100
0000
0100
0000
0100
,  // measure 45
0010
0001
0101
0001
,  // measure 46
0010
0000
0000
0100
0000
0100
0000
0100
,  // measure 47
0000
0100
1000
0000
0010
0000
1010
0000
,  // measure 48
1100
0000
0000
0100
0000
0100
0000
0100
,  // measure 49
0010
0001
0101
0001
,  // measure 50
0010
0000
0000
0100
0000
0100
0000
0100
,  // measure 51
0010
0100
0010
0100
1000
0000
1001
0000
,  // measure 52
0011
0000
0000
0010
0000
0010
0000
0010
,  // measure 53
0100
1000
1010
1000
,  // measure 54
0100
0000
0000
0010
0000
0010
0000
0010
,  // measure 55
0000
0010
0001
0000
0100
0000
0101
0000
,  // measure 56
0011
0000
0000
0010
0000
0010
0000
0010
,  // measure 57
0100
1000
1010
1000
,  // measure 58
0100
0000
0010
0100
0000
0010
0100
0000
,  // measure 59
1000
0001
0000
1000
0001
0010
0001
0000
,  // measure 60
0100
0000
0001
0010
0001
0000
1000
0100
,  // measure 61
0000
1000
0100
0000
1000
0010
1000
0000
,  // measure 62
0001
0000
0010
0001
0010
0000
0001
0100
,  // measure 63
0000
0001
0100
0000
0010
0000
1000
0000
,  // measure 64
0001
0001
1000
1000
,  // measure 65
0100
0100
0010
0010
,  // measure 66
0001
1000
0001
0000
1000
0010
1000
0000
,  // measure 67
0001
0100
0001
0000
1000
0100
1000
0000
,  // measure 68
0001
0000
0001
0000
1000
0000
1000
0010
,  // measure 69
0000
0010
0000
0100
0000
0100
0001
0000
,  // measure 70
0001
0000
1000
0000
1000
0100
0000
0100
,  // measure 71
0000
0010
0000
0010
0001
0000
0001
0000
,  // measure 72
0100
0000
0100
0010
0000
0010
0000
1000
,  // measure 73
0000
1000
0100
0000
0100
0000
0010
0000
,  // measure 74
0010
0200
0000
0300
;
