#TITLE:Thrity One;
#SUBTITLE:;
#ARTIST:Lydian Collective;
#TITLETRANSLIT:;
#SUBTITLETRANSLIT:;
#ARTISTTRANSLIT:;
#GENRE:;
#CREDIT:;
#BANNER:banner.png;
#BACKGROUND:background.png;
#LYRICSPATH:;
#CDTITLE:;
#MUSIC:Lydian Collective - Thirty One (Official).mp3;
#OFFSET:1.680656;
#SAMPLESTART:14.161411;
#SAMPLELENGTH:13.584904;
#LASTBEATHINT:1.175802;
#SELECTABLE:YES;
#BPMS:0.000000=106.030464
;
#STOPS:
;
#BGCHANGES:;
#KEYSOUNDS:;
#ATTACKS:;

//---------------dance-single - ----------------
#NOTES:
     dance-single:
     :
     Hard:
     9:
     0.639391,0.652525,0.421562,0.170419,1.049422,499.000000,452.000000,47.000000,19.000000,0.000000,0.000000,0.639391,0.652525,0.421562,0.170419,1.049422,499.000000,452.000000,47.000000,19.000000,0.000000,0.000000:
0000
0000
0000
0000
,
0000
0000
0000
0000
,
0000
0000
0000
0000
,
0000
0000
0000
0000
,
2002
0000
0000
0000
,
0000
3000
0020
0000
,
0003
0000
0000
0000
0000
0000
0000
0000
0031
1000
0001
0100
0000
0010
0000
1000
,
0001
0000
1000
0100
0000
0011
0000
0001
0000
1000
0010
0000
0100
0000
1001
0000
,
0010
1000
0001
0010
0000
0001
0000
1000
0100
0000
0010
0001
0000
0110
0000
1000
,
0000
0010
0100
0000
0001
0000
1100
0000
0001
0100
0010
1000
0010
0100
0001
0010
,
0100
0000
0010
0001
0000
1001
0000
0101
0000
1000
0010
0000
1000
0100
1000
0001
,
0010
0000
0001
0100
0001
1000
0010
0000
1000
0010
0100
0001
1000
0000
0001
0010
,
0000
1001
0000
1100
0000
0010
0100
0000
0001
0010
0001
1000
0100
0000
1000
0100
,
0010
0001
0100
0000
0001
0100
0010
1000
0010
0000
0010
1000
0000
1010
0000
1000
,
0000
0100
1000
0000
0100
0000
0110
0000
0010
0001
0010
0001
0100
0001
0000
0001
,
0100
0000
0100
0010
0000
1010
0000
1000
0000
0010
0100
0000
0001
0000
0011
0000
,
0010
0000
0100
0010
0001
0000
1000
0000
0000
0000
0001
0000
0000
0000
0010
0000
0200
0000
0000
0000
0000
0000
1000
0000
0300
0000
0020
0000
0000
0000
0001
0000
,
0000
0031
2000
0000
3010
0000
0002
0000
0103
0000
0200
0010
0000
0010
0300
1000
,
0002
0000
0000
0010
0000
0203
0000
0310
0000
0010
2000
0000
3100
0000
0020
0000
,
0031
0000
0200
0010
0000
0301
0000
0010
0100
0000
1000
0001
0000
0011
0000
0001
,
0000
1000
0100
0000
0010
0000
0101
0000
0010
0000
1000
0010
0000
0100
0001
0100
,
0010
0000
0000
0000
0000
0000
0100
0000
0000
0001
0000
0000
0000
0000
0000
0011
0000
0000
0000
0000
0000
1000
0000
0000
0000
0000
0000
0100
0000
0000
1000
0000
0001
0000
0010
0000
0100
0000
0000
0010
0000
0000
0001
0000
0000
0000
0000
0000
,
1000
0100
1000
0010
0000
1000
0010
0100
0001
0000
0001
0010
0000
0100
0000
1000
,
0010
0100
0010
0000
1000
0100
0001
0100
1000
0001
0010
1000
0010
0001
0100
0010
,
0100
0001
1000
0100
0010
0000
0010
0001
0000
1001
0000
1000
0100
0010
0100
0000
,
0010
0001
0010
0100
0010
0001
0100
0010
0100
1000
0100
0010
1000
0100
0010
0001
,
1000
0000
1000
0001
0000
0100
0000
0001
0000
0001
0010
0000
0100
0000
1000
0000
,
0100
0000
0010
0001
1000
0000
0100
0000
0000
0000
1000
0000
0000
0000
0010
0000
0100
0000
0000
0000
0001
0000
0010
0000
0000
0000
0200
0000
0000
0000
1300
0000
,
0000
0010
1000
0100
1000
0000
0010
0000
0100
0001
1000
0010
0000
1000
0000
0100
,
0010
0000
0000
0000
0001
0000
0000
0001
0000
0000
1000
0000
0000
0000
0001
0000
0000
1000
0000
0000
0010
0000
0000
0010
0000
0000
0010
0000
1000
0000
0000
0000
,
1000
0000
0202
0303
0000
0220
0330
0000
1000
0100
0010
0001
0000
0100
0000
0001
,
0000
0000
0010
0000
0100
0000
0010
0000
0001
0000
0000
0000
0100
0000
0000
0000
0010
0000
1000
0010
0100
0000
0001
0000
0000
0000
1000
0000
0000
0000
1000
0000
,
0100
0000
0010
0001
0000
1001
0000
0010
1000
0001
0100
0000
0010
0000
1001
0000
,
0010
0100
1000
0001
0000
1010
0000
0010
0100
0000
0001
1000
0000
1100
0000
0010
,
0001
0010
0100
0000
1000
0000
0011
0000
1000
0001
0100
0010
0000
1010
0000
1000
,
0001
0000
0001
0010
0000
0110
0000
0010
0001
1000
0100
0000
1000
0000
1010
0000
,
0010
1000
0100
0010
0000
0011
0000
0001
1000
0000
1000
0001
0000
0101
0000
0001
,
0100
0010
1000
0000
0001
0000
1100
0000
0010
0001
1000
0100
0010
0001
0100
0010
,
1000
0000
1000
0010
0000
1001
0000
0001
0010
0001
0100
0000
0010
0000
1001
0000
,
1000
0001
0010
0100
0000
1001
0000
1000
0100
0000
0100
0010
0000
0110
0000
1000
,
0100
0000
1000
0000
0010
0000
0000
0000
0100
0000
0000
0000
0101
0000
0000
0000
1000
0000
0010
0000
1000
0000
0001
0100
0010
0000
1000
0000
0000
0000
1000
0000
,
0100
0000
0100
1000
0000
1010
0000
0010
0000
0100
0001
0000
1000
0000
0011
0000
,
0001
0100
0010
0100
0000
1001
0000
0001
0010
0000
0001
0100
0000
1010
0000
1000
,
0000
0000
0000
0100
0000
0000
0010
0000
0001
0000
0010
0000
0100
0000
0000
1000
0000
0000
0001
0000
0000
0000
0000
0000
1000
0000
0000
0010
0000
0000
0100
0000
0000
0001
0000
0000
0000
0000
0000
1010
0000
0000
0000
0000
0000
1000
0000
0000
,
0100
0000
0100
0010
0000
0011
0000
0101
0000
1010
1000
0000
0001
0000
1100
0000
,
0010
0100
0001
0010
0000
0110
0000
0100
1000
0000
0010
0100
0000
1001
0000
0001
,
0000
0000
0010
0000
0001
0000
0000
0000
0100
0000
0000
0000
1001
0000
0000
0000
1000
0000
0010
1000
0010
0000
0100
0000
0001
0000
0010
0000
0100
0000
1000
0000
,
0200
0000
0000
0000
,
0000
0000
0300
0000
;

//---------------dance-single - ----------------
#NOTES:
     dance-single:
     :
     Medium:
     7:
     0.438220,0.478518,0.242174,0.116602,0.623374,342.000000,315.000000,27.000000,13.000000,0.000000,0.000000,0.438220,0.478518,0.242174,0.116602,0.623374,342.000000,315.000000,27.000000,13.000000,0.000000,0.000000:
0000
0000
0000
0000
,
0000
0000
0000
0000
,
0000
0000
0000
0000
,
0000
0000
0000
0000
,
0000
0000
0000
0000
,
0000
0000
0000
0000
,
0000
0000
0000
0000
0000
0000
0000
0000
0000
0000
1010
0000
0000
1001
0000
0000
,
0101
0000
1000
0001
0000
0010
0000
0100
0000
0010
0100
0000
1000
0000
0100
0000
,
0010
0000
0001
1000
0000
0010
0000
1000
0100
0000
0010
0001
0000
0010
0000
0100
,
0000
0001
0100
0000
1000
0000
0010
0000
0100
0000
0010
1000
0000
0001
0000
1000
,
0010
0000
1000
0100
0000
0010
0000
0001
0000
1000
0002
0000
0010
0000
0013
0000
,
0020
0000
0100
0000
0130
0000
0200
0000
1000
0000
1300
0000
0010
0000
1000
0100
,
0000
0010
0000
0001
0000
0100
0020
0000
1000
0000
1030
0000
0200
0000
0001
0000
,
0301
0000
2000
0000
0010
0000
3010
0000
0101
0000
0000
0010
0000
0100
0000
0010
,
0000
0000
0001
0000
0010
0000
0001
0000
0000
0000
0101
0000
0000
1001
0000
0000
,
1100
0000
0000
1000
0000
0010
0000
1000
0000
0000
0001
0000
0010
0000
0001
0000
,
0000
0000
0100
0100
0000
0010
0000
0010
2000
0000
0000
0100
0000
3002
0000
0010
,
0003
0000
0200
0000
0010
0000
0310
0000
1000
0000
0001
0000
0000
1001
0000
0000
,
0020
0000
0000
0100
0000
0032
0000
0100
0003
0000
0020
0000
1030
0000
0100
0000
,
1000
0000
0001
0000
0000
0010
0000
0000
0001
0000
0001
0010
0000
1100
0000
1000
,
0000
0000
0010
0000
1000
0000
1010
0000
0000
0000
0010
0100
0000
0100
0000
0010
,
1000
0000
0000
0001
0000
1001
0000
0000
0000
0000
0010
1000
0010
1000
0100
0000
,
0000
0000
0100
0010
0000
0011
0000
0000
0001
0000
0100
0001
0000
1000
0000
0010
,
0000
1000
0100
0000
0010
0001
0010
0000
0001
0000
0100
0010
0100
0000
0010
0000
,
1000
0010
1000
0000
0001
0000
1000
0100
0000
0010
0000
0001
0000
1000
0100
0000
,
1000
0010
1000
0000
0001
0000
0100
0001
0100
0000
0010
0000
1000
0001
1000
0000
,
0100
0000
0000
1000
0000
0001
0000
1000
0000
0000
0010
0000
1000
0000
0010
0000
,
0100
0000
0001
0000
0000
1100
0000
0000
0101
0000
0000
0010
0000
1000
0000
0001
,
0000
0000
1000
0000
0100
0000
1000
0000
0010
0000
0100
0000
0000
0110
0000
0000
,
0001
0000
0000
0000
1001
0000
0000
0000
0000
0000
0000
0000
0011
0000
0000
0000
0000
0000
0000
0000
1000
0000
0000
0001
0000
0000
1000
0000
0001
0000
0000
0000
,
0000
0000
0110
0000
0000
1010
0000
0000
1100
0000
0000
0010
0000
1000
0000
0100
,
0000
0000
0010
0000
0001
0000
0100
0000
0000
0000
0010
0000
0000
1010
0000
0000
,
0101
0000
0000
0001
0000
1000
0000
0001
0000
0010
0000
0000
0001
0000
1000
0000
,
0001
0000
0100
0000
0000
0010
0000
0000
1010
0000
0000
0100
0000
0010
0000
0001
,
0000
0010
0000
0000
0100
0000
1000
0000
0100
0000
0010
0000
0000
0001
0000
0000
,
1001
0000
0000
1000
0000
0010
0000
1000
0000
0100
0000
0000
0010
0000
0001
0000
,
0100
0000
0001
0000
0000
0100
0000
0000
0110
0000
0000
0010
0000
0100
0000
0001
,
0000
1000
0000
0000
0100
0000
1000
0000
0010
0000
0100
0000
0001
0000
1000
0000
,
0001
0000
0000
0100
0000
0010
0000
1000
0000
0010
0000
0000
1000
0000
0100
0000
,
0010
0000
0001
0000
0000
1000
0000
0000
0011
0000
0000
0010
0000
0001
0000
0100
,
0000
0010
0000
0000
1000
0000
0001
0000
0010
0000
0100
0000
0000
1100
0000
0000
,
0001
0000
1000
0001
0000
1000
0000
0010
0000
1000
0100
0000
0010
0000
0100
0000
,
0010
0000
0001
1000
0000
0001
0000
1000
0010
0000
0100
0010
0000
1000
0000
0010
,
0000
1000
0010
0000
0100
0000
0001
0000
0100
0000
0010
1000
0000
0100
0000
0010
,
0001
0000
1000
0100
0000
0010
0000
0100
0000
1000
0010
0000
1000
0000
0001
0000
,
0100
0000
0001
1000
0000
0010
0000
1000
0100
0000
0010
0001
0000
0100
0000
0001
,
0000
0010
0100
0000
1000
0000
0010
0000
0100
0000
0001
1000
0000
0010
0000
0100
,
0002
0000
0000
0000
,
0000
0000
0003
0000
;

//---------------dance-single - ----------------
#NOTES:
     dance-single:
     :
     Easy:
     5:
     0.274208,0.326262,0.062786,0.170419,0.327384,214.000000,207.000000,7.000000,19.000000,0.000000,0.000000,0.274208,0.326262,0.062786,0.170419,0.327384,214.000000,207.000000,7.000000,19.000000,0.000000,0.000000:
0000
0000
0000
0000
,
0000
0000
0000
0000
,
0000
0000
0000
0000
,
0000
0000
0000
0000
,
0000
0000
0000
0000
,
0000
0000
0000
0000
,
0000
0000
0000
0000
,
1000
0000
0000
0001
0000
0000
0000
0001
0000
0000
0100
0000
0010
0000
0100
0000
,
0000
0000
1000
0000
0000
1000
0000
0000
1000
0000
0000
0010
0000
0000
0000
0010
,
0000
0000
0100
0000
0001
0000
0100
0000
0000
0000
0001
0000
0000
0001
0000
0000
,
0001
0000
0000
0010
0000
0100
0000
0000
0000
0000
1100
0000
0000
0000
1000
0000
,
0010
0000
0000
0000
0010
0000
0100
0000
0000
0000
0100
0000
0001
0000
0000
1000
,
0000
0001
0000
0000
0000
0000
0110
0000
0000
0000
0010
0000
0100
0000
0000
0000
,
0100
0000
1000
0000
0000
0000
1000
0000
0010
0000
0000
1000
0000
0001
0000
0000
,
0000
0000
0010
0000
0100
0000
0010
0000
0000
0000
0001
0000
0000
1000
0000
0000
,
0100
0000
0000
0010
0000
0001
0000
0000
0000
0000
1000
0000
0100
0000
0001
0000
,
0000
0000
0010
0000
0000
0100
0000
0000
2000
0000
0000
0000
0000
3020
0000
0000
,
0000
0000
0230
0000
0000
0000
0320
0000
0000
0000
1030
0000
0000
0100
0000
0000
,
0020
0000
0000
0000
0000
0032
0000
0000
0000
0000
2003
0000
0000
0000
3020
0000
,
0000
0000
0130
0000
0000
0001
0000
0000
0010
0000
0000
0010
0000
0000
0000
0001
,
0000
0000
1000
0000
0010
0000
1000
0000
0000
0000
0001
0000
0000
1000
0000
0000
,
0100
0000
0000
0000
0000
0010
0000
0000
0000
0000
0100
0000
0010
0000
0001
0000
,
0000
0000
1000
0000
0000
0001
0000
0000
0010
0000
0000
0100
0000
0010
0000
0000
,
0000
0022
0033
0000
0202
0303
0000
2020
,
3030
0000
0000
0000
1000
0000
0000
0100
0000
1000
0000
0000
0000
0000
0010
0000
,
1000
1000
0001
0010
0010
0001
1000
1000
,
0100
0000
0000
0010
0000
0000
0000
0100
0000
0000
0010
0000
0000
0000
1001
0000
,
0000
0000
0001
0000
0000
1000
0000
0000
0001
0000
0000
0100
0000
0000
0000
0010
,
0000
0000
1000
0000
0000
0000
1100
0000
0000
0000
0010
0000
0000
0001
0000
0000
,
0020
0000
0001
0000
0000
0000
0002
0030
0000
0000
2003
0000
0000
0000
3010
0000
,
0000
0000
0100
0000
0000
0010
0000
0000
0010
0000
0000
1000
0000
0000
0000
0001
,
0000
0000
1000
0000
0010
0000
1000
0000
0000
0000
0100
0000
0000
0010
0000
0000
,
0001
0000
0000
0010
0000
0001
0000
0000
0000
0010
0000
0000
0001
0000
0100
0000
,
0000
0000
0010
0000
0000
1000
0000
0000
0100
0000
0000
1000
0000
0100
0000
0000
,
0000
1000
0000
0000
0100
0000
0010
0000
0000
0000
0100
0000
0000
0010
0000
0000
,
0001
0000
0000
0100
0000
0001
0000
0000
0000
0100
0000
0000
0010
0000
0100
0000
,
0000
0000
0010
0000
0000
1000
0000
0000
0100
0000
0000
0010
0000
0100
0000
0000
,
0000
0010
0000
0000
0001
0000
0010
0000
0000
0000
0001
0000
1000
0000
0001
0000
,
0100
0000
0000
0010
0000
0100
0000
0000
0000
0010
0000
0000
1000
0000
0100
0000
,
0000
0000
1000
0000
0000
0010
0000
0000
1000
0000
0000
0001
0000
1000
0000
0000
,
0000
0001
0000
0000
0010
0000
0001
0000
0000
0000
0002
0000
1000
0000
1003
0000
,
0010
0000
0000
0001
0000
0000
0000
0100
0000
0000
0010
0000
0100
0000
0010
0000
,
0000
0000
1000
0000
0000
0010
0000
0000
0100
0000
0000
0001
0000
0000
0000
0010
,
0000
0000
0001
0000
1000
0000
0001
0000
0000
0000
1000
0000
0000
0100
0000
0000
,
1000
0000
0000
0001
0000
0000
0000
0100
0000
0000
0010
0000
1000
0000
0010
0000
,
0000
0000
1000
0000
0000
0100
0000
0000
0010
0000
0000
0001
0000
0000
0000
1000
,
0000
0000
0001
0000
0100
0000
0001
0000
0000
0000
0100
0000
0000
0010
0000
0000
,
2000
0000
0000
0000
,
0000
0000
3000
0000
;

//---------------dance-single - ----------------
#NOTES:
     dance-single:
     :
     Beginner:
     4:
     0.189639,0.239259,0.143511,0.062786,0.179388,148.000000,132.000000,16.000000,7.000000,0.000000,0.000000,0.189639,0.239259,0.143511,0.062786,0.179388,148.000000,132.000000,16.000000,7.000000,0.000000,0.000000:
// measure 0
0000
0000
0000
0000
,  // measure 1
0000
0000
0000
0000
,  // measure 2
0000
0000
0000
0000
,  // measure 3
0000
0000
0000
0000
,  // measure 4
0000
0000
0000
0000
,  // measure 5
0000
0000
0000
0000
,  // measure 6
0000
0000
0000
0000
,  // measure 7
1000
0000
0000
0000
0000
0001
0000
0000
0000
0000
1000
0000
0000
0000
0001
0000
,  // measure 8
0000
0000
1000
0000
0000
0001
0000
0000
0100
0000
0000
0000
0000
0010
0000
0000
,  // measure 9
0000
0000
0100
0000
0000
0000
0010
0000
0000
0000
0100
0000
0000
0010
0000
0000
,  // measure 10
1000
0000
0000
0000
0000
0100
0000
0000
0000
0000
0011
0000
0000
0000
0000
0000
,  // measure 11
1001
0000
0000
0101
0000
0000
0001
0000
,  // measure 12
0000
0010
0000
0000
0000
0000
1100
0000
0000
0000
0000
0000
1010
0000
0000
0000
,  // measure 13
0000
0000
0110
0000
0000
0000
0000
0000
0001
0000
0000
0000
0000
0001
0000
0000
,  // measure 14
0000
0000
1000
0000
0000
0000
1000
0000
0000
0000
0010
0000
0000
0010
0000
0000
,  // measure 15
0100
0000
0000
0000
0000
0100
0000
0000
0000
0000
0001
0000
0000
0000
0001
0000
,  // measure 16
0000
0000
0010
0000
0000
0010
0000
0000
0200
0000
0000
0000
0000
0000
0000
0000
,  // measure 17
0000
0000
0000
0000
,  // measure 18
0320
0000
0000
0000
,  // measure 19
0000
0030
1001
0000
,  // measure 20
0000
0010
0000
0100
0000
0010
0000
0000
,  // measure 21
1100
0000
0000
0000
0000
0010
0000
0001
,  // measure 22
0000
0000
0010
0000
0000
0000
0000
0000
0001
0000
0000
0000
0000
0100
0000
0000
,  // measure 23
0000
0110
0000
0000
1010
0000
0000
0101
,  // measure 24
0000
0000
0000
0000
0010
0000
0000
0000
0000
0100
0000
0000
0000
0000
1100
0000
,  // measure 25
0000
0000
1001
0000
0000
0110
0000
0000
,  // measure 26
0001
0000
0000
0000
0000
1000
0000
0000
0000
0000
1000
0000
0000
0000
0010
0000
,  // measure 27
0000
0000
1000
0000
0000
0000
0000
0000
0001
0000
0000
0000
0000
0010
0000
0000
,  // measure 28
0000
0010
0000
0100
0000
0010
0000
0000
,  // measure 29
0001
0000
0000
0000
0000
1000
0000
0000
0000
0000
0010
0000
0000
0000
0100
0000
,  // measure 30
0000
0010
0000
0000
0002
0000
0000
0000
,  // measure 31
0000
2003
0000
0000
0000
3020
0000
0000
,  // measure 32
0130
0000
0000
0000
0000
0100
0000
0000
0000
0001
0000
0000
0001
0000
0000
0000
,  // measure 33
0000
0000
1000
0000
0000
1000
0000
0000
0100
0000
0000
0000
0000
0100
0000
0000
,  // measure 34
0000
0010
0000
0000
0010
0000
0000
0000
0000
0000
0001
0000
0000
0001
0000
0000
,  // measure 35
1000
0000
0000
0000
0000
1000
0000
0000
0000
0010
0000
0000
0010
0000
0000
0000
,  // measure 36
0000
0000
1000
0000
0000
1000
0000
0000
0001
0000
0000
0000
0000
0001
0000
0000
,  // measure 37
0000
0100
0000
0000
0100
0000
0000
0000
0000
0000
0010
0000
0000
0010
0000
0000
,  // measure 38
1000
0000
0000
0000
0000
1001
0000
0000
0000
0001
0000
0000
1000
0000
0000
0000
,  // measure 39
0000
0000
0010
0000
0000
0010
0000
0000
0100
0000
0000
0000
0000
0110
0000
0000
,  // measure 40
0000
0001
0000
0000
0001
0000
0000
0000
0000
0000
2000
0000
0000
0000
0000
0000
,  // measure 41
3001
0000
0000
0000
0000
0010
0000
0000
0000
0000
0001
0000
0000
0000
0010
0000
,  // measure 42
0000
0000
0001
0000
0000
0001
0000
0000
0100
0000
0000
0000
0000
0010
0000
0000
,  // measure 43
0000
0000
0100
0000
0000
0000
0010
0000
0000
0000
0100
0000
0000
0100
0000
0000
,  // measure 44
0001
0000
0000
0000
0000
1000
0000
0000
0000
0000
0001
0000
0000
0000
1000
0000
,  // measure 45
0000
0000
0001
0000
0000
0001
0000
0000
0010
0000
0000
0000
0000
0100
0000
0000
,  // measure 46
0000
0000
0010
0000
0000
0000
0100
0000
0000
0000
0010
0000
0000
0010
0000
0000
,  // measure 47
0020
0000
0000
0000
,  // measure 48
0000
0000
0030
0000
;
