#VERSION:0.83;
#TITLE:Slow Me Down;
#SUBTITLE:;
#ARTIST:Emmy Rossum;
#TITLETRANSLIT:;
#SUBTITLETRANSLIT:;
#ARTISTTRANSLIT:;
#GENRE:;
#ORIGIN:;
#CREDIT:;
#BANNER:[Uncommon Time] - Slow Me Down.png;
#BACKGROUND:[Uncommon Time] - Slow Me Down-bg.png;
#PREVIEWVID:;
#JACKET:[Uncommon Time] - Slow Me Down-jacket.png;
#CDIMAGE:;
#DISCIMAGE:;
#LYRICSPATH:;
#CDTITLE:;
#MUSIC:[Uncommon Time] - Slow Me Down;
#OFFSET:-1.236000;
#SAMPLESTART:45.836998;
#SAMPLELENGTH:23.414639;
#SELECTABLE:YES;
#DISPLAYBPM:62.000000:123.000000;
#BPMS:0.000=123.000,
22.500=61.500,
24.000=123.000,
59.000=246.000,
60.000=123.000,
72.000=61.500,
81.000=123.000,
151.500=246.000,
152.500=123.000,
170.500=58.750,
171.000=54.650,
171.500=48.450,
172.000=45.250;
#STOPS:59.000=0.244,
151.500=0.244,
170.500=0.244;
#DELAYS:;
#WARPS:;
#TIMESIGNATURES:0.000=3=4;
#TICKCOUNTS:0.000=4;
#COMBOS:0.000=1;
#SPEEDS:0.000=1.000=0.000=0;
#SCROLLS:0.000=1.000;
#FAKES:;
#LABELS:0.000=Song Start;
#BGCHANGES:0.500=[Uncommon Time] - Slow Me Down.avi=1.000=1=0=0=StretchNoLoop==CrossFade==,
99999=-nosongbg-=1.000=0=0=0 // don't automatically add -songbackground-
;
#KEYSOUNDS:;
#ATTACKS:
;

//---------------dance-single - ----------------
#NOTEDATA:;
#CHARTNAME:;
#STEPSTYPE:dance-single;
#DESCRIPTION:;
#CHARTSTYLE:;
#DIFFICULTY:Hard;
#METER:7;
#RADARVALUES:0.360608,0.415184,0.085207,0.596449,0.015976,237.000000,229.000000,8.000000,56.000000,0.000000,0.000000,0.000000,0.000000,0.000000,0.360608,0.415184,0.085207,0.596449,0.015976,237.000000,229.000000,8.000000,56.000000,0.000000,0.000000,0.000000,0.000000,0.000000;
#CREDIT:;
#DISPLAYBPM:62.000000:123.000000;
#NOTES:
0000
0000
0000
0000
,
0000
0000
0000
0000
,
0000
0000
0000
0000
,
0001
0100
0010
1000
0001
0000
1000
0100
,
0010
0001
1000
0000
0001
0010
0100
1000
,
0001
0000
1000
0010
0100
0001
0000
0000
,
1000
0100
0100
1000
0001
0001
1000
0010
,
0100
0001
1000
0000
0001
0010
0010
0001
,
1000
1000
0001
0100
0010
1000
0001
0000
,
0100
0010
0100
0001
1000
0001
0010
0100
,
0010
0001
1000
0000
1010
0000
0110
0000
,
0101
2002
0000
3003
,
0001
0100
0100
0010
1000
1000
0001
0100
,
0010
1000
0001
0000
1000
0100
0100
0010
,
0001
0001
1000
0100
0010
0001
1000
0000
,
0010
0100
0010
1000
0001
1000
0100
0010
,
0100
1000
0001
1000
0011
0000
0110
0000
,
1100
2002
0000
3003
,
2000
0000
0000
0000
3000
0000
2000
0000
0000
0000
0000
0000
3000
0000
1000
0010
,
0000
0010
0100
0100
0001
0000
0010
0000
0002
0000
0000
0000
0003
0000
0002
0000
,
0000
0000
2003
0010
0010
3020
0200
0030
,
0302
0000
2000
0000
3000
2003
0000
0000
,
3001
0020
0000
0130
1000
0100
0002
0000
,
0203
0000
0320
0001
0001
0032
2000
0003
,
3020
0000
0200
0000
0300
0230
0000
0010
,
0320
1000
2030
0001
3002
0000
0023
0000
,
0230
0000
2300
0100
0100
3200
0020
0300
,
0032
0000
0200
0000
0303
0200
0000
0000
,
0310
0020
0000
1030
2000
0001
3002
0000
,
0003
1000
0002
0000
0023
0000
2030
0000
,
3020
0032
0000
0003
,
1000
1000
1000
1000
2000
0000
3020
0000
,
0230
0000
0301
0100
0001
0100
0002
0000
,
1003
0100
1000
0100
2000
0000
3010
0100
,
0010
0100
0020
0000
0100
0000
0100
0000
,
0130
0000
0010
1000
0010
1000
0020
0000
,
1030
0001
1000
0001
2000
0000
3001
0010
,
0001
0010
0002
0000
0013
0100
0010
0100
,
0000
1000
0100
0000
1000
0100
0000
1000
,
0100
0010
0001
0010
0000
0001
0100
0000
,
0001
0100
0000
0001
0100
0010
1000
0010
,
0000
0000
0100
0010
1000
0002
0000
0003
,
0010
0100
1000
0002
0000
0003
2000
3020
,
0230
0000
0000
0000
0000
0300
0000
0000
0000
0000
0000
0000
0000
0000
0000
0000
;

//---------------dance-single - ----------------
#NOTEDATA:;
#CHARTNAME:;
#STEPSTYPE:dance-single;
#DESCRIPTION:;
#CHARTSTYLE:;
#DIFFICULTY:Medium;
#METER:5;
#RADARVALUES:0.260186,0.276790,0.021302,0.575147,0.010651,171.000000,169.000000,2.000000,54.000000,0.000000,0.000000,0.000000,0.000000,0.000000,0.260186,0.276790,0.021302,0.575147,0.010651,171.000000,169.000000,2.000000,54.000000,0.000000,0.000000,0.000000,0.000000,0.000000;
#CREDIT:;
#DISPLAYBPM:62.000000:123.000000;
#NOTES:
0000
0000
0000
0000
,
0000
0000
0000
0000
,
0000
0000
0000
0000
,
0001
0100
0010
1000
,
0010
0100
0001
0010
,
0100
0000
1000
0000
0100
0100
0000
0000
,
0010
0001
1000
0020
0000
0030
0010
1000
,
0001
0020
0000
0030
0001
0010
0100
2000
,
0000
3000
1000
0100
0010
0002
0000
0003
,
0100
0001
1000
0200
0000
0300
0100
1000
,
0001
0200
0000
0300
0002
0000
0203
0000
,
0320
2030
0000
3000
,
0010
1000
0010
2000
0000
3000
0001
1000
,
0001
2000
0000
3000
0001
0010
0001
0020
,
0000
0030
0100
0010
0100
0020
0030
0000
,
0100
0010
0001
0002
0000
0003
0100
0010
,
1000
2000
0000
3000
0002
0000
0023
0000
,
0230
2300
0000
3000
,
2002
0000
0000
0000
0000
0000
3003
0000
0000
0000
0000
0000
0000
0000
0001
0001
,
0000
0100
0100
0000
0100
0000
0010
0000
0220
0000
0000
0000
0000
0000
0330
0000
,
0000
0002
0100
0203
,
0320
0000
2000
0000
0000
3030
0000
0000
,
1000
0010
0000
1000
0001
0001
0010
0000
,
0100
2000
0100
3200
,
0320
0000
0002
0000
0000
0033
0000
0001
,
0001
0010
0010
0100
0100
0000
0100
0000
,
0100
2000
0100
3020
,
0230
0000
0002
0000
0000
0303
0000
0000
,
0001
0001
0000
1000
1000
0100
0100
0000
,
0000
0010
0200
0000
2300
0000
3002
0000
,
0203
0020
0330
0000
,
0010
0100
0010
1000
0002
0000
0023
0000
,
0230
1300
1000
1000
,
0100
0100
0100
0010
,
0010
0010
0001
0010
,
0100
1000
1000
1000
,
0010
0010
0010
0100
,
0100
0100
0001
0001
,
0000
0000
0200
0000
0000
0320
0000
0000
,
1030
0010
1000
0020
0000
0030
2000
0000
,
0000
3002
0000
0000
0013
0001
0010
0002
,
0000
0003
0020
0000
0000
0230
0000
0300
,
0010
0100
0010
0200
0000
0300
1000
0001
,
0200
0000
0000
0000
0000
0300
0000
0000
0000
0000
0000
0000
0000
0000
0000
0000
;

//---------------dance-single - ----------------
#NOTEDATA:;
#CHARTNAME:;
#STEPSTYPE:dance-single;
#DESCRIPTION:;
#CHARTSTYLE:;
#DIFFICULTY:Easy;
#METER:3;
#RADARVALUES:0.161285,0.206094,0.021302,0.394082,0.000000,106.000000,104.000000,2.000000,37.000000,0.000000,0.000000,0.000000,0.000000,0.000000,0.161285,0.206094,0.021302,0.394082,0.000000,106.000000,104.000000,2.000000,37.000000,0.000000,0.000000,0.000000,0.000000,0.000000;
#CREDIT:;
#DISPLAYBPM:62.000000:123.000000;
#NOTES:
0000
0000
0000
0000
,
0000
0000
0000
0000
,
0000
0000
0000
0000
,
2000
0000
0000
3200
,
0000
0000
0320
0000
,
0000
0032
0000
0003
,
1000
0000
0000
0010
0000
0000
1000
0000
,
0000
0010
0000
0000
1000
0000
0000
0001
,
0000
0000
1000
0000
0000
0001
0000
0000
,
0010
0000
0000
0001
0000
0000
0010
0000
,
0000
0001
0000
0000
0010
0000
0100
0000
,
1000
0002
0000
0003
,
0001
0000
0000
0100
0000
0000
0001
0000
,
0000
0100
0000
0000
0001
0000
0000
1000
,
0000
0000
0001
0000
0000
1000
0000
0000
,
0100
0000
0000
1000
0000
0000
0100
0000
,
0000
1000
0000
0000
0100
0000
0010
0000
,
0001
0200
0000
0300
,
0220
0000
0000
0330
0000
0000
0000
0000
,
0000
0000
0000
0000
2002
0000
0000
3003
,
0000
0002
0023
0230
,
2300
0000
0000
0000
0000
3000
0000
0000
,
0001
0001
1000
1000
,
0001
2000
3020
0230
,
0302
0000
0000
0000
0000
0003
0000
0000
,
1000
0001
0100
0100
,
0100
0002
0203
0320
,
2030
0000
0000
0000
0000
3000
0000
0000
,
0010
0010
1000
1000
,
0000
0002
0023
0230
,
2300
3002
0000
0003
,
1000
0001
2000
3020
,
0230
0302
0000
0000
,
0203
0000
0000
0320
,
0000
0000
1000
1000
,
2030
0000
0001
0001
,
3002
0010
0010
0023
,
0100
0000
0100
0000
0200
0000
0000
0330
,
0000
0000
0100
0000
0000
0100
0000
0000
,
0100
0000
0000
0100
0000
0000
1000
0000
,
0000
1000
0000
0000
1000
0000
0000
1000
,
0000
0000
0001
0000
0000
0001
0000
0000
,
0001
0000
0000
0001
0000
0000
0100
0100
,
0100
0000
0000
0000
;

//---------------dance-single - ----------------
#NOTEDATA:;
#CHARTNAME:;
#STEPSTYPE:dance-single;
#DESCRIPTION:;
#CHARTSTYLE:;
#DIFFICULTY:Beginner;
#METER:1;
#RADARVALUES:0.095858,0.156568,0.000000,0.000000,0.000000,63.000000,63.000000,0.000000,0.000000,0.000000,0.000000,0.000000,0.000000,0.000000,0.095858,0.156568,0.000000,0.000000,0.000000,63.000000,63.000000,0.000000,0.000000,0.000000,0.000000,0.000000,0.000000,0.000000;
#CREDIT:;
#DISPLAYBPM:62.000000:123.000000;
#NOTES:
// measure 0
0000
0000
0000
0000
,  // measure 1
0000
0000
0000
0000
,  // measure 2
0000
0000
0000
0000
,  // measure 3
0000
0000
0000
0000
,  // measure 4
0000
0000
0000
0000
,  // measure 5
0000
0000
0000
0000
,  // measure 6
0001
0000
0000
0000
,  // measure 7
0000
0000
0001
0000
,  // measure 8
0000
0000
0000
0000
,  // measure 9
1000
0000
0000
0000
,  // measure 10
0000
0000
1000
1000
,  // measure 11
1000
1000
0000
0000
,  // measure 12
0010
0000
0000
0000
,  // measure 13
0000
0000
0010
0000
,  // measure 14
0000
0000
0000
0000
,  // measure 15
0100
0000
0000
0000
,  // measure 16
0000
0000
0100
0100
,  // measure 17
0100
0100
0000
0000
,  // measure 18
0001
0000
0000
0000
,  // measure 19
0000
0000
1000
0000
,  // measure 20
0000
0100
0000
0100
,  // measure 21
0100
0000
0000
0000
,  // measure 22
0010
0000
0010
0010
,  // measure 23
0000
0001
0000
0001
,  // measure 24
0001
0000
0000
0000
,  // measure 25
1000
1000
1000
0000
,  // measure 26
0000
0010
0000
0010
,  // measure 27
0010
0000
0000
0000
,  // measure 28
0100
0000
0100
0100
,  // measure 29
0000
0001
0001
0001
,  // measure 30
0001
0001
0000
0000
,  // measure 31
1000
1000
1000
1000
,  // measure 32
1000
0000
0100
0100
,  // measure 33
0000
0010
0010
0000
,  // measure 34
0001
0001
0000
0001
,  // measure 35
0001
0000
0100
0100
,  // measure 36
0000
0010
0010
0000
,  // measure 37
1000
1000
0000
1000
,  // measure 38
0000
0001
0000
0000
,  // measure 39
0000
0000
0000
1000
,  // measure 40
0000
0000
0000
0000
,  // measure 41
0000
0001
0000
0000
,  // measure 42
1000
0000
0000
0000
;
