#TITLE:PentaCube Gt. (RX-Ver.S.P.L.);
#SUBTITLE:;
#ARTIST:高田雅史;
#TITLETRANSLIT:;
#SUBTITLETRANSLIT:;
#ARTISTTRANSLIT:Masafumi Takada;
#GENRE:;
#CREDIT:hooky;
#BANNER:[Uncommon Time] - PentaCube Gt. (RX-Ver.S.P.L.).png;
#BACKGROUND:[Uncommon Time] - PentaCube Gt. (RX-Ver.S.P.L.)-bg.png;
#LYRICSPATH:;
#CDTITLE:;
#MUSIC:[Uncommon Time] - PentaCube Gt. (RX-Ver.S.P.L.).ogg;
#OFFSET:0.000000;
#SAMPLESTART:83.272987;
#SAMPLELENGTH:15.439996;
#SELECTABLE:YES;
#DISPLAYBPM:91.500000:183.000000;
#BPMS:0.000000=183.000000
,215.000000=91.500000
,235.000000=183.000000
;
#STOPS:
;
#BGCHANGES:0.000=[Uncommon Time] - PentaCube Gt. (RX-Ver.S.P.L.).avi=1.000=0=0=0=StretchNoLoop====,
99999=-nosongbg-=1.000=0=0=0 // don't automatically add -songbackground-
;
#KEYSOUNDS:;
#ATTACKS:;

//---------------dance-single - ----------------
#NOTES:
     dance-single:
     :
     Hard:
     9:
     0.583826,0.679041,0.509803,0.275795,0.004179,489.000000,428.000000,61.000000,33.000000,0.000000,0.000000,0.583826,0.679041,0.509803,0.275795,0.004179,489.000000,428.000000,61.000000,33.000000,0.000000,0.000000:
0000
0000
0000
0000
,
0000
0000
0000
0000
,
0000
0000
0000
0000
,
0000
0000
0000
0000
0002
0000
0003
1000
,
0100
1000
0010
0100
0001
0010
0101
0000
,
0011
0000
1100
0000
1000
0001
0100
0001
,
0001
0000
0101
0100
0010
1000
0100
1000
,
0001
0100
0001
0010
0001
1000
0001
1000
,
0001
0010
0001
0001
1001
0000
0101
0000
,
0010
1000
0001
1000
0001
0100
0010
1000
,
0100
1000
1000
0001
0000
0100
0001
0010
,
0101
0000
0011
0000
0100
0010
0000
0010
,
1000
0000
1000
0100
2000
0000
3001
0100
,
0000
0100
0001
0100
0110
0110
1010
0010
,
1000
0100
1000
1000
0010
0010
0010
0200
,
0000
0020
0000
0330
,
1000
0010
0010
0100
0010
1000
0000
0100
,
1000
0000
1100
0000
0110
0000
0100
0001
,
0000
0001
0010
0001
1000
0001
2000
0000
,
0010
0100
0001
3010
,
0200
0010
1000
0001
,
1300
0020
0100
0001
,
1000
1030
0002
0010
,
0100
0000
1000
0000
0103
0100
0010
1000
,
0100
1000
1000
0010
0110
0000
1010
0000
,
1100
1000
0010
0100
0010
1000
1100
0000
,
0011
0000
0101
0100
0001
0010
0001
0100
,
0100
0010
0110
0000
1010
1000
0010
0100
,
0001
0010
0001
0001
0101
0000
0100
0001
,
0010
0001
0001
0100
0110
0000
0101
0000
,
0011
0001
0100
0010
0100
0001
0011
0000
,
1100
0000
1010
0010
1000
0100
1000
0010
,
0010
0100
0110
0000
0101
0001
0100
0010
,
1000
0100
1000
1000
0001
0001
1000
0010
,
0001
0010
1000
0010
0001
0010
1000
0000
,
1000
0010
0001
0010
1000
0010
0001
0010
,
1000
0000
1000
0001
0010
0001
1000
0001
,
0010
0001
1000
0000
0001
0100
1000
0100
,
0001
0100
1000
0100
0001
0000
1000
0010
,
0100
0010
1000
1000
1000
0001
1000
0000
,
0001
0010
0100
0001
0100
1000
0010
0010
,
0110
0000
0011
0001
0100
0010
0100
0001
,
0001
1000
1001
0000
1010
0010
1000
0100
,
1000
0010
0010
0100
0101
0000
0022
0000
,
0000
0000
0000
0033
,
2020
0000
0000
0000
,
3030
0202
0000
0000
,
0000
0303
2200
0000
,
0000
0000
0000
0300
3100
0100
2000
0000
,
0000
0000
0000
3000
,
0220
0000
0000
0000
,
0330
0000
1010
0000
1000
1100
0000
1000
,
1001
0000
0101
0000
0110
0000
0010
1010
,
0000
1000
1010
0000
0110
0000
0102
0000
,
0000
0000
0003
2000
0000
0000
0000
3000
,
0020
0000
0000
0000
0030
0200
0000
0000
,
0000
0300
0002
0000
0000
0000
0003
2000
,
0000
0000
0000
3000
0200
0000
0000
0000
,
0300
0000
2000
0000
0000
0000
0000
0000
0000
0000
3001
0001
1000
0000
0010
0000
,
0001
0010
1000
0100
1000
1000
1000
0001
,
0010
0000
0010
0000
0010
0001
0010
0001
,
0001
0100
0020
0000
1000
0000
0001
0000
,
0100
0100
0130
0000
0001
0010
0001
1000
,
1000
0001
1000
0010
1000
1000
0100
0100
,
1000
0001
0100
0001
0010
0010
0001
0000
,
1000
0010
1000
0100
1000
1000
0001
0010
,
0001
0100
0010
1000
0100
1000
0010
0100
,
0001
0010
0100
1000
0001
0100
0010
0100
,
0001
0010
0100
1000
1001
1001
1001
0010
,
0100
0010
0100
0010
1000
0001
1000
0010
,
0100
0001
0010
0001
0010
0001
1000
0010
,
1000
0100
1000
1000
1000
1000
1000
1000
,
0002
0000
0023
0000
0230
0000
1000
1000
,
0010
0010
0001
0001
1300
0000
1000
0100
,
0001
0100
1000
0100
0001
0100
1000
0000
,
1000
0010
0001
0010
1000
0010
0001
0010
,
1000
0001
0011
0000
1000
1100
0000
0010
,
0110
0000
1001
0000
1100
0000
0010
1010
,
0000
0100
0101
0000
0011
0000
2002
0000
,
0000
0000
0000
0000
,
0000
0000
0000
0000
,
0000
3003
0000
0000
;

//---------------dance-single - ----------------
#NOTES:
     dance-single:
     :
     Medium:
     7:
     0.427423,0.509281,0.509803,0.250723,0.000000,358.000000,297.000000,61.000000,30.000000,0.000000,0.000000,0.427423,0.509281,0.509803,0.250723,0.000000,358.000000,297.000000,61.000000,30.000000,0.000000,0.000000:
0000
0000
0000
0000
,
0000
0000
0000
0000
,
0000
0000
0000
0000
,
0000
0000
0002
1003
,
0010
0000
0100
0000
0001
0010
0001
0010
,
0002
0000
0003
0000
1000
0000
0010
1000
,
0100
2000
0010
3100
,
0001
0100
0010
0000
0200
0000
0010
0000
,
1000
0001
0301
0110
,
0010
0000
1000
0010
0100
0000
0001
0000
,
0011
0000
1100
0000
0010
0100
0010
0000
,
0100
0000
0101
0000
0001
0010
0000
0010
,
0001
0000
0100
0000
0110
0000
0010
1000
,
0000
1000
0010
0000
0010
0010
0010
0000
,
1000
0000
0100
0000
1000
0100
1000
0000
,
0001
0001
0100
0100
,
0100
0001
0010
0000
0001
1000
0000
1000
,
0001
0000
1001
0000
1000
0000
0010
1000
,
0000
1000
0100
0000
0100
0000
0110
0000
,
0010
0000
1000
0100
1000
0000
1010
0000
,
1100
0000
1000
0000
0001
0100
0010
0000
,
0010
0000
0101
0000
0010
0100
0001
0000
,
0001
0010
0001
0000
0001
0000
0001
0000
,
1000
0000
0010
0000
0100
0001
0100
0000
,
0110
0000
0010
1000
0100
0000
1000
0000
,
1001
0000
0001
0100
0010
0000
0010
0000
,
0110
0000
1100
0000
1000
0010
0100
0000
,
0100
0000
0101
0000
0011
0000
0001
1000
,
0000
1000
0001
0000
0101
0000
1010
0000
,
0010
1000
0000
1000
0010
0000
0110
0000
,
1100
0000
1000
0100
0000
0100
0010
0000
,
0011
0000
0101
0000
0001
0100
0000
0100
,
0001
0000
0101
0000
0001
0010
0100
1000
,
0100
0010
0001
0000
0100
0100
0100
0000
,
0010
0100
0000
0100
0010
0000
0010
0000
,
1000
0000
1000
0001
0000
0001
1000
0000
,
1000
0000
0001
0000
0001
0010
0000
0010
,
0001
0000
0001
0000
0100
0000
0100
0001
,
0000
0001
0100
0000
0001
0000
1001
0000
,
0100
1000
0000
1000
0010
0000
0010
0000
,
0101
0000
0001
0010
0000
0010
0001
0000
,
0101
0000
1100
0000
1000
0001
0000
0001
,
0100
0000
0101
0000
0011
0000
0001
0010
,
0000
0010
0001
0000
0001
0000
0220
0000
,
0000
0000
0000
0330
,
2020
0000
0000
0000
,
3030
2200
0000
0000
,
0000
3300
0022
0000
,
0000
0000
0033
0220
,
0000
0000
0000
0330
,
2002
0000
0000
0000
,
3003
0000
0101
0000
0000
0101
0000
0000
,
1000
0000
1000
0000
1100
0000
0000
0011
,
0000
0100
0100
0220
,
0000
0000
0000
0330
,
2020
0000
0000
0000
,
3030
0202
0000
0000
,
0000
0303
0022
0000
,
0000
0000
0000
0000
0033
0000
0001
1000
,
0010
0100
0100
0001
,
1000
0000
0001
0000
0100
0000
0100
0010
,
0100
0001
1000
1000
,
0100
1000
0100
0000
1000
0000
0001
1000
,
0000
1000
0010
0000
0110
0000
0101
0000
,
0001
0010
0000
0010
0001
0000
0001
0000
,
1010
0000
0010
0100
0000
0100
0010
0000
,
0010
0000
1100
0000
0100
1000
0000
1000
,
0001
0000
0001
0000
0101
0000
0010
0100
,
0000
0100
0001
0000
0001
0000
1000
0001
,
0100
0010
0010
1000
,
0001
1000
0010
0000
,
0010
0100
0010
0000
1000
0000
0001
0000
,
0001
0010
0001
0001
,
1000
0001
0100
0220
,
0000
0000
0330
1010
,
2020
0000
0000
3030
,
0101
0000
0011
0000
0000
1100
0000
0000
,
0110
0000
0110
0000
1010
0000
0000
0011
,
0000
0110
1001
0220
,
0000
0000
0000
0000
,
0000
0000
0000
0000
,
0000
0330
0000
0000
;

//---------------dance-single - ----------------
#NOTES:
     dance-single:
     :
     Challenge:
     11:
     0.900215,1.154370,0.593378,0.025072,0.518161,754.000000,683.000000,71.000000,3.000000,0.000000,0.000000,0.900215,1.154370,0.593378,0.025072,0.518161,754.000000,683.000000,71.000000,3.000000,0.000000,0.000000:
// measure 0
0000
0000
0000
0000
,  // measure 1
0000
0000
0000
0000
,  // measure 2
0000
0000
0000
0000
,  // measure 3
0000
0000
0000
0000
0002
0000
1003
0010
,  // measure 4
0100
0001
0010
0010
0001
1000
1000
0001
,  // measure 5
0100
0000
0100
0000
0001
0000
0010
0000
0001
0000
0010
0000
0001
0100
0001
0000
,  // measure 6
0010
0100
1000
0010
1000
0100
1000
1000
,  // measure 7
0010
0100
0010
0000
0100
0000
0001
0000
0010
0000
0001
0000
1000
0000
1000
0000
,  // measure 8
0001
0001
0100
0000
0110
0000
0010
1000
,  // measure 9
0100
0000
1000
0000
1000
0010
1000
0000
1000
0000
0001
0000
0010
0000
0001
0000
,  // measure 10
1000
0000
0001
0000
0100
0000
0010
0000
0100
0000
0100
0000
0010
1000
0010
0000
,  // measure 11
1000
0001
0100
0010
0100
0010
1000
0100
,  // measure 12
1000
0010
0110
0000
0101
0001
0010
0001
,  // measure 13
0100
0001
0001
0010
0101
0101
0101
0001
,  // measure 14
0010
0100
1000
0100
0010
0001
0100
0100
,  // measure 15
0010
1000
0010
1000
0100
1000
0001
1000
,  // measure 16
0001
0001
0100
0010
1000
0100
1000
0001
,  // measure 17
0100
0001
0101
0000
0110
0010
1000
0100
,  // measure 18
1000
0000
0010
0000
0100
0000
0000
0000
0110
0000
0000
0000
0010
1000
0010
0000
,  // measure 19
0000
0000
0100
0001
0100
0000
0001
0000
0010
0000
0001
0000
0100
0000
0001
0000
,  // measure 20
0100
0001
0100
0000
0000
0000
0100
0001
0010
0000
0001
0000
0001
0000
0001
0000
,  // measure 21
1000
0000
0010
0000
0100
0010
0100
0000
0000
0000
0100
0010
1000
0000
0100
0000
,  // measure 22
1000
0000
0010
0000
0100
0000
0001
0000
0010
0001
0010
0000
0000
0000
0001
1000
,  // measure 23
0001
0000
0100
0000
0010
0000
1000
0000
0100
1000
0100
0010
0001
0000
0100
0000
,  // measure 24
0010
1000
0100
1000
0001
0100
0110
0000
,  // measure 25
1010
0100
1000
0010
0100
0001
0010
0001
,  // measure 26
1000
0001
0100
0100
0001
0010
0001
1000
,  // measure 27
0001
0000
1000
0000
0010
1000
0010
0100
0010
0000
0010
0000
1000
0000
1000
0000
,  // measure 28
0010
1000
0001
0010
0011
0000
0101
0001
,  // measure 29
0010
0100
1000
1000
0001
0001
0100
0010
,  // measure 30
0100
0010
1000
0010
0100
0001
0001
1000
,  // measure 31
0110
0000
1001
0001
0010
0100
1000
1000
,  // measure 32
0001
0100
0001
0001
0100
0100
0001
0010
,  // measure 33
0100
1000
0010
0100
1010
1010
1010
0010
,  // measure 34
0001
0010
1000
0010
0001
0010
1000
0000
,  // measure 35
1000
0100
0001
0100
1000
0100
0001
0100
,  // measure 36
1000
0000
0010
1000
0100
1000
0010
1000
,  // measure 37
0100
1000
0010
0000
0010
0100
0001
0100
,  // measure 38
0010
0100
0001
0010
0001
0000
0101
0001
,  // measure 39
0010
0100
1000
0010
0100
0001
0100
0000
,  // measure 40
0110
0010
1000
0100
1000
0010
0100
0100
,  // measure 41
0010
0000
1010
1000
0100
1000
0010
0100
,  // measure 42
0001
0001
0010
0000
0011
0001
0010
0100
,  // measure 43
0010
0100
1000
0010
0100
0010
0100
0100
,  // measure 44
0110
0000
0010
1000
0100
1000
0010
0000
0100
0000
0100
0000
0001
0010
0001
0100
,  // measure 45
0010
0000
0100
0000
0001
0000
1000
0000
0001
0000
0010
0000
0001
0010
0001
1000
,  // measure 46
0100
1000
0010
0100
0010
0000
1000
0000
0100
0000
1000
0000
0010
0100
0010
0100
,  // measure 47
0001
0010
0001
0100
0001
0010
0001
0000
1000
0000
0100
0000
1000
0000
0001
0000
,  // measure 48
1000
0010
0100
0010
1000
0100
1000
0000
1100
0000
1100
0000
0101
0000
0001
0000
,  // measure 49
0100
0001
0010
0001
1000
0010
0100
0010
1000
0100
1000
0010
1000
0100
1000
0000
,  // measure 50
0110
0000
0100
0000
0001
0010
0001
0100
0010
0100
0001
1000
0001
0100
0001
0010
,  // measure 51
0001
1000
0100
1000
0010
0000
0000
0000
0010
0000
1010
0000
0000
0000
0100
0000
,  // measure 52
0110
0000
0101
0000
0011
0000
0001
1001
,  // measure 53
0000
0000
1000
0000
1010
0000
0000
0000
0110
0000
0000
0000
0001
1000
0010
1000
,  // measure 54
0001
1000
0001
0000
0101
0000
0110
0100
0010
1000
0100
1000
0010
0100
0010
0000
,  // measure 55
1100
0100
1000
0100
0010
0001
0100
0001
0010
0000
0101
0100
0001
0001
0100
0001
,  // measure 56
1000
0001
0100
0001
0010
0010
0001
0001
0100
0010
1000
0100
1000
0001
1000
1000
,  // measure 57
0010
0010
0100
0001
0010
0001
0100
0000
0100
0010
1000
0100
1000
0001
0001
0100
,  // measure 58
0001
0000
0001
0010
0100
1000
0001
1000
0001
0100
0110
0110
0110
0000
0010
0000
,  // measure 59
1000
0000
0100
1000
0100
1000
0010
0100
0001
0000
0010
0000
0001
0000
0100
0000
,  // measure 60
0010
0000
1000
0000
0100
1000
0010
0100
0001
1000
0001
0000
0100
0010
0100
0000
,  // measure 61
0101
0000
0001
0000
0011
0000
0001
1000
0001
0000
0100
0000
0010
0100
0001
0000
,  // measure 62
1000
0100
1000
0000
1010
0000
0000
0000
1100
0000
0000
0000
0010
0000
1010
0000
,  // measure 63
0000
0000
0100
0000
0101
0000
0000
0000
0011
0000
0000
0000
0001
0000
1000
0010
,  // measure 64
0100
0000
0000
0000
0001
0010
0100
1000
0010
0000
0100
0000
0010
0000
1000
0000
,  // measure 65
0100
1000
0001
0100
0010
1000
0001
0000
,  // measure 66
1001
0000
0000
0000
0110
0000
0010
1000
0100
0000
1000
0001
0100
0000
0010
0000
,  // measure 67
0100
0000
0001
0000
0010
0000
0001
0000
0101
0000
0010
1000
0100
0000
0100
1000
,  // measure 68
0010
0100
0101
0000
1010
0110
1010
1000
,  // measure 69
0001
0000
0010
0001
0010
0001
0100
0010
1000
0000
0100
0000
1000
0000
0010
0000
,  // measure 70
0100
0000
0001
0000
0010
0001
0100
0010
1000
0001
1000
0000
0010
0100
0010
0000
,  // measure 71
1010
0000
1000
0000
1100
0000
1000
0001
1000
0000
0010
0000
0100
0010
1000
0000
,  // measure 72
0001
0010
0001
0000
0101
0000
0000
0000
0011
0000
0000
0000
0100
0000
0101
0000
,  // measure 73
0000
0000
0010
0000
1010
0000
0000
0000
1100
0000
0000
0000
1000
0010
1000
0010
,  // measure 74
0100
0001
0010
0001
0100
0001
1000
0001
0100
0010
0100
0001
1000
0000
1000
0000
,  // measure 75
0100
1000
0100
1000
0010
0100
0001
0010
0001
0100
0001
0010
0001
0100
0001
1000
,  // measure 76
0001
0001
0110
0100
0100
0110
0010
0010
,  // measure 77
1010
0001
1100
0001
0101
0100
0100
0110
,  // measure 78
0010
0010
1010
0001
0101
0000
2002
0000
,  // measure 79
0000
0000
0000
0000
,  // measure 80
0000
0000
0000
0000
,  // measure 81
0000
3003
0000
0000
;

//---------------dance-single - ----------------
#NOTES:
     dance-single:
     :
     Easy:
     4:
     0.321164,0.373473,0.091932,0.192221,0.000000,269.000000,258.000000,11.000000,23.000000,0.000000,0.000000,0.321164,0.373473,0.091932,0.192221,0.000000,269.000000,258.000000,11.000000,23.000000,0.000000,0.000000:
0000
0000
0000
0000
,
0000
0000
0000
0000
,
0000
0000
0000
0000
,
0000
0000
0000
0001
,
1000
0010
0010
0100
,
0001
0001
0001
1000
,
0010
1000
1000
1000
,
0100
1000
0001
0001
,
0001
0100
0001
1000
,
0100
1000
0010
0100
,
0001
0010
0001
0100
,
0001
1000
1000
1000
,
0010
1000
0100
0100
,
0100
1000
0100
1000
,
1000
0001
0100
0010
,
0010
0010
0010
1000
,
0100
1000
1000
1000
,
0001
0100
0010
0010
,
0010
0100
0001
2000
,
0001
0010
0001
3100
,
0002
0010
0100
1000
,
0013
0200
0001
1000
,
0001
0310
1000
0001
,
1000
0001
0100
0010
,
0010
1000
0100
1000
,
0001
0001
0100
0010
,
1000
0100
1000
0100
,
1000
0010
1010
0001
,
0100
0001
0010
0011
,
0001
0100
0010
1000
,
1100
1000
0001
1000
,
0010
0100
0001
0001
,
0010
0001
1001
0010
,
1000
0100
1000
1000
,
0001
0100
0010
1000
,
1000
0100
0010
0001
,
0100
0010
1000
0100
,
1000
1000
0001
0100
,
0010
0100
0001
0001
,
1000
0100
1000
0010
,
1000
1000
0100
1000
,
0001
0100
0100
0001
,
0010
0000
0001
0000
1000
0000
1000
0001
,
0000
0001
1000
0000
0010
0000
0220
0000
,
0000
0000
0000
0330
,
0022
0000
0000
0000
,
0033
0202
0000
0000
,
0000
0303
2200
0000
,
0000
0000
3300
0220
,
0000
0000
0000
0330
,
2020
0000
0000
0000
,
3030
0000
1000
0000
0000
0001
0000
0000
,
1000
0000
1000
0000
0010
0000
0000
0100
,
0000
0001
1000
0200
,
0000
0000
0000
0300
,
0020
0000
0000
0000
,
0030
0002
0000
0000
,
0000
0003
2000
0000
,
0000
0000
3000
0010
,
1000
0100
0100
1000
,
0001
2000
0000
0010
,
3010
0010
0100
0001
,
0020
0001
0031
0100
,
0010
1000
0100
1000
,
1000
0001
0100
0010
,
0100
0100
0100
0001
,
1000
0001
0001
0001
,
1000
0010
1000
1000
,
0100
1000
0100
0000
1000
0000
0010
0000
,
0100
0001
0010
0001
,
0001
1000
0001
0001
,
0100
0010
0010
0010
,
1000
0100
1000
1000
,
1000
0001
0100
0010
,
0010
0010
0010
0100
,
0010
0010
0010
0010
,
0100
0000
0001
0000
0000
1000
0000
0000
,
0100
0000
1000
0000
0001
0000
0000
0100
,
0000
0010
0010
2002
,
0000
0000
0000
0000
,
0000
0000
0000
0000
,
0000
3003
0000
0000
;

//---------------dance-single - ----------------
#NOTES:
     dance-single:
     :
     Beginner:
     3:
     0.204160,0.271617,0.050145,0.058502,0.000000,171.000000,165.000000,6.000000,7.000000,0.000000,0.000000,0.204160,0.271617,0.050145,0.058502,0.000000,171.000000,165.000000,6.000000,7.000000,0.000000,0.000000:
0000
0000
0000
0000
,
0000
0000
0000
0000
,
0000
0000
0000
0000
,
0000
0000
0000
1000
,
0000
0001
0000
1000
,
0000
1000
0000
0001
,
0000
0100
0000
0100
,
0000
0010
0000
1000
,
0000
0100
0000
1000
,
0000
0001
0000
1000
,
0000
0010
0000
0010
,
0000
1000
0000
0100
,
0000
1000
0000
0001
,
0000
0100
0000
0001
,
0000
0001
0000
1000
,
0000
1000
0000
0010
,
0000
1000
0000
0100
,
0000
1000
0000
0001
,
0000
0001
0000
1001
,
0000
0100
0000
0010
,
0010
0000
1000
0000
,
0100
1000
0000
1000
,
0000
0001
0200
0000
,
0000
0000
0300
0110
,
0000
0010
0000
1000
,
0000
0100
0000
1000
,
0000
0001
0000
1000
,
0000
0010
0000
1000
,
0000
0001
0001
0001
,
0000
1000
0000
0010
,
0000
0100
0000
0001
,
0000
1000
1000
1000
,
0000
0000
0001
0001
,
0001
0000
0000
0100
,
0000
0010
0000
1000
,
0000
0100
0000
1000
,
0000
0001
0000
1000
,
0000
0010
0000
0100
,
0000
0001
0000
1000
,
0000
0001
0000
1000
,
0000
0010
0000
1000
,
0000
0100
0000
0010
,
0000
0001
0000
0100
,
0000
0001
0001
1001
,
0000
1000
0000
0010
,
1000
0000
1000
0000
,
0100
1000
0000
1000
,
0000
1000
0001
0000
,
0001
0000
0100
0010
,
0000
1000
0000
0100
,
1000
0000
1000
0000
,
1000
0001
0000
0100
,
0000
0001
0000
0010
,
0000
0100
0000
2000
,
0000
0000
0000
3000
,
0002
0000
0000
0000
,
0003
0200
0000
0000
,
0000
0300
0020
0000
,
0000
0000
0030
0010
,
1000
0010
0000
0100
,
0001
0100
0000
0001
,
0010
0001
0000
1000
,
0100
1000
0010
0000
,
0010
0000
0100
0101
,
0000
0100
0000
0010
,
1000
0000
0100
0000
,
1000
1000
0000
0001
,
0000
1000
0010
0000
,
0010
0000
0100
0110
,
0000
0010
0000
1000
,
0100
1000
0000
1000
,
0001
1000
0000
1000
,
0000
0010
0100
0000
,
0100
0000
0001
0100
,
0000
0100
0000
0100
,
0001
0000
0001
0000
,
0001
0000
1000
0000
0000
1000
0000
0000
,
0010
0000
0010
0000
0010
0000
0000
1000
,
0000
0001
0100
2002
,
0000
0000
0000
0000
,
0000
0000
0000
0000
,
0000
3003
0000
0000
;
