#VERSION:0.83;
#TITLE:MAVILIM;
#SUBTITLE:;
#ARTIST:NILÜFER;
#TITLETRANSLIT:;
#SUBTITLETRANSLIT:;
#ARTISTTRANSLIT:;
#GENRE:;
#ORIGIN:;
#CREDIT:;
#BANNER:[Uncommon Time] - MAVILIM.png;
#BACKGROUND:[Uncommon Time] - MAVILIM-bg.png;
#PREVIEWVID:;
#JACKET:[Uncommon Time] - MAVILIM-jacket.png;
#CDIMAGE:;
#DISCIMAGE:;
#LYRICSPATH:;
#CDTITLE:cdtitle.png;
#MUSIC:[Uncommon Time] - MAVILIM.ogg;
#OFFSET:-0.877000;
#SAMPLESTART:69.660248;
#SAMPLELENGTH:13.000000;
#SELECTABLE:YES;
#DISPLAYBPM:141.000000;
#BPMS:0.000=141.163;
#STOPS:;
#DELAYS:;
#WARPS:;
#TIMESIGNATURES:0.000=9=2;
#TICKCOUNTS:0.000=4;
#COMBOS:0.000=1;
#SPEEDS:0.000=1.000=0.000=0;
#SCROLLS:0.000=1.000;
#FAKES:;
#LABELS:0.000=Song Start;
#BGCHANGES:;
#KEYSOUNDS:;
#ATTACKS:
;

//---------------dance-single - ----------------
#NOTEDATA:;
#CHARTNAME:;
#STEPSTYPE:dance-single;
#DESCRIPTION:;
#CHARTSTYLE:;
#DIFFICULTY:Beginner;
#METER:1;
#RADARVALUES:0.099256,0.162581,0.055583,0.000000,0.000000,75.000000,69.000000,6.000000,0.000000,0.000000,0.000000,0.000000,0.000000,0.000000,0.099256,0.162581,0.055583,0.000000,0.000000,75.000000,69.000000,6.000000,0.000000,0.000000,0.000000,0.000000,0.000000,0.000000;
#CREDIT:;
#DISPLAYBPM:141.000000;
#NOTES:
// measure 0
0000
0000
0000
0000
,  // measure 1
0000
0000
0000
0000
,  // measure 2
0000
0000
0000
0000
,  // measure 3
0000
0000
0000
0000
,  // measure 4
0000
0000
0001
0000
,  // measure 5
0000
0000
0000
0000
0000
1000
0000
0000
,  // measure 6
0000
0000
0000
0001
,  // measure 7
0000
0000
0000
0000
0000
0000
0000
1000
,  // measure 8
0000
0000
0000
0000
,  // measure 9
0010
0000
0000
0000
,  // measure 10
0000
0100
0000
0000
0000
0000
0000
0000
,  // measure 11
0000
0010
0000
0000
,  // measure 12
0000
0000
0000
0100
0000
0000
0000
0000
,  // measure 13
0000
0000
1001
0000
,  // measure 14
0000
0000
0000
0000
,  // measure 15
0000
0000
0000
1001
,  // measure 16
0000
0000
0000
0000
,  // measure 17
0000
0000
0000
0000
,  // measure 18
0110
0000
0000
0000
,  // measure 19
0000
0000
0000
0000
,  // measure 20
0000
0110
0000
0000
,  // measure 21
0000
0000
0000
0001
0000
0000
0000
0000
,  // measure 22
0000
0000
0010
0000
,  // measure 23
0010
0000
0000
0000
,  // measure 24
0000
0000
0000
0100
,  // measure 25
0000
0100
0000
0000
,  // measure 26
0000
0000
0000
0000
,  // measure 27
0001
0000
0001
0000
,  // measure 28
0000
0000
0000
0000
,  // measure 29
0000
1000
0000
1000
,  // measure 30
0000
0000
0000
1001
0000
0000
0000
0000
,  // measure 31
0000
0000
0001
0000
,  // measure 32
0000
0000
0000
0000
0000
1000
0000
0000
,  // measure 33
0000
0000
0000
0010
,  // measure 34
0000
0000
0000
0000
0000
0000
0000
0100
,  // measure 35
0000
0000
0000
0000
,  // measure 36
0001
0000
0000
0000
,  // measure 37
0000
0010
0000
0000
0000
0000
0000
0000
,  // measure 38
0000
0100
0000
0000
,  // measure 39
0000
0000
0000
1000
0000
0000
0000
0000
,  // measure 40
0000
0000
1000
1000
,  // measure 41
1000
0000
0000
0000
0000
0001
0000
0001
,  // measure 42
0000
0001
0000
0000
0000
0000
1000
0000
,  // measure 43
1000
0000
1000
0000
0000
0000
0000
0001
,  // measure 44
0000
0001
0000
0001
0000
0000
0000
0000
,  // measure 45
0010
0010
0010
0000
,  // measure 46
0000
0100
0000
0100
0000
0100
0000
0000
,  // measure 47
0000
0010
0010
0010
,  // measure 48
0000
0000
0000
0100
0000
0000
0000
0000
,  // measure 49
0000
0000
0001
0000
,  // measure 50
1000
0000
0000
0000
0000
0001
0000
0000
,  // measure 51
0000
1000
0000
0000
0000
0000
0010
0000
,  // measure 52
0000
0000
0100
0000
0000
0000
0000
0010
,  // measure 53
0000
0000
0000
0100
0000
0000
0000
0000
,  // measure 54
0001
0000
1000
0000
,  // measure 55
0000
0010
0000
0000
0000
0100
0000
0000
,  // measure 56
0000
0001
0000
0010
,  // measure 57
0000
0000
0000
0100
0000
0000
0000
1000
,  // measure 58
0000
0000
1001
0000
;

//---------------dance-single - ----------------
#NOTEDATA:;
#CHARTNAME:;
#STEPSTYPE:dance-single;
#DESCRIPTION:;
#CHARTSTYLE:;
#DIFFICULTY:Easy;
#METER:3;
#RADARVALUES:0.217040,0.273285,0.166750,0.111167,0.000000,164.000000,146.000000,18.000000,12.000000,0.000000,0.000000,0.000000,0.000000,0.000000,0.217040,0.273285,0.166750,0.111167,0.000000,164.000000,146.000000,18.000000,12.000000,0.000000,0.000000,0.000000,0.000000,0.000000;
#CREDIT:;
#DISPLAYBPM:141.000000;
#NOTES:
0000
0000
0000
0000
,
0000
0000
0000
0000
,
0000
0000
0000
0000
,
0000
0000
0000
1000
0000
0000
1000
0000
,
0000
1000
0000
0000
0010
0000
1000
0000
,
0001
0000
0000
0000
0000
0010
0000
0001
,
0000
1000
0000
0000
0000
0000
0010
0000
,
1000
0000
0100
0000
0000
0000
0000
0010
,
0000
0001
0000
0100
0000
0000
0000
0000
,
0010
1000
0001
0000
,
0000
0010
0000
0100
0000
1000
0000
0000
,
0000
0010
0100
0001
,
0000
0000
0000
1000
0000
0001
0000
1000
,
0001
1000
0000
0000
1001
0000
0000
0000
,
0000
0000
0000
0000
,
0000
0000
0000
1001
,
0000
0000
0000
0000
,
0000
0000
0000
0000
,
0110
0000
0000
0000
,
0000
0000
0000
0000
,
0000
0110
0000
0000
,
0000
0000
0000
2000
0000
0000
0000
0000
,
0000
3000
1100
0000
,
1100
0000
0000
0000
,
0000
0101
0000
0000
0000
0000
0011
0000
,
0000
0011
0000
0000
,
0000
0000
0000
1001
0000
0000
0000
0000
,
1010
0000
1010
0000
,
0000
0000
0000
0000
0000
1001
0000
0000
,
0000
0110
0000
0110
,
0000
0000
0000
1001
0000
0000
1001
0000
,
0000
1001
0000
0000
2000
0000
0000
0000
,
0000
0000
3100
0000
0001
0002
0000
0000
,
0000
0000
0000
0013
0000
1000
2000
0000
,
0000
0000
0000
0000
3010
0000
0001
0002
,
0000
0000
0000
0000
0000
0103
0000
1000
,
2000
0000
0000
0000
0000
0000
0001
0001
,
0000
3002
0000
0000
0000
0000
0000
0100
,
0103
2000
0000
0000
,
0010
3010
0000
0002
0000
0010
0000
0100
,
0000
1003
0000
0000
1000
0000
0010
0000
,
0100
0000
0001
0000
0100
0010
0000
1000
,
0000
0010
0000
0100
0000
0001
0010
0000
,
0100
0000
1000
0000
0100
0000
0010
0001
,
0000
0010
0000
0100
0000
1000
0000
0100
,
0010
0001
0100
0010
,
1000
0100
0000
1000
0000
0010
0000
0100
,
0000
0001
0010
0000
0100
0000
1000
0000
,
0100
0000
0010
0002
0000
0000
0000
0000
,
0000
0000
1003
0010
,
1000
0000
0100
0000
0010
0001
0000
0100
,
0000
0010
0000
1000
0000
0001
0100
0000
,
0010
0000
1000
0000
0100
0000
0010
0001
,
0000
0100
0000
0010
0000
1000
0000
0100
,
1000
0010
0100
0001
,
0010
0100
0000
1000
0000
0100
0000
0010
,
0000
0001
1000
0000
0010
0000
0100
0000
,
0010
0000
1000
0002
0000
0000
0000
0000
,
0000
0000
2000
0000
,
3003
0000
0000
0000
;

//---------------dance-single - ----------------
#NOTEDATA:;
#CHARTNAME:;
#STEPSTYPE:dance-single;
#DESCRIPTION:;
#CHARTSTYLE:;
#DIFFICULTY:Medium;
#METER:6;
#RADARVALUES:0.330853,0.409927,0.203806,0.148222,0.000000,250.000000,228.000000,22.000000,16.000000,0.000000,0.000000,0.000000,0.000000,0.000000,0.330853,0.409927,0.203806,0.148222,0.000000,250.000000,228.000000,22.000000,16.000000,0.000000,0.000000,0.000000,0.000000,0.000000;
#CREDIT:;
#DISPLAYBPM:141.000000;
#NOTES:
0000
0000
0000
0000
,
0000
0000
0000
0000
,
0000
0000
0000
0000
,
0000
0000
0000
0001
0010
0001
1000
0100
,
0000
0010
0000
0000
0000
0000
0001
0010
,
0001
0010
0001
0010
0100
1000
0000
1000
,
0100
1000
0000
1000
0100
1000
0000
0000
,
1000
0010
1000
0010
1000
0010
0100
0001
,
0000
0001
0100
0001
0000
0001
0100
0001
,
0000
0000
1000
0001
1000
0001
1000
0000
,
0001
1000
0000
1000
0010
0100
0001
0010
,
0100
1000
0001
0000
0000
0000
0000
0000
,
1000
0010
0100
0002
0000
1000
0000
1000
,
0000
1003
0000
0000
1100
1100
0000
0000
,
0000
0000
0000
0000
,
0000
0000
0000
0000
0000
0000
0101
0101
,
0000
0000
0000
0000
,
0000
0000
0000
0000
,
1010
1010
0000
0000
0000
0000
0000
0000
,
0000
0000
0000
0000
,
0000
0000
0011
0011
0000
0000
0000
0000
,
0000
0000
0000
0000
,
0000
0000
0000
0000
1100
1100
0000
0000
,
0100
0000
0000
0000
0000
1000
0000
0000
,
0000
1100
0000
0000
0000
0000
0101
0101
,
0000
0000
0001
0000
0000
0000
0000
0100
,
0000
0000
0000
0101
0000
0000
0000
0000
,
0011
0011
0000
0000
0001
0000
0000
0000
,
0000
0010
0000
0000
0000
0011
0000
0000
,
0000
0000
1010
1010
0000
0000
1000
0000
,
0000
0000
0000
1010
0000
0000
1010
0000
,
0000
1010
0000
0000
0001
0010
0001
0010
,
0001
0000
0001
0000
0010
0100
1000
0100
,
1000
0100
0000
0100
0000
1000
0010
1000
,
0010
1000
0010
0000
0010
0000
1000
0001
,
0010
0001
0010
0001
0000
0010
0000
0100
,
1000
0001
1000
0001
1000
0000
1000
0000
,
0001
0100
0010
0100
0010
0100
0000
0100
,
0000
0010
1000
0001
1000
0001
1000
0000
,
0100
0000
0010
0100
0000
0100
1000
0100
,
0010
0001
0010
0100
2000
0000
0010
0000
,
3001
0000
0100
0000
0010
2000
0000
0010
,
0000
3001
0000
0100
0000
0010
0200
0000
,
0001
0000
0310
0000
0100
0000
0001
0020
,
0000
1000
0000
0130
0000
0010
0000
1000
,
0002
0100
1003
0001
,
0100
0020
0000
1000
0000
0130
0000
1000
,
0000
0100
0020
0000
0001
0000
0130
0000
,
0010
0000
0001
1000
0000
0010
0100
0010
,
0100
0010
1000
0001
0020
0000
0001
0000
,
0100
0000
1000
0000
0130
0002
0000
0010
,
0000
1000
0000
0100
0000
1003
0020
0000
,
0100
0000
1000
0000
0100
0000
0031
0200
,
0000
0010
0000
1000
0000
0010
0000
0301
,
2000
0100
0001
0010
,
3001
0200
0000
0010
0000
1000
0000
0010
,
0000
0301
2000
0000
0010
0000
0001
0000
,
0100
0000
3001
0100
0000
0000
0010
0100
,
0010
0100
0010
0100
0002
0000
0000
0000
,
0003
0000
0000
0000
;

//---------------dance-single - ----------------
#NOTEDATA:;
#CHARTNAME:;
#STEPSTYPE:dance-single;
#DESCRIPTION:;
#CHARTSTYLE:;
#DIFFICULTY:Hard;
#METER:8;
#RADARVALUES:0.434079,0.518141,0.296445,0.101903,0.023160,328.000000,296.000000,32.000000,11.000000,0.000000,0.000000,0.000000,0.000000,0.000000,0.434079,0.518141,0.296445,0.101903,0.023160,328.000000,296.000000,32.000000,11.000000,0.000000,0.000000,0.000000,0.000000,0.000000;
#CREDIT:;
#DISPLAYBPM:141.000000;
#NOTES:
0000
0000
0000
0000
,
0000
0000
0000
0000
,
0000
0000
0000
0000
,
0000
0000
0000
1000
0001
0000
1000
0001
,
0000
1001
0000
0000
0000
0000
0001
0100
,
1000
0100
0001
0010
1000
0010
0000
0001
,
0100
0000
0010
0000
0000
0000
1000
0010
1000
0010
1000
0000
0000
0000
0000
0000
,
1000
0100
0001
0100
1000
0010
0001
0010
,
0000
0000
1000
0000
0100
0000
0010
0000
0000
0000
0001
0010
0001
0010
0001
0000
,
0000
0000
1000
0100
0001
0100
1000
0000
,
0100
1000
0000
1000
0100
0010
0001
0100
,
0001
1000
0020
0000
0000
0000
0030
0000
,
1000
0010
0100
0002
0000
1000
0000
0010
,
0010
0013
0000
0000
0011
1100
0000
0000
,
0000
0000
0000
0000
,
0000
0000
0000
0000
0000
0000
1010
0101
,
0000
0000
0000
0000
,
0000
0000
0000
0000
,
1100
0011
0000
0000
0000
0000
0000
0000
,
0000
0000
0000
0000
,
0000
0000
0101
1010
0000
0000
0000
0000
,
0000
0000
0000
2000
0000
0000
0000
0000
,
0000
0000
3000
0000
1001
0100
0010
1000
,
1100
0000
0000
0000
,
0000
0011
0000
0000
0000
0000
0101
0010
,
1000
0001
0101
0000
0000
0000
0000
0000
,
0000
0000
0000
1010
0000
0000
0000
0000
,
1001
0010
0100
1000
1001
0000
0000
0000
,
0000
0000
0000
0000
0000
0110
0000
0000
,
0000
0000
0011
0100
1000
0001
0011
0000
,
0000
0000
0000
1100
0001
0100
0101
0001
,
0010
0011
1000
0010
1000
0100
0001
0100
,
1000
0000
0010
0000
0100
0001
0010
1000
,
0010
0001
0000
0100
0000
0010
1000
0010
,
0001
0010
1000
0000
0100
0000
0010
0001
,
0100
1000
0100
0001
0000
0010
0100
0000
,
1000
0010
1000
0100
1000
0000
0010
0100
,
0000
0001
0010
0001
0100
0001
0000
0010
,
0000
0100
1000
0100
0001
0100
1000
0010
,
0001
0010
0100
0101
0000
0001
0010
0100
,
1000
0100
0010
0001
0101
0001
0100
1000
,
0100
0001
0010
0000
0100
1100
0100
0010
,
0001
0100
1000
0100
0000
0001
0011
0010
,
1000
0010
0001
0100
0010
0000
0010
1010
,
0010
0001
0010
1000
0100
0010
0000
0001
,
1001
1000
0010
0001
0010
1000
0100
0000
,
0010
0110
0001
0100
1000
0100
0001
0010
,
0000
0100
1100
0100
0010
0001
1000
0010
,
0001
0000
0000
0000
0010
0000
1010
0000
0001
0100
0001
0000
0010
0000
1000
0000
,
0010
0001
0000
1000
0200
0010
0310
0001
,
0010
1000
0010
0001
0100
0020
0100
0130
,
0010
1000
0010
0001
0010
1000
0200
0010
,
0310
0100
1000
0100
0001
0100
0010
0002
,
0100
0103
0010
1000
0100
0001
0100
1000
,
0020
0100
0130
0010
1000
0001
0010
1000
,
0010
0002
0100
0103
0010
1000
0100
0001
,
1000
0010
0002
0100
0103
0010
0001
0010
,
1000
0001
1000
0100
0000
0000
1000
0100
,
0010
0001
0010
0100
2000
0000
0000
3000
;
