#TITLE:L.A.F;
#SUBTITLE:;
#ARTIST:Broods;
#TITLETRANSLIT:;
#SUBTITLETRANSLIT:;
#ARTISTTRANSLIT:;
#GENRE:;
#CREDIT:;
#BANNER:banner.png;
#BACKGROUND:L.A.F-bg.png;
#LYRICSPATH:;
#CDTITLE:;
#MUSIC:LAF.ogg;
#OFFSET:-0.195687;
#SAMPLESTART:28.839958;
#SAMPLELENGTH:12.000000;
#SELECTABLE:YES;
#BPMS:0.000000=176.000000
,212.000000=88.000000
,224.000000=176.000000
;
#STOPS:
;
#BGCHANGES:;
#KEYSOUNDS:;
#ATTACKS:;

//---------------dance-single - ----------------
#NOTES:
     dance-single:
     :
     Beginner:
     1:
     0.098809,0.172402,0.024702,0.000000,0.000000,84.000000,81.000000,3.000000,0.000000,0.000000,0.000000,0.098809,0.172402,0.024702,0.000000,0.000000,84.000000,81.000000,3.000000,0.000000,0.000000,0.000000:
0000
0000
0000
0000
,
0000
0000
0000
0000
,
0000
0000
0000
0000
,
1000
0000
0000
0000
,
0000
0000
0001
0000
,
0000
0000
0000
0000
,
0100
0000
0000
0000
,
0000
0000
0010
0000
,
0000
0000
0000
0000
,
1000
0000
0000
0000
,
0000
0000
0100
0000
,
0000
0000
0000
0000
,
0010
0000
0000
0000
,
0000
0000
0001
0000
,
0000
0000
0000
0000
,
1000
0000
1000
0000
,
1000
0000
1000
0000
,
0000
0000
0000
0000
,
0010
0000
0010
0000
,
0010
0000
0010
0000
,
0000
0000
0000
0000
,
0100
0000
0000
0000
,
0100
0000
0000
0000
,
0001
0000
0000
0000
,
0001
0000
0000
0000
,
0010
0000
0000
0000
,
0010
0000
0000
0000
,
0100
0000
0000
0000
,
0000
0000
0000
0000
,
1000
0000
0000
0000
,
1000
0000
0000
0000
,
0010
0000
0000
0000
,
0010
0000
0000
0000
,
0100
0000
0000
0000
,
0100
0000
0000
0000
,
0001
0000
0000
0000
,
0000
0000
0000
0000
,
1000
0000
0000
0000
,
0000
0000
0100
0000
,
0100
0000
0000
0000
,
0000
0000
0010
0000
,
0010
0000
0000
0000
,
0000
0000
0001
0000
,
0001
0000
0000
0000
,
0100
0000
1001
0000
,
0010
0000
0000
0000
,
0000
0000
1000
0000
,
1000
0000
0000
0000
,
0000
0000
0100
0000
,
0100
0000
0000
0000
,
0000
0000
0010
0000
,
0010
0000
0000
0000
,
0001
0000
1001
0000
,
1000
0000
0000
0010
,
0000
0000
0100
0000
,
0000
0001
0000
0000
,
1000
0000
0000
0000
,
1000
0000
0000
0000
,
0010
0000
0000
0000
,
0010
0000
0000
0000
,
0100
0000
0000
0000
,
0100
0000
0000
0000
,
0001
0000
0000
0000
,
0000
0000
0000
0000
,
0010
0000
0000
0000
,
0010
0000
0000
0000
,
0100
0000
0000
0000
,
0100
0000
0000
0000
,
1000
0000
0000
0000
,
1000
0000
0000
0000
,
0001
0000
0000
0000
,
0000
0000
0000
0000
,
1000
0000
0000
0000
,
0010
0000
0010
0000
,
0000
0000
0100
0000
,
0100
0000
0000
0000
,
0001
0000
0001
0000
,
0000
0000
0000
0000
,
1000
0000
0000
0000
,
0010
0000
0010
0000
,
0000
0000
0100
0000
,
0100
0000
0000
0000
,
0001
0000
0001
0000
,
0000
0000
0000
1001
;

//---------------dance-single - ----------------
#NOTES:
     dance-single:
     :
     Easy:
     4:
     0.311720,0.344803,0.123512,0.000000,0.000000,265.000000,250.000000,15.000000,0.000000,0.000000,0.000000,0.311720,0.344803,0.123512,0.000000,0.000000,265.000000,250.000000,15.000000,0.000000,0.000000,0.000000:
0000
0000
0000
0000
,
0000
0000
0000
0000
,
0000
0000
0000
0000
,
1000
0000
0001
0000
,
0100
0010
0100
0000
,
0001
0000
0001
0000
,
1000
0000
0010
0100
,
1000
0001
1000
0000
,
0010
0000
0100
0000
,
0001
0000
0001
0000
,
0010
0100
0010
0010
,
0100
0000
1000
0000
,
0001
0000
0100
0000
,
0010
0010
1000
1000
,
0010
0000
0100
0001
,
1000
0100
1000
0100
,
1000
0100
0010
0000
,
0010
0000
0010
0001
,
0100
0001
0100
0001
,
0100
0010
0010
0000
,
1000
0000
0100
1001
,
1000
0010
1000
0010
,
0100
0100
0001
0001
,
0010
0100
1000
0000
,
0001
0010
0100
1000
,
0010
0100
0001
0000
,
1000
0100
0010
0100
,
1000
0000
1010
0000
,
0001
0000
0101
0000
,
1000
0001
1000
0001
,
1000
1000
0010
0010
,
0100
0100
0001
0000
,
1000
0100
0010
0100
,
1000
1000
0001
0000
,
1000
1000
0010
0100
,
0001
0000
0011
0000
,
1000
0000
1010
0000
,
1000
0100
1000
0000
,
1000
0000
0001
0100
,
0010
0100
0001
0000
,
0001
0000
1000
0010
,
0100
0010
1000
0000
,
1000
0000
0001
0010
,
0100
0010
0001
0000
,
1001
0000
1001
0000
,
1000
0100
0010
0000
,
0010
0001
0100
0010
,
0100
0001
1000
0000
,
1000
0000
0001
0010
,
0100
0010
0001
0000
,
0001
0000
1000
0010
,
0100
0010
1000
0000
,
0100
0000
1001
0000
,
1000
0000
1000
0010
,
0000
0000
0100
0000
,
0100
0000
0001
0000
0000
0000
0000
1001
,
0001
0010
0100
0000
,
1000
0000
0001
1000
,
0010
0100
0010
0000
,
1000
0000
0010
0100
,
0001
0010
0100
0000
,
1000
0000
0100
0010
,
0001
0000
0101
0000
,
1000
0000
1100
0000
,
1000
0010
0100
0000
,
0010
0000
1000
0100
,
0010
0001
0100
0000
,
0010
0000
0100
0001
,
0010
0100
1000
0000
,
0001
0000
1000
0010
,
0100
0000
1001
0000
,
0010
0000
1001
0000
,
1000
0100
0010
0001
,
0100
0100
0001
0010
,
0100
1000
0010
0010
,
1000
0001
0100
0010
,
0100
0100
0001
0010
,
0100
1000
0010
1001
,
1000
0010
0100
0001
,
1000
1000
0001
0100
,
0010
1000
0001
0001
,
1000
0100
0010
0001
,
1000
1000
0001
0010
,
0100
1000
0001
0110
;

//---------------dance-single - ----------------
#NOTES:
     dance-single:
     :
     Medium:
     7:
     0.446995,0.448244,0.090575,0.090575,0.000000,380.000000,369.000000,11.000000,11.000000,0.000000,0.000000,0.446995,0.448244,0.090575,0.090575,0.000000,380.000000,369.000000,11.000000,11.000000,0.000000,0.000000:
0000
0000
0000
0000
,
0000
0000
0000
0000
,
0000
0000
0000
0000
,
1000
0000
0100
0010
0000
0001
0000
0001
,
1000
0000
0001
0000
1000
0000
0010
0100
,
0000
0001
0000
0001
1000
0000
0001
0000
,
1000
0000
0100
0010
0000
0001
0000
1000
,
0001
0000
1000
0000
0001
0000
0100
0010
,
0000
1000
0000
0001
1000
0000
0001
0000
,
1000
0000
0100
0010
0000
0001
0000
0001
,
1000
0000
0001
0000
0100
0000
0010
1000
,
0000
0001
0000
0001
1000
0000
0001
0000
,
1000
0000
0010
0100
0000
0001
0000
0001
,
0010
0000
0100
0000
1000
0000
0100
0010
,
0000
0001
0000
0001
1000
0000
0010
0000
,
0100
0001
0010
0100
,
1000
0010
0100
0000
,
0100
0000
0100
0010
,
1000
0100
0010
0001
,
0100
0010
1000
0000
,
1000
0000
0001
0000
,
1001
0000
0001
0000
1000
0000
0010
0100
,
0000
0100
0000
0001
0000
0000
0001
0010
,
0000
0100
1000
0100
0010
0000
0000
0000
,
0001
0000
1000
0000
0010
0000
0100
0010
,
0000
0010
1000
0010
0100
0000
0000
0000
,
0001
0000
1000
0000
0100
0000
0100
1000
,
0000
0000
0010
0100
0000
0001
0000
0001
,
1000
0001
0001
0001
,
1000
0000
0010
0000
0100
0001
0000
0010
,
0000
0100
0000
1000
0000
0010
0000
0100
,
0000
0100
0001
0100
0001
0000
0000
0000
,
1000
0100
0010
0000
0100
0000
1000
0001
,
0000
0001
0100
0001
0100
0000
0000
0000
,
0010
1000
0010
0000
0100
0000
0100
0001
,
0000
0000
0001
0010
0000
0100
0000
0100
,
1000
1001
1001
1001
,
1000
0000
0100
0000
0010
0000
0001
0100
,
0000
0100
0010
0000
0100
0000
0001
0000
,
1000
0000
0100
0000
0010
0000
0100
1000
,
0000
1000
0010
0000
0100
0000
0001
0000
,
1000
0000
0100
0000
0010
0000
0001
1000
,
0000
0001
0010
0000
0100
0000
1000
0000
,
0001
0000
0100
0000
0010
0000
1000
0010
,
0000
0100
0002
0000
1000
0000
1003
0000
,
0001
0000
0010
0000
0100
0000
1000
0100
,
0000
0010
0001
0000
1000
0000
0001
0000
,
1000
0000
0010
0000
0100
0000
0001
1000
,
0000
0001
0100
0000
0010
0000
1000
0000
,
0001
0000
0010
0000
1000
0000
0010
0001
,
0000
0100
1000
0000
0100
0000
0001
0000
,
1000
0000
0100
0000
0010
0000
0001
1000
,
0000
0001
2000
0000
0001
0000
3001
0000
,
1000
0010
0100
0001
0010
0100
2000
0000
,
0000
0000
0000
3001
0100
0010
0100
0001
,
0010
0100
2000
0000
0000
0000
0000
3001
,
1000
0000
0100
0000
0010
0000
0001
0100
,
0000
0100
0000
0010
0000
0000
0100
0001
,
0000
0001
0010
0100
1000
0000
0000
0000
,
0001
0000
1000
0000
0010
0000
0100
0010
,
0000
0010
0100
0001
1000
0000
0000
0000
,
0001
0010
0100
0000
0010
0000
0001
1000
,
0000
0000
1000
0010
0000
0000
0010
0100
,
0000
0100
0001
0000
0011
0000
1100
0000
,
0001
0000
0010
0000
0100
0010
0000
0001
,
0000
0001
0000
0100
0000
0100
0000
0010
,
0000
0010
0100
0001
0100
0000
0000
0000
,
0001
0010
0100
0000
0010
0000
0001
1000
,
0000
1000
0010
1000
0010
0000
0000
0000
,
0100
0001
0100
0000
0010
0000
1000
0001
,
0000
0000
0001
0010
0000
0000
0010
0100
,
0000
0100
1000
0000
0011
0000
1100
0000
,
0002
0100
0010
1003
,
1000
0001
1000
0001
2000
0000
0010
0000
,
0100
0000
3001
0000
0001
1000
0001
1000
,
0002
0100
0010
1003
,
1000
0001
1000
0001
2000
0000
0010
0000
,
0100
3001
0011
1100
,
0002
0100
0010
1003
,
1000
0100
0010
0001
2000
0000
0010
0000
,
0100
0000
3001
0000
0001
0100
0010
1000
,
0002
0010
0100
1003
,
1000
0100
0010
0001
1000
0000
0010
0100
,
0000
0001
0000
0010
0100
0000
1001
0000
;

//---------------dance-single - ----------------
#NOTES:
     dance-single:
     :
     Hard:
     9:
     0.605795,0.827528,0.238789,0.049405,0.028819,515.000000,486.000000,29.000000,6.000000,0.000000,0.000000,0.605795,0.827528,0.238789,0.049405,0.028819,515.000000,486.000000,29.000000,6.000000,0.000000,0.000000:
// measure 0
0000
0000
0000
0000
,  // measure 1
0000
0000
0000
0000
,  // measure 2
0000
0000
0000
0000
,  // measure 3
1000
0000
0100
0010
0000
0100
0000
1000
,  // measure 4
0001
0000
0001
0000
1000
0010
0100
0001
,  // measure 5
0000
1000
0000
0001
1000
0000
1000
0000
,  // measure 6
0001
0000
0010
0100
0000
0010
0000
0001
,  // measure 7
1000
0000
1000
0000
0001
0100
0010
0100
,  // measure 8
0000
0001
0000
1000
0001
0000
0001
0000
,  // measure 9
1000
0000
0100
0010
0000
0001
0010
0100
,  // measure 10
1000
0000
0001
0000
1000
0010
0100
0001
,  // measure 11
0000
0001
0010
0100
1000
0000
0001
0000
,  // measure 12
1000
0000
0100
0010
0000
0010
0001
0010
,  // measure 13
0100
0000
1000
0000
0001
0100
0010
1000
,  // measure 14
0000
1000
0010
0100
0001
0000
0001
0010
,  // measure 15
0100
1000
0100
0001
0100
1000
0002
0000
,  // measure 16
0010
0000
0100
0000
1003
0010
0100
0001
,  // measure 17
0000
0001
0100
0010
1000
0000
1000
0010
,  // measure 18
0100
1000
0100
0001
0010
0100
2000
0000
,  // measure 19
0010
0000
0100
0000
3001
0010
0100
1000
,  // measure 20
0000
1000
0001
1000
1010
0000
0101
0000
,  // measure 21
1001
0001
0010
0000
0100
0000
1000
0010
,  // measure 22
0000
0010
0000
0100
0000
0001
0010
0100
,  // measure 23
0000
0100
0001
0100
1000
0000
0001
0000
,  // measure 24
1000
0010
0100
0000
1000
0000
0100
0001
,  // measure 25
0000
0001
0010
0100
1000
0000
0001
0000
,  // measure 26
1000
0010
0100
0000
0001
0000
0010
0100
,  // measure 27
0000
0100
1000
0010
0000
0010
0100
0001
,  // measure 28
0010
0110
1100
1001
,  // measure 29
1000
0010
0100
0000
1000
0100
0000
0001
,  // measure 30
0000
0010
0000
0100
0000
0010
0000
0001
,  // measure 31
0000
0001
1000
0010
0100
0000
0010
0000
,  // measure 32
1000
0010
0100
0000
0001
0000
0010
0100
,  // measure 33
0000
0100
0010
0001
0100
0000
0010
0000
,  // measure 34
0100
0001
0010
0000
0100
0000
1000
0001
,  // measure 35
0000
0001
0100
0010
0000
0010
1000
0100
,  // measure 36
0010
0011
1100
1001
,  // measure 37
1000
0100
0001
0000
0001
0100
1000
0000
,  // measure 38
1000
0010
0001
0000
0001
0010
1000
0100
,  // measure 39
0001
0100
1000
0000
1000
0010
0001
0000
,  // measure 40
0001
0010
1000
0000
1000
0100
0001
0100
,  // measure 41
1000
0010
0001
0000
0001
0010
1000
0000
,  // measure 42
1000
0100
0001
0000
0001
0100
1000
0010
,  // measure 43
0001
0010
1000
0000
1000
0100
0001
0100
,  // measure 44
0000
0100
1000
0000
1001
0000
0110
0000
,  // measure 45
0001
0100
1000
0000
1000
0100
0001
0000
,  // measure 46
0001
0010
1000
0000
1000
0010
0001
0100
,  // measure 47
1000
0100
0001
0000
0001
0010
1000
0000
,  // measure 48
1000
0010
0001
0000
0001
0100
1000
0100
,  // measure 49
0001
0010
1000
0000
1000
0010
0001
0000
,  // measure 50
0001
0100
1000
0000
1000
0100
0001
0010
,  // measure 51
1000
0010
0001
0000
0001
0100
1000
0100
,  // measure 52
0000
0100
0001
0000
0011
0000
0010
0100
,  // measure 53
1000
0100
0001
0100
0010
0001
1000
0000
1010
0000
0101
0000
2002
0000
0000
0000
,  // measure 54
0000
0000
0000
0000
3003
0000
0001
0010
0100
1000
0100
0010
0001
0100
0010
0000
,  // measure 55
0110
1010
2002
0000
0000
0000
3003
0110
,  // measure 56
1000
0100
0010
0000
0100
0000
1000
0010
,  // measure 57
0000
0010
0000
0100
0000
0100
0001
0010
,  // measure 58
0000
0010
0100
1000
0100
0000
0010
0000
,  // measure 59
0001
0100
0010
0000
0100
0000
0001
1000
,  // measure 60
0000
1000
0100
1000
0010
0000
0100
0000
,  // measure 61
0001
0010
0100
0000
1000
0000
0100
0010
,  // measure 62
0000
0010
0001
0100
0000
0100
0010
1000
,  // measure 63
0001
0011
1100
1001
,  // measure 64
1000
0010
0100
0000
0001
1000
0000
0100
,  // measure 65
0000
0100
0000
1000
0000
0010
0000
0100
,  // measure 66
0000
0100
0001
0010
0001
0000
1000
0000
,  // measure 67
0010
0100
0010
0000
1000
0000
0100
0010
,  // measure 68
0000
0010
0100
1000
0001
0000
1000
0000
,  // measure 69
0010
0100
0010
0000
1000
0000
0010
0100
,  // measure 70
0000
0100
0001
0010
0000
0010
0100
1000
,  // measure 71
0001
0011
1100
1001
,  // measure 72
1000
0100
0010
0001
0010
0100
1000
0001
,  // measure 73
1000
0001
1000
0001
1000
0010
0100
0001
,  // measure 74
0100
0010
1000
0001
1000
0001
1000
0001
,  // measure 75
1000
0100
0010
0001
0010
0100
1000
0001
,  // measure 76
0100
0010
0100
0010
1000
0010
0100
0001
,  // measure 77
0000
0001
0100
0010
1010
0000
0101
0000
,  // measure 78
1000
0100
0010
0001
0100
0010
1000
0001
,  // measure 79
0010
0100
0010
0100
1000
0100
0010
0001
,  // measure 80
0100
0010
1000
0001
0010
0100
0010
0100
,  // measure 81
1000
0100
0010
0001
0100
0010
1000
0001
,  // measure 82
1000
0010
1000
0010
0100
0001
0010
0100
,  // measure 83
0000
0100
0010
0001
0110
0000
1001
0000
;
