#VERSION:0.83;
#TITLE:Iris;
#SUBTITLE:;
#ARTIST:PHQUASE;
#TITLETRANSLIT:;
#SUBTITLETRANSLIT:;
#ARTISTTRANSLIT:;
#GENRE:;
#ORIGIN:;
#CREDIT:;
#BANNER:Iris.png;
#BACKGROUND:Iris-bg.png;
#PREVIEWVID:;
#JACKET:Iris-jacket.png;
#CDIMAGE:;
#DISCIMAGE:;
#LYRICSPATH:;
#CDTITLE:;
#MUSIC:Iris.ogg;
#OFFSET:-0.573000;
#SAMPLESTART:73.973999;
#SAMPLELENGTH:15.000000;
#SELECTABLE:YES;
#BPMS:0.000=108.665,
16.000=163.000,
22.000=108.670,
23.000=163.000,
74.000=108.670,
75.000=163.000,
123.000=108.670,
140.000=163.000,
175.500=108.670,
178.000=163.000,
231.000=108.670,
232.000=163.000;
#STOPS:175.500=1.012;
#DELAYS:;
#WARPS:;
#TIMESIGNATURES:0.000=4=4;
#TICKCOUNTS:0.000=4;
#COMBOS:0.000=1;
#SPEEDS:0.000=1.000=0.000=0;
#SCROLLS:0.000=1.000;
#FAKES:;
#LABELS:0.000=Song Start;
#BGCHANGES:;
#KEYSOUNDS:;
#ATTACKS:
;

//---------------dance-single - ----------------
#NOTEDATA:;
#CHARTNAME:;
#STEPSTYPE:dance-single;
#DESCRIPTION:;
#CHARTSTYLE:;
#DIFFICULTY:Beginner;
#METER:2;
#RADARVALUES:0.173531,0.209231,0.008495,0.033978,0.000000,143.000000,142.000000,1.000000,4.000000,0.000000,0.000000,0.000000,0.000000,0.000000,0.173531,0.209231,0.008495,0.033978,0.000000,143.000000,142.000000,1.000000,4.000000,0.000000,0.000000,0.000000,0.000000,0.000000;
#CREDIT:;
#NOTES:
0000
0000
0000
0000
,
0000
0000
0000
0000
,
0000
0000
0000
0000
,
0000
0000
0000
0000
,
0100
0000
0100
0000
,
0100
0000
0000
1000
,
0000
1000
1000
0000
,
0000
0001
0000
0001
,
0001
0000
0000
0100
,
0000
0100
0100
0000
,
0000
0010
0000
0010
,
0010
0000
0000
0001
,
0000
0001
0001
0000
,
0000
0100
0000
0100
,
0100
0000
0000
0010
,
0000
0010
0010
0000
,
0000
1000
0000
1000
,
1000
0000
1000
0000
,
1000
0000
0000
0100
,
0000
0010
0010
0000
,
0100
0100
0000
0010
,
0010
0000
0000
0001
,
0000
1000
1000
0000
,
0001
0001
0000
1000
,
1000
0000
0000
0010
,
0000
1000
1000
0000
,
0010
0010
0000
1000
,
1000
0000
0000
0001
,
0000
0100
0100
0000
,
0001
0001
0000
0100
,
0100
0000
0001
0001
,
0002
0000
0003
0000
,
0020
0000
0030
0000
,
2000
0000
3000
0000
,
0200
0000
0300
0000
,
0010
0000
0000
0010
,
0000
0000
1000
0000
,
0000
0001
0000
0000
,
1000
1000
0000
0100
,
0100
0000
0001
0001
,
0000
0010
0010
0000
,
0100
0100
0000
0001
,
0001
0000
1000
1000
,
0000
0010
0010
0010
,
0000
0000
0001
0000
,
0001
0001
0000
0000
,
1000
0000
1000
1000
,
0000
0000
0000
0010
0000
0000
0000
0010
,
0000
0010
0000
0000
0000
0000
0000
0100
,
0000
0000
0000
0100
0000
0100
0000
0000
,
0000
0000
0000
1000
0000
0000
0000
1000
,
0000
1000
0000
0000
0000
0000
0000
0001
,
0000
0000
0000
0001
0000
0001
0000
0000
,
0000
0100
0000
0100
,
0100
0000
0000
0010
,
0000
0010
0010
0000
,
0000
0001
0000
0001
,
0000
0001
0000
0000
,
0010
0000
0010
0010
,
0000
0010
0010
0000
,
0010
0010
0000
0000
,
0100
0000
0100
0100
,
0000
0100
0100
0000
,
0100
0100
0000
0000
,
0001
0000
0001
0001
,
0000
0001
0001
0000
,
0001
0001
0000
0000
,
1000
0000
1000
1000
,
0000
1000
1000
0000
,
1000
1000
0000
0001
,
0001
0000
0000
1001
0000
0000
0000
0000
;

//---------------dance-single - ----------------
#NOTEDATA:;
#CHARTNAME:;
#STEPSTYPE:dance-single;
#DESCRIPTION:;
#CHARTSTYLE:;
#DIFFICULTY:Easy;
#METER:4;
#RADARVALUES:0.245127,0.298901,0.059462,0.161396,0.000000,202.000000,195.000000,7.000000,19.000000,0.000000,0.000000,0.000000,0.000000,0.000000,0.245127,0.298901,0.059462,0.161396,0.000000,202.000000,195.000000,7.000000,19.000000,0.000000,0.000000,0.000000,0.000000,0.000000;
#CREDIT:;
#NOTES:
0000
0000
0000
0000
,
0000
0000
0000
0000
,
0000
0000
0000
0000
,
0000
0000
0000
0000
,
0010
0000
0100
0010
,
1000
0000
1001
1000
,
0100
0010
1000
0001
,
0100
0020
0000
0000
,
0030
0000
0000
0001
,
1000
0010
0100
1000
,
0010
0002
0000
0003
,
1000
0000
0000
0001
0000
0000
1000
0000
,
0100
0010
0100
0010
,
0001
0200
0000
0000
,
0300
0000
0000
0001
,
1000
0100
1000
0010
,
0100
0020
0000
0030
,
1000
0000
0001
0100
,
0001
0000
0110
0100
,
0001
0010
0100
0010
,
0001
2000
0000
0000
,
3000
0000
0000
0010
,
0100
0010
0001
1000
,
0010
0200
0000
0300
,
0001
0000
0000
0100
0000
0000
0001
0000
,
0010
0100
0010
0001
,
1000
0020
0000
0000
,
0030
0000
0000
0100
,
0010
0100
1000
0001
,
0010
0002
0000
0003
,
1000
0000
0000
0001
0000
0000
1001
0000
,
2000
3000
0020
0030
,
0200
0300
0002
0003
,
1000
1000
0001
0001
,
0010
0010
0100
0110
,
0200
0000
0300
0001
,
0000
1000
0000
0000
1000
0000
0000
0010
,
0000
0100
0000
0100
,
0010
0001
0010
1000
,
0100
1000
0001
1000
,
0001
0100
0100
0100
,
0001
0100
0001
0010
,
1000
0010
0100
0010
,
0100
0001
0001
2002
,
0000
3003
0100
0100
,
0010
1000
0010
0000
,
1000
0001
1000
0010
,
0100
0000
0000
0001
0000
0001
0000
0100
,
0000
0010
0000
0001
0000
0000
0000
0010
,
0000
0100
0000
0010
0000
1000
0000
0001
,
0000
0000
0000
0010
0000
0010
0000
0100
,
0000
1000
0000
0001
0000
0000
0000
1000
,
0000
0010
0000
1000
0000
0100
0000
0010
,
0000
1000
1000
0001
,
0010
0100
0000
0001
,
0010
0000
0001
0000
1000
0000
0000
0001
,
0000
1000
0000
0100
,
0010
1000
0000
1001
,
0001
1000
0010
0001
,
0100
0010
2000
0000
,
0000
3000
0000
0000
,
0001
0010
0100
0010
,
0001
1000
0020
0000
,
0030
0000
0100
0000
0000
0010
0000
0000
,
0100
1000
0100
0010
,
1000
0001
0200
0000
,
0000
0300
0000
0000
,
0001
1000
0001
0010
,
0100
0010
0002
0000
,
0003
0000
1000
0000
0000
0001
0000
0000
,
0010
0000
0000
1001
0000
0000
0000
0000
;

//---------------dance-single - ----------------
#NOTEDATA:;
#CHARTNAME:;
#STEPSTYPE:dance-single;
#DESCRIPTION:;
#CHARTSTYLE:;
#DIFFICULTY:Medium;
#METER:7;
#RADARVALUES:0.360410,0.457908,0.042473,0.237846,0.050967,297.000000,292.000000,5.000000,28.000000,0.000000,0.000000,0.000000,0.000000,0.000000,0.360410,0.457908,0.042473,0.237846,0.050967,297.000000,292.000000,5.000000,28.000000,0.000000,0.000000,0.000000,0.000000,0.000000;
#CREDIT:;
#NOTES:
0000
0000
0000
0000
,
0000
0000
0000
0000
,
0000
0000
0000
0000
,
0000
0000
0000
0000
,
1000
0000
0000
0010
0000
0100
0000
0001
,
0000
0000
0000
1001
0000
0000
0010
0010
0010
0100
0000
0000
,
1000
0000
0100
0010
0001
0000
1000
0010
,
1000
0100
0020
0000
0000
0000
0000
0000
,
0030
0000
0000
0001
,
1000
0000
0001
0100
0010
0000
0100
0001
,
0100
0010
2000
0000
0000
0000
3000
0000
,
0100
0000
0100
0010
0000
0010
0100
0000
,
1000
0000
0010
1000
0001
0000
0010
0100
,
0010
0001
0200
0000
0000
0000
0000
0000
,
0300
0000
0000
0001
,
1000
0000
0001
0010
0100
0000
1000
0001
,
1000
0100
0020
0000
0000
0000
0000
0000
,
0031
0000
0000
0100
0000
0010
0000
1000
,
0000
0000
0000
0110
0000
0000
1000
1000
1000
0001
0000
0000
,
0010
0000
0100
1000
0001
0000
1000
0100
,
1000
0001
0200
0000
0000
0001
0000
0000
,
0310
0000
0000
1000
0000
0000
0010
0000
,
0001
0000
0100
0010
1000
0000
0010
0100
,
0010
1000
0002
0000
0000
0000
0003
0000
,
1000
0000
1000
0010
0000
0010
1000
0000
,
0001
0000
0100
0001
0010
0000
0100
0010
,
0100
1000
0020
0000
0000
1000
0000
0000
,
0130
0000
0000
0001
0000
0000
0100
0000
,
0010
0000
1000
0001
0010
0000
0001
0100
,
0001
1000
0200
0000
0000
0000
0000
0000
,
0310
0000
0000
0000
0000
0000
0010
0000
0000
0001
0000
0000
0000
0000
0000
0001
0000
0000
0100
0000
0100
0000
0100
0000
,
0020
0000
2030
3200
,
2300
0000
0000
3000
0001
1000
0002
0000
0000
0203
0000
0000
,
0310
0010
1000
1000
,
0010
0000
0000
0100
0000
0000
0001
0000
0000
0010
0010
0010
,
0200
0000
0000
0000
0300
0001
2000
0000
,
0000
3002
0000
0000
0023
0000
0000
0230
,
0000
0310
0002
0000
0003
0000
0100
0000
,
0010
1000
0010
0000
0100
0000
0001
0100
,
0001
0000
0010
0000
0100
0010
0100
0000
,
0001
0000
1000
0001
1000
0001
0100
0000
,
0001
0000
0010
0001
0010
0000
0100
0000
,
1000
0100
1000
0000
0001
0000
0100
0001
,
0100
0000
0010
0100
0010
1000
1000
1001
,
0001
1000
0010
0100
,
0001
0000
1000
0010
0100
0010
0000
0000
,
1000
0001
0010
0100
,
1000
0001
0000
0100
0000
0010
0000
1000
,
0000
0001
0010
0100
0010
0000
0000
0001
,
0000
1000
0000
0001
0000
0100
0000
0010
,
0100
0000
0000
0001
0000
1000
0000
0010
,
0000
0100
0001
1000
0001
0000
0000
0010
,
0000
0100
0000
1000
0000
0100
0000
1000
,
0010
0100
0001
0010
,
0100
1000
0010
1000
0000
0000
0001
0000
,
0100
0000
0010
0000
2000
0000
0000
3020
,
0000
0000
0130
0000
0000
0001
0000
1000
,
0000
0000
0000
0010
0000
0000
0000
0000
0000
0000
0000
0000
0110
0000
0000
0000
0000
0000
0001
0000
0001
0000
0001
0000
,
0100
0000
0010
0000
1000
0001
0100
0000
,
0010
1000
0010
0100
0002
0000
0000
0000
,
0000
0003
0000
0000
,
1000
0000
0010
0000
0100
0001
0010
0000
,
0001
1000
0001
0100
0020
0000
0000
0000
,
0000
0000
1030
0000
1000
0100
0000
0100
,
0010
0000
0001
0000
0010
0100
1000
0000
,
0010
0100
0010
1000
0200
0000
0000
0000
,
0000
0300
0000
0000
,
1000
0000
0001
0000
1000
0100
0010
0000
,
0001
0010
0001
1000
0020
0000
0000
0000
,
0030
0000
0100
0000
0100
0001
0000
0001
,
0010
0010
0010
0220
0000
0000
0000
0000
,
0000
0000
0000
0000
0000
0000
0000
0330
;

//---------------dance-single - ----------------
#NOTEDATA:;
#CHARTNAME:;
#STEPSTYPE:dance-single;
#DESCRIPTION:;
#CHARTSTYLE:;
#DIFFICULTY:Hard;
#METER:9;
#RADARVALUES:0.624954,0.810271,0.237846,0.297308,0.386501,515.000000,487.000000,28.000000,35.000000,0.000000,0.000000,0.000000,0.000000,0.000000,0.624954,0.810271,0.237846,0.297308,0.386501,515.000000,487.000000,28.000000,35.000000,0.000000,0.000000,0.000000,0.000000,0.000000;
#CREDIT:;
#NOTES:
// measure 0
0000
0000
0000
0000
,  // measure 1
0000
0000
0000
0000
,  // measure 2
0000
0000
0000
0000
,  // measure 3
0000
0000
0000
0000
,  // measure 4
1000
0001
0000
0000
0000
0000
0010
0100
0000
0000
0010
0001
0000
0000
1000
0100
,  // measure 5
0000
0000
0000
0000
0000
0000
0001
0000
0000
0000
0000
0000
1001
0000
1001
0000
1001
0000
1000
0000
0000
0001
0000
0000
,  // measure 6
0010
0000
0001
0000
0100
0000
0010
0000
1000
0000
0100
0010
0100
0000
1000
0000
,  // measure 7
0010
1000
0002
0000
0000
0010
0000
0000
,  // measure 8
0103
0000
0000
1000
0000
0000
0001
1000
,  // measure 9
0010
0000
1000
0000
0100
0000
0010
0000
0001
0000
0010
0001
0010
0000
0100
0000
,  // measure 10
0010
0000
0001
0000
2000
0000
0000
0000
0000
0000
0000
0000
3000
0000
0010
0100
,  // measure 11
0001
0100
0001
1000
0010
0100
0010
1000
,  // measure 12
0100
0000
1000
0000
0001
0000
0100
0000
0010
0000
1000
0010
1000
0000
0001
0000
,  // measure 13
1000
0010
0200
0000
0000
0001
0000
0001
,  // measure 14
0310
0100
1000
0010
0000
0000
0100
0001
,  // measure 15
1000
0000
0001
0000
0010
0000
0100
0000
0010
0000
0001
0010
0001
0000
0100
0000
,  // measure 16
0010
1000
0020
0000
0000
0000
0030
0000
,  // measure 17
0100
0001
0000
0000
0000
0000
1000
0100
0000
0000
0100
0010
0000
0000
0010
0001
,  // measure 18
0000
0000
0000
0000
0000
0000
0100
0000
0000
0000
0000
0000
0110
0000
0110
0000
0110
0000
0010
0000
0000
0100
0000
0000
,  // measure 19
0001
0000
0100
0000
0010
0000
1000
0000
0001
0000
0100
0001
0100
0000
0010
0000
,  // measure 20
1000
0000
0010
0000
0200
0000
0000
1000
0000
0000
0010
0000
0000
1000
0000
0000
,  // measure 21
0301
0000
0000
0100
0000
0000
0001
0000
0010
0000
0100
0000
1000
0000
0001
0000
,  // measure 22
0100
0000
0001
0000
0010
0000
0100
0000
1000
0000
0001
1000
0001
0000
0100
0000
,  // measure 23
0010
0000
0100
0000
0002
0000
0000
1000
0000
0000
1000
0000
0003
0000
0100
0010
,  // measure 24
0001
0010
0100
1000
0001
1000
0001
0100
,  // measure 25
0010
0000
0100
0000
0001
0000
1000
0000
0010
0000
0100
0010
0100
0000
0001
0000
,  // measure 26
0010
0000
0000
0000
0000
0000
0000
0000
0000
0000
0000
0000
0000
0000
0000
0000
0000
0000
0000
0000
0000
0000
0000
0000
0001
0000
0000
0000
0000
0000
0000
0000
0000
0000
0000
0000
0000
0000
0000
0000
0000
0000
0000
0000
0000
0000
0000
0000
2000
0000
0000
0000
0000
0000
0000
0000
0000
0000
0000
0000
0000
0000
0000
0000
0000
0000
0000
0000
0000
0000
0000
0000
0000
0000
0000
0000
0000
0000
0000
0000
0000
0000
0000
0000
0010
0000
0000
0000
0000
0000
0000
0000
0000
0000
0000
0000
0000
0000
0000
0000
0000
0000
0000
0000
0000
0000
0000
0000
0000
0000
0000
0000
0000
0000
0000
0000
0000
0000
0000
0000
0001
0000
0000
0000
0000
0000
0000
0000
0000
0000
0000
0000
0000
0000
0000
0000
0000
0000
0000
0000
0000
0000
0000
0000
0000
0000
0000
0000
0000
0000
0000
0000
0000
0000
0000
0000
0010
0000
0000
0000
0000
0000
0000
0000
0000
0000
0000
0000
0000
0000
0000
0000
0000
0000
0000
0000
0000
0000
0000
0000
0000
0000
0000
0000
0000
0000
0000
0000
0000
0000
0000
3000
,  // measure 27
0100
0000
0000
0010
0000
0000
1000
0000
0010
0000
0100
0000
0001
0000
1000
0000
,  // measure 28
0100
0000
1000
0000
0010
0000
0100
0000
0001
0000
0010
0001
0010
0000
0100
0000
,  // measure 29
0010
0000
0001
0000
0200
0000
0000
0010
0000
0000
0010
0000
0000
0010
0000
0000
,  // measure 30
1300
0000
0000
0001
0000
0000
1000
0000
0000
0010
0000
0000
0100
0000
0000
0001
0000
0000
0101
0000
0101
0000
0101
0000
,  // measure 31
0200
0000
0000
0000
0000
0000
0000
0000
0000
0000
0310
1000
0002
0000
0000
0000
0000
0000
2003
0000
0000
0000
0000
0000
,  // measure 32
3020
0000
0000
0000
0130
0001
2000
0000
0000
3002
0000
0013
,  // measure 33
0200
1000
0301
1000
,  // measure 34
0100
0000
0000
1000
0000
0000
0010
0000
0000
1010
1010
1010
,  // measure 35
2000
0000
0000
0000
0000
0000
0000
0000
3000
0000
0010
0100
0002
0000
0000
0000
,  // measure 36
0000
0100
0000
0003
0200
0000
0000
0320
,  // measure 37
0000
0000
0000
1030
0000
0000
0100
0000
1000
0000
0020
0000
0000
0000
0000
0000
0000
0000
0130
0000
0000
0001
0000
0000
,  // measure 38
0010
0100
0010
0100
0010
0000
0001
0000
0100
0000
0010
0000
1000
0010
1000
0010
,  // measure 39
1000
0000
0100
0000
0010
0000
0001
0000
0100
0001
0100
0001
0100
0000
0010
0000
,  // measure 40
1000
0000
0100
0000
0010
0001
0010
0001
0010
0001
1000
0000
0001
0000
1000
0000
,  // measure 41
0010
0000
0100
0000
0001
0000
1000
0100
1000
0100
1000
0000
0010
0000
0100
0000
,  // measure 42
0001
0000
0010
0100
0010
0100
0010
0000
0001
0000
1000
0000
0010
0000
0100
0001
,  // measure 43
0100
0001
0100
0000
0010
1000
0010
0100
0010
0000
1100
0000
0101
0000
1001
0000
,  // measure 44
0020
0000
0000
0000
0230
0000
0000
0000
0310
0000
0000
0010
0000
0000
0010
0000
,  // measure 45
0001
0000
1000
0000
0100
0000
1000
0000
0010
0000
0100
0000
0000
0000
0001
1000
,  // measure 46
0001
0000
0010
0001
0010
0000
0100
0000
1000
0010
2000
0000
0000
0000
3010
0000
,  // measure 47
0100
0010
0100
0000
0000
0000
0001
0000
0000
0001
0000
0000
0001
0000
1000
0000
,  // measure 48
0010
0000
0100
0000
0010
0000
1000
0000
0001
0000
0000
0000
0010
0100
0010
0000
,  // measure 49
0001
0000
1000
0000
0100
0000
0010
0000
0100
1000
0100
0000
1000
0010
1000
0010
,  // measure 50
1000
0000
0000
0000
0000
0000
0100
0000
0000
0100
0000
0000
0100
0000
0010
0000
,  // measure 51
0001
0000
0010
0000
0100
0000
1000
0000
0001
0000
0000
0100
0010
0100
0001
0000
,  // measure 52
1000
0100
1000
0000
0010
0000
0100
0001
0200
0000
0000
0000
0310
0000
1000
0001
,  // measure 53
1000
0000
0100
0000
1000
0000
0000
1000
0000
0000
1000
0000
0010
0000
0100
0000
,  // measure 54
0001
0100
0010
1000
0000
0001
1000
0001
,  // measure 55
0100
0000
0010
1000
0010
0000
0100
0000
0002
0000
0000
0000
0000
0000
0203
0000
,  // measure 56
0000
0000
0310
0000
1000
0010
0000
0000
0000
0000
0100
0001
0000
0000
0010
0001
,  // measure 57
0000
0000
0000
0000
0000
0000
0010
0000
0000
0100
0000
0000
0000
0000
0000
0000
0000
0000
0000
0000
0000
0000
0000
0000
1000
0000
0000
0000
0000
0000
0000
0000
0000
0000
0000
0000
1100
0000
0000
0000
1100
0000
0000
0000
1100
0000
0000
0000
,  // measure 58
0100
0000
0010
0000
0001
0000
1000
0000
0001
0000
0100
0000
0010
0000
1000
0010
,  // measure 59
1000
0100
0010
0100
2000
0000
0000
0010
,  // measure 60
0001
0010
3100
0001
1000
0010
0000
0000
,  // measure 61
0100
0000
0001
0000
1000
0000
0010
0000
0100
0000
0001
0000
0100
0000
0010
0100
,  // measure 62
0010
1000
0100
1000
0002
0000
0000
0010
,  // measure 63
0003
0000
0011
0011
0011
0110
0110
0110
,  // measure 64
0100
0000
1000
0000
0100
0000
0010
0000
0001
0000
1000
0000
0001
0000
0010
0001
,  // measure 65
0010
0000
0100
0000
1000
0000
0001
0000
0020
0000
0000
0001
0000
0000
0100
0000
,  // measure 66
0000
0001
0000
0000
0130
0000
0000
1000
0000
0000
0001
0000
1000
0000
0010
0000
,  // measure 67
0100
0000
0001
0000
0010
0000
0001
0000
1000
0000
0010
0000
0100
0000
0001
0100
,  // measure 68
0001
1000
0010
1000
0200
0000
0000
0000
,  // measure 69
0300
0000
1000
0001
1000
0010
0100
0010
,  // measure 70
1001
1001
1001
2200
0000
0000
0000
0300
,  // measure 71
0000
0002
0000
0000
0000
0003
0000
0020
,  // measure 72
0000
0000
0000
0030
0000
0002
0000
0000
,  // measure 73
0000
0000
0000
3003
0000
0000
0000
0000
;
