#TITLE:HEAT-BIT-HIT-BEAT;
#SUBTITLE:;
#ARTIST:V.C.O.;
#TITLETRANSLIT:;
#SUBTITLETRANSLIT:;
#ARTISTTRANSLIT:;
#GENRE:;
#CREDIT:;
#BANNER:heatbithitbeat_bn.png;
#BACKGROUND:heatbithitbeat_bg.png;
#LYRICSPATH:;
#CDTITLE:cdtitle.png;
#MUSIC:heatbithitbeat.ogg;
#OFFSET:-1.169000;
#SAMPLESTART:57.168999;
#SAMPLELENGTH:9.333336;
#SELECTABLE:YES;
#BPMS:0.000000=180.000000
;
#STOPS:
;
#BGCHANGES:;
#KEYSOUNDS:;
#ATTACKS:;

//---------------dance-single - ----------------
#NOTES:
     dance-single:
     :
     Hard:
     9:
     0.813500,0.870724,0.925038,0.000000,0.148515,671.000000,562.000000,109.000000,0.000000,0.000000,0.000000,0.813500,0.870724,0.925038,0.000000,0.148515,671.000000,562.000000,109.000000,0.000000,0.000000,0.000000:
0000
0000
0000
0000
,
0000
0000
0000
0000
,
0000
0000
0000
0000
,
0000
0000
0011
0011
,
0001
0101
0000
0101
0000
0001
0001
1000
,
0100
0000
1100
0000
1100
0000
1000
1010
,
0000
1010
0000
1000
1000
0001
0100
0000
,
0101
0000
0101
0000
1000
1100
0000
1100
,
0000
1000
0100
0000
0101
0000
0110
0000
,
0110
0000
0001
0011
0000
0011
0000
0001
,
0100
1100
0110
0110
,
0010
1010
0000
1010
0000
1000
0010
0000
,
0011
0000
0001
0000
0010
0000
0000
1000
,
0000
0000
0100
0000
0000
0000
0010
0100
0010
0100
0010
0100
0000
0000
0000
0000
,
0010
0100
1000
0000
1000
0001
0000
0000
,
0001
0100
0100
0001
0100
0010
0100
1000
,
0100
0000
0000
0110
0000
0000
0001
1000
,
1000
0100
0010
0100
0010
0010
0010
0000
,
0001
0001
0001
0000
1000
1000
1000
1000
,
0000
0001
0001
0001
0001
0000
0100
0100
,
0100
0000
0010
0010
0010
0010
0000
1000
,
0100
0010
0001
0000
1000
0001
0000
0000
,
0001
0100
0100
0001
0010
0100
0010
1000
,
0010
0000
0000
0110
0000
0000
0001
0010
,
0010
0100
1000
0010
0100
0100
0100
0000
,
0001
0001
0001
0000
1000
1000
1000
1000
,
0000
0100
0100
0100
0100
0000
0010
0010
,
0010
0000
0001
0001
0001
0001
0000
1000
,
0001
0100
0001
0000
0100
0000
0001
0000
0100
0000
0010
0000
1000
0000
0100
0000
,
0010
0000
0100
0000
1000
0000
0010
0000
0100
0000
0001
0000
0100
0001
0100
0000
,
0010
0100
0001
0010
0100
1000
0100
0010
,
0001
0000
0100
0000
0010
0000
0100
0000
0010
0100
0010
0000
1000
0000
0100
0000
,
0010
1000
0010
0001
0010
0100
0010
0001
,
0100
0000
0001
0000
0100
0001
0100
0000
0010
0000
0100
0000
0001
0000
0100
0000
,
1000
0000
0100
0000
0010
0000
1000
0000
0100
0000
1000
0000
0100
1000
0100
1000
,
0001
0100
0101
0000
0001
0100
0101
0000
,
1001
0000
0000
0000
1100
0000
0000
0000
0110
0000
0110
0000
0010
0100
0000
0000
,
1000
0000
0000
0001
1000
1100
0000
1001
,
1001
0000
0000
0000
0101
0000
0000
0000
0010
0100
0000
0000
0110
0000
0000
0000
,
1000
0001
0101
0000
1001
0000
0011
0000
,
0110
0000
0110
0000
0010
0100
0000
0000
1001
0000
0000
0000
1000
0000
1100
0000
,
0000
0000
0000
0000
0000
0000
0000
0000
0000
0000
1000
0000
0001
0100
0010
1000
,
0010
1000
0000
0000
1010
0000
0000
0000
1010
0000
1000
0000
1010
0000
0000
0000
,
1010
1000
0010
0110
0100
0001
0010
0001
,
0011
0000
0011
0010
0011
0000
0011
0001
,
0101
0000
0100
0000
0110
0000
0110
0000
0010
0100
0000
0000
0110
0000
0000
0000
,
0110
0010
0110
0000
0110
0010
1000
1010
,
0010
0100
0001
1000
1001
0000
1001
0001
,
1001
0000
0000
0000
0001
1000
0001
0000
0010
0000
0100
0000
1000
0000
0001
0000
,
0100
0001
0000
0000
0101
0000
0000
0000
1001
0000
1000
0000
1100
0000
0000
0000
,
1100
0100
0010
0011
0001
0100
0010
0100
,
0101
0000
0101
0001
0011
0000
0011
0010
,
0110
0000
0100
0000
1100
0000
1100
0000
1000
0100
0000
0000
1100
0000
0000
0000
,
1100
1000
1001
0000
1001
0001
0100
0110
,
0010
0100
0001
0100
0101
0000
0101
0100
,
0110
0000
0000
0000
0010
0100
0010
0000
1000
0000
0100
0000
1100
0000
1000
0000
,
0001
0100
0010
0100
0100
0010
1000
0001
,
1000
0001
1000
0000
0100
0000
0010
0000
0010
0000
0001
0000
0010
0000
0100
0000
,
0010
0000
0001
0000
0001
0000
0100
0000
0010
0000
0100
0000
0010
0100
0010
0000
,
1000
0000
0010
0000
0100
0000
0010
0000
1000
0010
1000
0000
0001
0000
0010
0000
,
0010
0000
0100
0000
0010
0000
0001
0000
1000
0001
1000
0000
0001
0000
0100
0000
,
0100
0010
1000
0001
0010
0001
0001
0010
,
0100
0000
1000
0000
0100
1000
0100
0000
0010
0000
0100
0000
0010
0100
0010
0000
,
0000
0000
0011
0000
0001
1000
0000
1100
,
0000
1001
1000
0010
0100
0000
0101
0000
,
1001
0000
1000
0010
0000
0110
0000
0101
,
0001
0001
1000
1000
1100
0000
1000
0100
,
0100
0000
0001
0000
0100
0000
0010
0000
0100
0010
0100
0000
1000
0000
0001
0000
,
0001
0100
1000
0100
0010
0100
0100
0001
,
1000
0000
1000
0000
0001
1000
0001
0000
0010
0000
0100
0000
0010
0000
0010
0000
,
0100
0000
0100
1000
1000
0010
0001
0010
,
0100
0010
0100
0000
0010
0000
1000
0000
1000
0000
0001
0000
0010
0000
1000
0000
,
0010
0000
0100
0000
0100
0000
1000
0000
0001
0000
0001
0000
1000
0001
1000
0000
,
0010
0100
0010
1010
0000
0000
1100
0000
,
1000
0001
0000
0011
0000
1001
0001
0100
,
0010
0000
1010
0000
1001
0000
0001
0100
,
0000
0110
0000
1010
1000
1000
0001
0001
,
0011
0000
0001
0010
0010
1000
0010
0100
,
0010
0100
0010
0000
0001
0000
1000
0000
1000
0000
0010
0000
0001
0000
0010
0000
,
0100
0000
0010
0000
0010
0000
1000
0000
0001
0000
0001
0000
1000
0001
1000
0000
,
0100
0010
0100
0100
0010
0000
0010
0001
,
0001
0000
0100
0000
1000
0000
0100
0000
0010
0100
0010
0000
0100
0000
0001
0000
,
0001
1000
0100
0001
0100
0010
0010
0001
,
1000
0000
1000
0000
0001
1000
0001
0000
0100
0000
0010
0000
0100
0000
0100
0000
,
0100
0000
0110
0110
0110
0000
1010
1010
,
1000
0010
0000
0000
1001
0000
1001
0000
1001
0000
0000
0000
0000
0000
0000
0000
;

//---------------dance-single - ----------------
#NOTES:
     dance-single:
     :
     Easy:
     5:
     0.344313,0.580483,0.390383,0.008487,0.000000,284.000000,238.000000,46.000000,1.000000,0.000000,0.000000,0.344313,0.580483,0.390383,0.008487,0.000000,284.000000,238.000000,46.000000,1.000000,0.000000,0.000000:
0000
0000
0000
0000
,
0000
0000
0000
0000
,
0000
0000
0000
0000
,
0000
0000
0001
0001
,
0000
1000
0000
1000
0000
1000
0000
0000
,
0010
0000
0010
0000
0010
0000
0000
0100
,
0000
0100
0000
0100
0000
0000
0001
0000
,
0001
0000
0001
0000
0000
0010
0000
0010
,
0000
0010
0000
0000
0100
0000
0100
0000
,
0100
0000
0000
1000
0000
1000
0000
1000
,
0000
0010
0100
0100
,
0000
0001
0000
0001
0000
1000
0000
0000
,
1000
0000
0100
0000
0100
0000
0000
0010
,
0000
0010
0000
0020
0000
0030
0000
0000
,
0001
0000
0001
0000
0000
0101
0000
0000
,
0000
0001
0000
0000
0001
0000
1000
0000
,
0100
0000
0000
0100
0000
0000
0000
0100
,
0000
1000
1001
0000
,
1100
0000
0110
0000
,
0000
0011
0000
0000
0000
0000
1001
0000
,
0000
1010
0000
0000
,
1000
0000
0100
0000
0000
0110
0000
0000
,
0000
0100
0000
0000
1000
0000
0001
0000
,
0100
0000
0000
0110
0000
0000
0000
0100
,
0000
0001
1001
0000
,
0101
0000
0110
0000
,
0000
1010
0000
0000
0000
0000
1001
0000
,
0000
0011
0000
0000
,
1001
0000
0000
0000
,
0000
0000
0000
0110
,
0000
0000
0000
0000
,
0000
0000
1001
0000
,
0000
0000
0000
0000
,
0000
0110
0000
0000
,
0000
0000
0000
0000
,
1000
0001
0000
0001
,
0100
1000
0100
0010
,
0010
0000
0000
0000
0000
1000
0000
0100
,
0000
0010
0100
0010
,
0000
0001
0010
1000
,
0010
0000
0100
0000
0100
0000
0000
0100
,
0000
0000
0000
0000
,
1001
1001
1000
1000
,
0010
0010
0100
0101
,
0101
0001
1000
0100
,
0010
0100
0110
0110
,
0010
0010
0001
0001
,
1000
1010
1010
1000
,
0100
1000
0010
0100
,
0101
1001
1000
0100
,
0010
0100
1000
1100
,
1100
1000
0001
0100
,
0010
0100
0110
0110
,
0100
0001
0010
0100
,
0010
0110
0110
0100
,
1000
0001
0100
0010
,
0110
0000
0000
0000
,
0000
0000
0000
0000
,
0000
0000
0000
0000
,
0001
0100
1000
0000
,
0000
0000
0000
0000
,
0000
0000
0000
0000
,
0000
0000
1000
0100
,
0001
0000
0101
0000
0000
0001
0000
0010
,
0000
0100
0000
0010
0000
0000
0001
0000
,
0100
0000
0010
0000
0000
0100
0000
0010
,
0000
1000
0000
0000
1000
0000
1000
0000
,
0100
0100
1000
0010
,
0100
0100
0001
0010
,
0001
0100
0010
0110
,
0000
0100
0001
0001
,
0010
0100
0010
0010
,
0001
0100
0010
1000
,
0100
0100
1000
1000
,
0100
0000
0000
0100
0000
0010
0000
0001
,
0000
0100
0010
0100
,
0000
0001
0000
0010
0000
0100
0000
0000
,
1000
0001
0100
0100
,
0010
0100
0001
1000
,
1000
0100
0010
0100
,
1000
1001
0000
0001
,
0100
0100
0010
1000
,
0100
0010
0010
0001
,
1000
0010
0100
0001
,
0101
0101
0110
0110
,
1010
1010
1001
0000
;

//---------------dance-single - ----------------
#NOTES:
     dance-single:
     :
     Medium:
     8:
     0.522531,0.580483,0.127299,0.000000,0.000000,431.000000,416.000000,15.000000,0.000000,0.000000,0.000000,0.522531,0.580483,0.127299,0.000000,0.000000,431.000000,416.000000,15.000000,0.000000,0.000000,0.000000:
// measure 0
0000
0000
0000
0000
,  // measure 1
0000
0000
0000
0000
,  // measure 2
0000
0000
0000
0000
,  // measure 3
0000
0000
0001
0100
,  // measure 4
0010
0100
0000
0100
0000
0100
0001
0000
,  // measure 5
0010
0000
0100
0000
0010
0000
0100
0010
,  // measure 6
0000
0001
0000
1000
0001
0000
0100
0000
,  // measure 7
0010
0000
0100
0000
0001
0100
0000
0010
,  // measure 8
0000
0100
0001
0000
1000
0000
0100
0000
,  // measure 9
0010
0000
0100
1000
0000
0001
0000
0100
,  // measure 10
0010
0100
0001
0100
,  // measure 11
0001
0010
0000
0001
0000
1000
0010
0000
,  // measure 12
1000
0000
0100
0000
0010
0000
0000
0100
,  // measure 13
0000
0100
0000
0010
0001
1000
0000
0000
,  // measure 14
0001
0100
0001
0000
0000
0101
0000
0000
,  // measure 15
0000
0001
1000
0000
0100
0000
1000
0000
,  // measure 16
0010
0000
0000
1010
0000
0000
0000
0100
,  // measure 17
0001
0000
0010
0000
0001
0010
0001
0000
,  // measure 18
1000
0100
1000
0000
0010
1000
0010
1000
,  // measure 19
0000
0001
0100
0001
0100
0000
0001
0010
,  // measure 20
0001
0000
1000
0010
1000
0010
0000
1000
,  // measure 21
0100
1000
0100
0000
0000
1100
0000
0000
,  // measure 22
0000
0100
1000
0000
0010
0000
0100
0000
,  // measure 23
0001
0000
0000
0101
0000
0000
0000
0100
,  // measure 24
0001
0000
1000
0000
1000
0100
0001
0000
,  // measure 25
0001
0100
1000
0000
1000
0100
0001
0100
,  // measure 26
0000
0010
0001
0100
1000
0000
1000
0100
,  // measure 27
0001
0000
0001
0010
1000
0010
0000
0001
,  // measure 28
0100
0001
0100
0000
0010
0000
0100
0000
,  // measure 29
0001
0000
1000
0000
0100
0000
0010
0100
,  // measure 30
0010
0001
1000
0010
,  // measure 31
0100
0000
0010
0000
1000
0100
1000
0000
,  // measure 32
0010
0100
1000
0100
,  // measure 33
0001
0000
0001
0100
0001
0000
0010
0000
,  // measure 34
0100
0001
0100
1000
,  // measure 35
0001
0000
0001
0000
0000
0100
0001
0000
,  // measure 36
0100
0000
0010
0000
0010
1000
0100
0000
,  // measure 37
0100
0000
0000
0000
1000
0010
0000
0100
,  // measure 38
0010
0000
0100
0000
0001
1000
0100
0000
,  // measure 39
0000
0100
0010
0000
0001
0000
0100
0000
,  // measure 40
0001
1000
0010
0000
0100
0000
0100
0001
,  // measure 41
0000
0000
0000
0000
0000
0001
0000
0000
,  // measure 42
1001
0000
1001
0000
1000
0100
1000
0000
,  // measure 43
0010
0100
0010
1000
0010
0100
0001
0000
,  // measure 44
0101
0000
0001
0100
0001
0000
0010
0100
,  // measure 45
0010
0001
0010
0100
0010
0000
0110
0000
,  // measure 46
0010
0001
1000
0000
0010
1000
0001
1000
,  // measure 47
0100
1000
0010
0000
1010
0000
1000
0001
,  // measure 48
0010
0000
0001
1000
0001
0010
0001
0100
,  // measure 49
0010
0000
0110
0000
0010
1000
0100
0000
,  // measure 50
0001
0100
1000
0100
0010
0100
1000
0000
,  // measure 51
1100
0000
1000
0010
0001
0000
0001
0010
,  // measure 52
1000
0010
0100
0001
0010
0000
0011
0000
,  // measure 53
0001
0010
1000
0000
1000
0010
0001
0010
,  // measure 54
0001
0100
0010
0000
0101
0000
0001
0100
,  // measure 55
1000
0000
1000
0100
0001
0000
0010
0100
,  // measure 56
0010
0001
1000
0010
,  // measure 57
0100
0010
1000
0000
0100
0000
1000
0000
,  // measure 58
0001
0010
0001
0100
,  // measure 59
0001
0100
1000
0100
0001
0100
0001
0000
,  // measure 60
0010
0100
0010
0001
,  // measure 61
1000
0100
1000
0010
,  // measure 62
0100
0000
0010
1000
0100
0001
0100
0010
,  // measure 63
0000
0000
0110
0000
0010
0001
0000
0100
,  // measure 64
0000
0010
0000
1000
0010
0000
0100
0000
,  // measure 65
0001
0000
0010
0001
0000
0100
0000
0001
,  // measure 66
1000
0100
1000
0001
1000
0000
1000
0000
,  // measure 67
0001
0000
0010
0000
0100
0010
0001
0000
,  // measure 68
0100
0001
1000
0010
,  // measure 69
1000
0000
0100
0000
1000
0100
0001
0100
,  // measure 70
1000
0100
1000
0000
0010
0000
0100
0000
,  // measure 71
0010
1000
0001
0100
,  // measure 72
0001
0000
0010
0000
0100
0000
0010
0001
,  // measure 73
0100
1000
0100
0010
0000
0000
0110
0000
,  // measure 74
0010
1000
0000
0100
0000
0010
0000
0001
,  // measure 75
0010
0000
0100
0000
1000
0000
0010
1000
,  // measure 76
0000
0100
0000
1000
0001
0100
0001
1000
,  // measure 77
0001
0000
1000
0000
0100
0000
0010
0100
,  // measure 78
1000
0010
1000
0001
,  // measure 79
0100
0000
0001
0000
0010
0000
0001
0010
,  // measure 80
1000
0010
0001
0010
0001
0000
0100
0000
,  // measure 81
0010
0100
0001
1000
,  // measure 82
0010
1000
0100
0010
,  // measure 83
0100
1000
0010
0001
0010
0100
0010
0100
,  // measure 84
0001
0000
0001
0100
1000
0000
1000
0100
,  // measure 85
0001
0100
0010
1000
0001
0000
0000
0000
;
