#VERSION:0.82;
#TITLE:Got hive of Ra;
#SUBTITLE:;
#ARTIST:E.G.G.;
#TITLETRANSLIT:;
#SUBTITLETRANSLIT:;
#ARTISTTRANSLIT:;
#GENRE:;
#ORIGIN:;
#CREDIT:;
#BANNER:Got hive of Ra.png;
#BACKGROUND:Got hive of Ra-bg.png;
#PREVIEWVID:;
#JACKET:Got hive of Ra-jacket.png;
#CDIMAGE:;
#DISCIMAGE:;
#LYRICSPATH:;
#CDTITLE:;
#MUSIC:Got hive of Ra.ogg;
#OFFSET:-0.999600;
#SAMPLESTART:30.016533;
#SAMPLELENGTH:15.000000;
#SELECTABLE:YES;
#DISPLAYBPM:134.000000:268.000000;
#BPMS:0.000=134.000,
65.000=268.000,
202.000=328.000,
204.000=268.000;
#STOPS:;
#DELAYS:;
#WARPS:;
#TIMESIGNATURES:0.000=4=4;
#TICKCOUNTS:0.000=4;
#COMBOS:0.000=1;
#SPEEDS:0.000=1.000=0.000=0;
#SCROLLS:0.000=1.000;
#FAKES:;
#LABELS:0.000=Song Start;
#BGCHANGES:;
#KEYSOUNDS:;
#ATTACKS:
;

//---------------dance-single - ----------------
#NOTEDATA:;
#CHARTNAME:;
#STEPSTYPE:dance-single;
#DESCRIPTION:;
#CHARTSTYLE:;
#DIFFICULTY:Challenge;
#METER:10;
#RADARVALUES:0.818230,1.000000,0.333185,0.364917,0.257822,634.000000,42.000000,46.000000,0.000000,0.000000,0.000000,0.000000,0.000000,0.818230,1.000000,0.333185,0.364917,0.257822,634.000000,42.000000,46.000000,0.000000,0.000000,0.000000,0.000000,0.000000;
#CREDIT:;
#OFFSET:-0.999600;
#BPMS:0.000000=134.000000
,65.000000=268.000000
,202.000000=328.000000
,204.000000=268.000000
;
#STOPS:;
#DELAYS:;
#WARPS:;
#TIMESIGNATURES:0.000000=4=4
;
#TICKCOUNTS:0.000000=4
;
#COMBOS:0.000000=1
;
#SPEEDS:0.000000=0.100000=0.000000=0
,0.250000=1.000000=11.750000=0
,60.000000=2.000000=2.500000=0
,65.000000=2.000000=0.000000=0
,150.500000=2.200000=0.250000=0
,151.500000=2.400000=0.250000=0
,152.500000=2.600000=0.250000=0
,153.500000=2.000000=0.500000=0
,158.000000=2.200000=0.250000=0
,159.000000=2.400000=0.250000=0
,160.000000=2.600000=0.250000=0
,161.000000=2.000000=0.500000=0
,165.500000=2.200000=0.250000=0
,166.500000=2.400000=0.250000=0
,167.500000=2.600000=0.250000=0
,168.500000=2.800000=0.250000=0
,169.500000=2.000000=8.000000=0
,179.750000=2.100000=0.250000=0
,180.500000=2.200000=0.250000=0
,181.250000=2.300000=0.250000=0
,182.000000=2.400000=0.250000=0
,182.750000=2.500000=0.250000=0
,183.500000=2.600000=0.250000=0
,184.500000=2.000000=1.500000=0
,187.750000=2.150000=0.250000=0
,188.500000=2.300000=0.250000=0
,189.250000=2.450000=0.250000=0
,190.000000=2.600000=0.250000=0
,190.750000=2.850000=0.250000=0
,191.500000=3.000000=0.250000=0
,192.500000=2.000000=1.500000=0
,195.750000=2.200000=0.250000=0
,196.500000=2.400000=0.250000=0
,197.250000=2.600000=0.250000=0
,198.000000=2.800000=0.250000=0
,198.750000=3.000000=0.250000=0
,199.500000=3.200000=0.250000=0
,202.000000=2.000000=2.000000=0
,332.000000=1.800000=0.250000=0
,332.750000=1.600000=0.250000=0
,333.500000=1.400000=0.250000=0
,334.250000=1.200000=0.250000=0
,335.000000=1.000000=0.250000=0
,335.750000=0.800000=0.250000=0
,336.750000=2.000000=2.250000=0
,436.000000=2.250000=0.500000=0
,442.000000=2.500000=0.500000=0
,448.000000=2.750000=0.500000=0
,454.000000=2.000000=6.000000=0
,462.000000=0.500000=18.000000=0
;
#SCROLLS:0.000000=1.000000
,65.000000=0.500000
;
#FAKES:;
#LABELS:0.000000=Song Start
;
#DISPLAYBPM:134.000000:268.000000;
#NOTES:
0000
0000
0000
0000
,
0000
0000
0000
0000
,
0000
0000
0000
0000
,
2000
0000
0000
0000
,
0000
0000
3002
0000
,
0000
0000
0000
0000
,
0003
0000
1000
0000
0100
0000
1000
0001
0000
0010
0000
0100
0000
1000
0001
1000
,
0020
0000
0130
0000
0000
0001
0100
0000
0010
0100
0010
0000
2000
0000
3100
0000
,
0000
0010
0000
0010
0001
0000
0000
0001
0000
0101
0000
0000
1100
0000
1000
0000
,
0010
0000
0000
1000
0001
1000
0100
1000
0001
1000
0010
0000
0000
0100
0001
1000
,
0001
0010
0001
1000
0001
0000
0100
0000
0010
0000
0000
1000
0100
0010
0100
1000
,
0001
0010
0100
0000
0000
0010
0001
1000
0001
0100
0010
0100
0002
0000
0023
0000
,
0030
0000
0010
0000
0001
0000
0100
0000
0010
1000
0000
1001
0000
0001
0100
0000
,
0000
0100
0000
0001
0000
0010
0100
0000
1000
0000
1100
0000
0110
0000
0010
0001
,
0000
0101
0000
0000
0100
0010
0100
0010
0000
1000
0000
0000
0100
0010
0002
0000
,
2000
0000
0000
0000
0000
0000
0000
0000
0000
0000
3003
0000
1000
0100
1000
0100
,
1000
1001
1000
0100
0010
0001
0010
0100
,
1000
0001
0010
0000
0010
0001
0100
0010
,
0100
0000
0100
0001
0000
1000
0001
1000
,
0010
0000
1000
0010
0100
0001
0010
0100
,
1000
0001
0100
0001
1000
0100
0010
0001
,
1000
0000
0001
0000
0000
0110
0000
0100
,
0010
0000
1001
0000
1000
0100
0000
0100
,
1000
0001
0010
0001
0100
0010
1000
0000
,
1000
0001
0100
0010
0000
1000
0000
0001
,
0000
0010
0001
0100
0001
0010
0100
1000
,
0010
1000
0002
0000
0003
0001
0100
0010
,
1000
0010
0100
0001
1000
0000
1000
0100
,
0010
0001
0010
0000
0010
0100
0000
0100
,
1000
0001
0100
0000
0001
0100
0010
0100
,
0001
0010
0100
1000
0001
1000
0010
0100
,
0001
1000
0100
0000
0100
0000
0000
1100
,
0000
0001
0010
0000
1010
0000
0001
0100
,
0000
0001
1000
0100
0010
0100
1000
0001
,
0010
0000
0100
1000
0010
1000
0000
1001
,
0000
0001
0000
0001
1000
0010
0100
0001
,
1000
0100
0010
0001
0200
0000
0310
0000
,
0010
1000
0000
0001
0000
0100
0000
0010
,
0000
1010
0000
1001
0000
1100
0000
0100
,
1000
0001
0010
0100
,
1100
0000
0110
0000
0011
0000
0001
0100
,
0000
0010
0000
1010
0000
0101
0000
1001
,
0000
0110
0000
1000
0010
0100
0001
0000
,
0001
0000
0010
0001
0010
0100
1000
0010
,
0100
0000
0000
0000
0000
0000
0010
0000
0000
0000
0000
0000
0000
0000
0000
0000
0000
0000
0100
0000
0000
0000
0001
0000
0000
0000
0100
0000
0000
0000
0001
0000
0000
0000
0000
0000
0000
0000
0000
0000
0000
0000
0000
0000
0000
1000
0000
0000
,
0000
0000
0100
0000
0000
0010
0000
0000
0100
0000
0000
1000
0000
0000
0100
0000
,
0000
0000
0020
0000
0000
0000
0000
0000
0032
0000
0000
0000
0000
0000
0000
0103
,
0000
0000
0001
0000
0000
1000
0000
0000
0001
0000
0000
0100
0000
0000
0001
0000
,
0000
0000
0020
0000
0000
0000
0000
0000
0230
0000
0000
0000
0000
0000
0000
1300
,
0000
0000
1000
0000
0000
0001
0000
0000
0001
0000
0000
1000
0000
0000
0010
0000
,
0000
0200
0000
0000
0320
0000
0000
0000
,
0130
0001
0000
1000
0100
0000
0100
0000
,
1000
0010
1000
0001
0100
0001
0010
0000
,
0100
1001
2000
0000
,
0000
3200
0320
0230
,
1300
0100
1000
0000
0001
0100
0001
1000
,
0010
0000
0200
0000
0000
0302
0000
0000
,
0000
0013
0000
0002
0000
0000
0000
1003
,
0100
0000
0110
0000
0010
0001
0100
0000
,
0020
0000
0000
0000
0000
2030
0000
0000
,
3002
0000
0013
0100
0000
0100
0000
0010
,
0000
0010
0001
0100
0010
1000
0000
0000
,
0001
0100
0010
0100
0001
0010
0100
0000
,
1000
0100
0010
0100
1000
0000
0100
0010
,
0001
1000
0020
0000
0030
0000
1000
0000
,
0100
0000
0100
1000
0000
0002
0000
1003
,
0000
1000
0100
0010
0002
0000
1003
0000
,
0000
0001
1000
0000
0010
0100
0010
0000
,
0100
0000
0002
0000
0003
1000
0000
0010
,
1000
0000
0000
1001
0000
0110
0000
0000
,
1100
0000
0011
0000
0001
0000
0000
0100
,
0010
1000
0010
0100
0010
1000
0001
0000
,
0000
0010
0100
1000
0100
0010
0001
0010
,
0200
0000
0320
0000
0031
0000
0000
0001
,
0100
0010
0100
0001
0010
0100
1000
0000
,
0000
1000
0001
0100
0010
1000
0001
0010
,
0200
2300
3000
0001
,
0020
0000
0031
0000
1000
0100
0000
0010
,
0000
0100
0020
0000
0030
0001
0000
1000
,
0000
0001
0100
0000
0110
0000
0010
0000
,
0110
0000
0100
0001
0000
1001
0000
0000
,
1000
0100
0010
0100
0000
0200
0000
0000
,
1300
0001
1000
0000
0010
0100
0010
0000
,
1000
0000
0000
0001
0000
0000
0100
0000
0000
0001
0000
0000
1000
0000
0000
0100
,
0000
0000
0000
0020
0000
0000
0000
0000
0000
0000
0000
0000
0031
0000
1000
0000
,
0001
0000
0001
0100
0010
1000
0010
0100
,
0001
1000
0010
0000
0010
1000
0100
0001
,
0100
0000
0100
1000
0000
0001
0010
0001
,
1000
0000
0001
0010
0100
1000
0010
0001
,
0010
1000
0100
1000
0001
0100
0010
1000
,
0001
0000
0010
0000
0000
0110
0000
0100
,
0010
0000
1001
0000
0001
0100
0000
0100
,
0001
1000
0010
1000
0100
0010
0001
0000
,
0001
1000
0001
0010
0000
0001
0000
1000
,
0000
0010
1000
0001
0100
0010
1000
0001
,
0010
0001
2000
0000
3000
1000
0100
0010
,
0001
0010
0100
1000
0001
0000
0001
0100
,
0010
1000
0010
0000
0010
0100
0000
0100
,
0001
0010
0100
0000
1000
0100
0010
0100
,
1000
0010
0100
0001
1000
0001
0010
0100
,
1000
0001
0100
0000
0010
0000
0000
0101
,
0000
1000
0010
0000
0011
0000
1000
0100
,
0000
1000
0001
0100
1000
0100
0001
0010
,
1000
0000
0010
0001
1000
0001
0000
1001
,
0000
0110
0000
1000
0001
0010
0100
1000
,
0001
0100
0010
1000
0200
0000
1300
0000
,
1000
0100
0000
0100
0000
0010
0000
0001
,
0000
0011
0000
0001
0000
0001
0100
0000
,
0100
0010
1000
1010
,
2000
0000
0000
0000
3000
0000
0000
1000
0000
0000
0001
0000
0000
0010
0000
0000
,
0100
0000
0000
1000
0000
0000
1000
0000
0002
0000
0000
0003
0000
0000
0000
0001
,
0000
0000
1000
0000
0000
0010
0000
0000
0100
0000
0000
0001
0000
0000
0001
0000
,
2000
0000
0000
3000
0000
0000
0000
1000
0000
0000
0001
0000
0000
1000
0000
0000
,
0010
0000
0000
0100
0000
0000
0010
0000
0100
0000
0001
0000
0000
0000
0101
0000
,
0000
1100
0000
1000
0100
1000
0010
0100
,
0002
0003
2020
0000
,
0000
0000
0000
0000
,
0000
0000
0000
0000
,
0000
0000
0000
0000
,
0000
0000
0000
0000
,
3030
0000
0000
0000
;

//---------------dance-single - ----------------
#NOTEDATA:;
#CHARTNAME:;
#STEPSTYPE:dance-single;
#DESCRIPTION:;
#CHARTSTYLE:;
#DIFFICULTY:Hard;
#METER:9;
#RADARVALUES:0.639172,0.809164,0.166593,0.285587,0.186425,507.000000,21.000000,36.000000,0.000000,0.000000,0.000000,0.000000,0.000000,0.639172,0.809164,0.166593,0.285587,0.186425,507.000000,21.000000,36.000000,0.000000,0.000000,0.000000,0.000000,0.000000;
#CREDIT:;
#OFFSET:-0.999600;
#BPMS:0.000000=134.000000
,65.000000=268.000000
,202.000000=328.000000
,204.000000=268.000000
;
#STOPS:;
#DELAYS:;
#WARPS:;
#TIMESIGNATURES:0.000000=4=4
;
#TICKCOUNTS:0.000000=4
;
#COMBOS:0.000000=1
;
#SPEEDS:0.000000=1.000000=0.000000=0
,60.000000=2.000000=2.500000=0
;
#SCROLLS:0.000000=1.000000
,65.000000=0.500000
;
#FAKES:;
#LABELS:0.000000=Song Start
;
#DISPLAYBPM:134.000000:268.000000;
#NOTES:
0000
0000
0000
0000
,
0000
0000
0000
0000
,
0000
0000
0000
0000
,
2000
0000
0000
0000
,
0000
0000
3002
0000
,
0000
0000
0000
0000
,
0003
0000
1000
0000
0100
0000
1000
0100
0000
0010
0000
0100
0000
1000
0100
0000
,
0010
0000
0100
0000
0000
0100
1000
0000
0001
0000
0100
0000
0010
0000
0100
0000
,
0000
0001
0000
0100
0001
0000
0000
0010
0000
0010
0000
0000
0100
0000
0100
0000
,
1000
0000
0000
0100
1000
0000
0100
0000
0010
0000
0001
0000
0000
0010
0001
0000
,
0100
0000
0010
0000
0100
0000
0001
0000
1000
0000
0000
0010
1000
0000
0010
0000
,
0100
0000
0001
0000
0000
0100
0001
0000
0010
0000
0100
0000
0100
0000
0010
0000
,
0000
0000
0001
0000
1000
0000
0001
0000
0100
0001
0000
1000
0000
0010
0100
0000
,
0000
0100
0000
0001
0000
0010
0100
0000
1000
0000
0010
0000
0100
0000
0100
0001
,
0000
1000
0000
0000
1000
0100
1000
0100
0000
0010
0000
0000
0001
1000
0001
0000
,
0200
0000
0000
0000
,
0000
0300
0001
0000
0100
0000
0010
0000
,
0100
0001
1000
0100
,
0010
0000
0001
0010
0000
0100
1000
0000
,
0010
1000
0001
0100
,
0001
0010
0100
0010
,
0010
0000
0001
0000
0000
0100
0000
0100
,
0010
0000
1000
0000
0001
0100
0000
0001
,
1000
0010
0100
0010
,
1000
0000
0001
0010
0000
0110
0000
0100
,
0000
1000
0001
0000
0100
0000
0010
0000
,
0010
0000
2000
0000
3000
1000
0100
0000
,
0010
0100
1000
0001
,
0100
0000
0010
0000
1000
0100
0000
0010
,
0001
0100
0001
1000
,
0010
1000
0100
0010
,
0100
1000
0100
0000
1000
0000
0000
0100
,
0000
0100
0010
0000
0001
0000
0010
0100
,
0000
1000
0001
0000
0100
0000
0010
0000
,
0100
0000
0001
0000
1000
0100
0000
0110
,
0000
0010
0000
0001
1000
0000
0100
0000
,
0010
0100
0010
0100
0010
0000
0001
0000
,
0001
0100
0000
0100
0000
0010
0000
0010
,
0000
1010
0000
1010
0000
1000
0000
1000
,
0100
0100
0010
0010
,
0011
0000
0011
0000
0001
0000
0001
0100
,
0000
0100
0000
0001
0000
1000
0000
1001
,
0000
1001
0000
0001
0010
0000
0010
0000
,
0010
0000
0100
0010
0001
1000
0000
0010
,
1000
0000
0010
0000
0000
0000
0100
0000
0001
0000
0100
0000
0000
0000
0000
0001
,
0000
0000
0100
0000
0000
0001
0000
0000
0100
0000
0000
0001
0000
0000
1000
0000
,
0000
0000
0020
0000
0000
0000
0000
0000
1030
0000
0000
0000
0000
0000
0000
1000
,
0000
0000
0100
0000
0000
1000
0000
0000
0100
0000
0000
1000
0000
0000
0001
0000
,
0000
0000
0020
0000
0000
0000
0000
0000
0031
0000
0000
0000
0000
0000
0000
0001
,
0000
0000
1000
0000
0000
0001
0000
0000
1000
0000
0000
0100
0000
0000
0010
0000
,
0000
0110
0000
0000
2002
0000
3003
0000
,
0001
1000
0000
1000
0001
0000
0001
0000
,
0010
0100
0010
0000
0001
1000
0001
0000
,
0100
0010
2000
0000
,
0000
3002
0023
0032
,
1003
0001
0200
0000
0301
1000
0010
0000
,
0010
0000
1010
0000
0000
0102
0000
0000
,
0000
0203
0000
0320
0000
0000
0130
0002
,
0000
0000
0013
0000
0100
1000
0100
0000
,
0020
0000
0000
0000
0000
0031
0000
0000
,
1000
0000
0001
0200
0000
0000
0001
0000
,
0010
0010
0301
0020
,
0100
0000
0130
0010
0100
0000
0020
0000
,
0031
1000
0001
0000
0200
0000
0310
0100
,
0010
0200
0300
0001
,
1000
0000
0001
0100
0000
0010
0000
0100
,
0000
0001
0100
0000
0010
0000
0100
0000
,
0000
0100
0001
0000
1000
0000
0100
0000
,
0010
0000
0100
0000
0000
1000
0000
0100
,
1000
0000
0000
0010
0000
0010
0000
0000
,
0100
0000
0100
0000
0002
0000
0003
0100
,
0001
0100
0010
2000
,
3000
0010
1000
0000
0100
0000
0010
0000
,
0100
0000
1000
0000
0002
0000
0003
0010
,
0001
0010
0100
2000
,
3000
0100
1000
0000
0100
0000
0010
0000
,
0010
0200
0300
1000
,
0001
0000
1000
0000
0100
1000
0000
0001
,
0000
0010
0100
0000
0000
0100
0000
1000
,
0000
0010
0100
0000
0001
0000
0010
0000
,
0100
0000
0100
1000
0000
0001
0000
0000
,
0001
0100
0001
0100
0000
0010
0000
0000
,
1000
0001
1000
0000
0200
0000
0310
0000
,
0100
0000
0000
1000
0000
0000
0100
0000
0000
1000
0000
0000
0001
0000
0000
0100
,
0000
0000
0000
0020
0000
0000
0000
0000
0000
0000
0000
0000
0100
0000
0000
0000
,
0130
1000
0100
0010
,
0100
1000
0001
0100
,
0010
0000
1000
0010
0000
0100
0001
0000
,
0010
0001
1000
0100
,
1000
0010
0100
0010
,
0010
0000
1000
0000
0000
0100
0000
0100
,
0010
0000
0001
0000
1000
0100
0000
1000
,
0001
0010
0100
0010
,
0001
0000
0010
0001
0000
1001
0000
1000
,
0000
0100
1000
0000
0100
0000
0010
0000
,
0010
0000
0002
0000
0003
0001
0100
0000
,
0010
0100
0001
1000
,
0100
0000
0010
0000
0001
0100
0000
0010
,
1000
0100
1000
0001
,
0010
0001
0100
0010
,
0100
0001
0100
0000
0001
0000
0000
0100
,
0000
0100
0010
0000
1000
0000
0010
0100
,
0000
0001
1000
0000
0100
0000
0010
0000
,
0100
0000
1000
0000
0100
1000
0000
1001
,
0000
0001
0000
0010
0001
0000
0100
0000
,
0010
0100
0001
1000
0010
0000
1000
0000
,
1000
0100
0000
0010
0000
0110
0000
1001
,
0000
0110
0000
0001
0000
0001
0100
0000
,
0010
1001
0110
1001
,
2000
0000
0000
0000
3000
0000
0000
0100
0000
0000
0010
0000
0000
0001
0000
0000
,
0010
0000
0000
0100
0000
0000
0010
0000
0002
0000
0000
0000
0003
0000
0000
0100
,
0000
0000
0010
0000
0000
1000
0000
0000
0010
0000
0000
0100
0000
0000
0010
0000
,
2000
0000
0000
0000
3000
0000
0000
0001
0000
0000
1000
0000
0000
0001
0000
0000
,
0100
0000
0000
0010
0000
0000
1000
0000
0001
0000
0100
0000
0000
0000
0010
0000
,
0000
1000
0000
0010
0100
0001
0100
0001
,
1000
0000
0022
0000
,
0000
0000
0000
0000
,
0000
0000
0000
0000
,
0000
0000
0000
0000
,
0000
0000
0000
0000
,
0033
0000
0000
0000
;

//---------------dance-single - ----------------
#NOTEDATA:;
#CHARTNAME:;
#STEPSTYPE:dance-single;
#DESCRIPTION:;
#CHARTSTYLE:;
#DIFFICULTY:Beginner;
#METER:2;
#RADARVALUES:0.095196,0.137439,0.023799,0.000000,0.011899,81.000000,3.000000,0.000000,0.000000,0.000000,0.000000,0.000000,0.000000,0.095196,0.137439,0.023799,0.000000,0.011899,81.000000,3.000000,0.000000,0.000000,0.000000,0.000000,0.000000,0.000000;
#CREDIT:;
#OFFSET:-0.999600;
#BPMS:0.000000=134.000000
,65.000000=268.000000
,202.000000=328.000000
,204.000000=268.000000
;
#STOPS:;
#DELAYS:;
#WARPS:;
#TIMESIGNATURES:0.000000=4=4
;
#TICKCOUNTS:0.000000=4
;
#COMBOS:0.000000=1
;
#SPEEDS:0.000000=1.000000=0.000000=0
,60.000000=2.000000=2.500000=0
;
#SCROLLS:0.000000=1.000000
,65.000000=0.500000
;
#FAKES:;
#LABELS:0.000000=Song Start
;
#DISPLAYBPM:134.000000:268.000000;
#NOTES:
0000
0000
0000
0000
,
0000
0000
0000
0000
,
0000
0000
0000
0000
,
1000
0000
0000
0000
,
0000
0000
0001
0000
,
0000
0000
0000
0000
,
1000
0000
0000
0001
,
0000
0000
1000
0000
,
0000
0001
0000
0000
,
0100
0000
0000
0000
0000
0100
0000
0000
,
0000
0000
0010
0000
,
0000
0010
0000
0000
0000
0000
0000
0000
,
1000
0000
0000
0001
,
0000
0000
1000
0000
,
0000
0001
0000
0000
,
1001
0000
0000
0000
,
0000
1000
0000
0000
,
0000
0000
0000
0001
,
0000
0000
0000
0000
,
0000
0100
0000
0000
,
0000
0000
0000
0010
,
0000
0000
0000
0000
,
0000
1000
0000
0000
,
0000
0000
0000
0001
,
0000
0000
0000
0000
,
0000
0010
0000
0000
,
0000
0000
0100
0000
,
0000
0000
0000
0000
,
1000
0000
0000
0000
,
0000
0000
0010
0000
,
0000
0000
0000
0000
,
0100
0000
0000
0000
,
0000
0000
0001
0000
,
0000
0000
0000
0000
,
1000
0000
0000
0000
,
0000
0000
0100
0000
,
0000
0000
0000
0010
,
0000
0000
0000
0000
,
0000
0000
0000
0000
0000
0010
0000
0000
,
0000
0000
0000
0000
,
0000
0000
0010
0000
,
0000
0000
0000
0000
,
0000
0000
0000
1000
0000
0000
0000
0000
,
0000
0000
0000
0001
0000
0000
0000
0000
,
0000
0000
0000
0000
0000
0000
0000
0000
0000
0000
0000
0000
0000
0000
0000
0010
,
0000
0000
0000
0000
,
0000
0000
0000
0000
0000
0000
0000
0000
0000
0000
0000
0000
0000
0000
0000
0010
,
0000
0000
0000
0000
,
0000
0000
0000
0000
0000
0000
0000
0000
0000
0000
0000
0000
0000
0000
0000
0010
,
0000
0000
0000
0000
,
0000
0000
0000
0000
,
0001
0000
0000
0000
,
1000
0000
0000
0000
,
1000
0000
0001
0000
,
0000
0000
0000
0000
,
0100
0000
0000
0000
,
0000
0010
0000
0000
,
0000
0000
1000
0000
,
0000
0000
0000
0000
,
1000
0000
0000
0000
,
0000
0000
0100
0000
,
0000
0000
0000
0010
,
0000
0000
0000
0000
,
0001
0000
0000
0000
,
0000
0000
1000
0000
,
0000
0000
0000
0000
,
1000
0000
0000
0000
,
0000
0000
0001
0000
,
0000
0000
0000
0000
,
0001
0000
0000
0000
,
0000
0000
0100
0000
,
0000
0000
0000
0010
,
0000
0000
0000
0000
,
0000
0000
0100
0000
,
0000
0000
0000
0010
,
0000
0000
0000
0000
,
0000
0000
1000
0000
,
0000
0000
0000
0000
,
1000
0000
0000
0000
,
0000
0000
0001
0000
,
0000
0000
0000
0000
,
0001
0000
0000
0000
,
0000
0000
0000
0000
,
0110
0000
0000
0000
,
0000
0000
0000
0000
,
0000
1000
0000
0000
,
0000
0000
0000
0001
,
0000
0000
0000
0000
,
0000
0100
0000
0000
,
0000
0000
0000
0010
,
0000
0000
0000
0000
,
0000
1000
0000
0000
,
0000
0000
0000
0001
,
0000
0000
0000
0000
,
0000
0010
0000
0000
,
0000
0000
0001
0000
,
0000
0000
0000
0000
,
1000
0000
0000
0000
,
0000
0000
0010
0000
,
0000
0000
0000
0000
,
0100
0000
0000
0000
,
0000
0000
0001
0000
,
0000
0000
0000
0000
,
1000
0000
0000
0000
,
0000
0000
0100
0000
,
0000
0000
0000
0010
,
0000
0000
0000
0000
,
0000
0000
0000
0010
0000
0000
0000
0000
,
0000
0000
0000
0000
,
0001
0000
0000
0000
,
0000
0000
1000
0000
,
0000
0000
0000
0000
,
0001
0000
0000
0000
,
0000
0000
0000
0000
,
0000
0000
0000
0000
,
0000
0000
1001
0000
;

//---------------dance-single - ----------------
#NOTEDATA:;
#CHARTNAME:;
#STEPSTYPE:dance-single;
#DESCRIPTION:;
#CHARTSTYLE:;
#DIFFICULTY:Easy;
#METER:4;
#RADARVALUES:0.196058,0.285587,0.055531,0.118995,0.011899,151.000000,7.000000,15.000000,0.000000,0.000000,0.000000,0.000000,0.000000,0.196058,0.285587,0.055531,0.118995,0.011899,151.000000,7.000000,15.000000,0.000000,0.000000,0.000000,0.000000,0.000000;
#CREDIT:;
#OFFSET:-0.999600;
#BPMS:0.000000=134.000000
,65.000000=268.000000
,202.000000=328.000000
,204.000000=268.000000
;
#STOPS:;
#DELAYS:;
#WARPS:;
#TIMESIGNATURES:0.000000=4=4
;
#TICKCOUNTS:0.000000=4
;
#COMBOS:0.000000=1
;
#SPEEDS:0.000000=1.000000=0.000000=0
,60.000000=2.000000=2.500000=0
;
#SCROLLS:0.000000=1.000000
,65.000000=0.500000
;
#FAKES:;
#LABELS:0.000000=Song Start
;
#DISPLAYBPM:134.000000:268.000000;
#NOTES:
// measure 0
0000
0000
0000
0000
,  // measure 1
0000
0000
0000
0000
,  // measure 2
0000
0000
0000
0000
,  // measure 3
1000
0000
0000
0000
,  // measure 4
0000
0000
0001
0000
,  // measure 5
0000
0000
0000
0000
,  // measure 6
1000
0000
0000
1000
,  // measure 7
0000
0000
0001
0000
,  // measure 8
0000
0001
0000
0000
,  // measure 9
1000
0000
0000
0000
0000
0100
0000
0000
,  // measure 10
0000
0000
0010
0000
,  // measure 11
0000
0001
0000
0000
0000
0000
0000
0000
,  // measure 12
1000
1000
0000
0001
,  // measure 13
0001
0000
1000
1000
,  // measure 14
0000
0001
0001
0000
,  // measure 15
1001
0000
0000
0000
,  // measure 16
0000
1000
0000
0001
,  // measure 17
0000
0000
0000
0001
,  // measure 18
0000
1000
0000
0000
,  // measure 19
0000
1000
0000
0100
,  // measure 20
0000
0000
0000
0100
,  // measure 21
0000
1000
0000
0000
,  // measure 22
0000
0001
0000
0010
,  // measure 23
0000
0000
0000
0010
,  // measure 24
0000
0001
0000
0000
,  // measure 25
0000
0001
0000
0000
,  // measure 26
0100
0000
0100
0000
,  // measure 27
0010
0000
0000
0000
,  // measure 28
0010
0000
0100
0000
,  // measure 29
0000
0000
0001
0000
,  // measure 30
1000
0000
0000
0000
,  // measure 31
1000
0000
0001
0000
,  // measure 32
0000
0000
0010
0000
,  // measure 33
0100
0000
0000
0000
,  // measure 34
0100
0000
0010
0000
,  // measure 35
0000
0000
0001
0000
,  // measure 36
1000
0000
0000
0010
,  // measure 37
0000
0000
0000
0000
0000
0010
0000
0000
,  // measure 38
0000
0010
0000
0000
0000
0100
0000
0000
,  // measure 39
0000
0000
0100
0000
,  // measure 40
0100
0000
0010
0000
,  // measure 41
0000
0000
0000
0010
0000
0000
0000
0010
,  // measure 42
0000
0000
0000
2000
0000
0000
0000
0000
,  // measure 43
0000
0000
0000
3002
0000
0000
0000
0000
,  // measure 44
0000
0000
0000
0000
0000
0000
0003
0000
0000
0000
0000
0000
0000
0000
0000
0001
,  // measure 45
0000
0000
0100
0000
,  // measure 46
0000
0000
0010
0000
0000
0000
0000
0000
0010
0000
0000
0000
0000
0000
0000
1000
,  // measure 47
0000
0000
0100
0000
,  // measure 48
0000
0000
0010
0000
0000
0000
0000
0000
0010
0000
0000
0000
0000
0000
0000
0001
,  // measure 49
0000
0000
0100
0000
,  // measure 50
0000
0010
0000
0000
1000
0000
0000
0000
,  // measure 51
0001
0000
0001
0000
,  // measure 52
1000
0000
1000
0000
,  // measure 53
0001
0000
0020
0000
,  // measure 54
0000
0030
0100
0000
,  // measure 55
1000
0000
0100
0000
,  // measure 56
0000
0000
0020
0000
0000
0030
0000
0000
,  // measure 57
0001
0000
0100
0000
,  // measure 58
0001
0000
0100
0000
,  // measure 59
0020
0000
0000
0030
,  // measure 60
1000
0000
0100
0000
,  // measure 61
0100
0000
0000
0000
,  // measure 62
2000
0000
0000
3000
,  // measure 63
0002
0000
0003
0200
,  // measure 64
0000
0300
0010
0000
,  // measure 65
0010
0000
0000
0000
,  // measure 66
1000
0000
1000
0000
,  // measure 67
0000
0000
0001
0000
,  // measure 68
0001
0000
0000
0000
,  // measure 69
0100
0000
0000
0100
,  // measure 70
0000
0000
0002
0000
,  // measure 71
0000
0000
0013
0020
,  // measure 72
0000
0000
0000
0000
,  // measure 73
0000
0030
0200
0000
,  // measure 74
0000
0000
1300
2000
,  // measure 75
0000
0000
0000
0000
,  // measure 76
0000
3000
0100
0000
,  // measure 77
0100
0000
0000
0000
,  // measure 78
0010
0000
0010
0000
,  // measure 79
0000
0000
0100
0000
,  // measure 80
0100
0000
0000
0000
,  // measure 81
0010
0000
0000
0000
,  // measure 82
0010
0000
0000
0000
,  // measure 83
2002
0000
0000
0000
,  // measure 84
0000
3003
0000
0000
0000
0000
0000
0000
,  // measure 85
0000
0001
0000
1000
,  // measure 86
0000
0000
0000
1000
,  // measure 87
0000
0001
0000
0000
,  // measure 88
0000
0001
0000
0010
,  // measure 89
0000
0000
0000
0010
,  // measure 90
0000
0001
0000
0000
,  // measure 91
0000
0100
0000
0010
,  // measure 92
0000
0000
0000
0010
,  // measure 93
0000
0100
0000
0000
,  // measure 94
0000
0001
0000
0000
,  // measure 95
1000
0000
1000
0000
,  // measure 96
0000
0000
0100
0000
,  // measure 97
1000
0000
0000
0000
,  // measure 98
1000
0000
0010
0000
,  // measure 99
0000
0000
0010
0000
,  // measure 100
0100
0000
0000
0000
,  // measure 101
0100
0000
0001
0000
,  // measure 102
0000
0000
0001
0000
,  // measure 103
0010
0000
0000
0000
,  // measure 104
0010
0000
0100
0000
,  // measure 105
0000
0000
0000
1001
,  // measure 106
0000
0000
0000
0000
,  // measure 107
0000
0000
0000
0110
0000
0000
0000
0000
,  // measure 108
0000
0000
0000
0000
,  // measure 109
1100
0000
0000
0000
,  // measure 110
0000
0000
0011
0000
,  // measure 111
0000
0000
0000
0000
,  // measure 112
1100
0000
0000
0000
,  // measure 113
0000
0000
0001
0000
,  // measure 114
0100
0000
0010
0000
,  // measure 115
1000
0000
0002
0000
,  // measure 116
0000
0000
0000
0000
,  // measure 117
0000
0000
0000
0000
,  // measure 118
0000
0000
0000
0000
,  // measure 119
0000
0000
0000
0000
,  // measure 120
0003
0000
0000
0000
;

//---------------dance-single - ----------------
#NOTEDATA:;
#CHARTNAME:;
#STEPSTYPE:dance-single;
#DESCRIPTION:;
#CHARTSTYLE:;
#DIFFICULTY:Medium;
#METER:7;
#RADARVALUES:0.465779,0.809164,0.126928,0.277654,0.107095,360.000000,16.000000,35.000000,0.000000,0.000000,0.000000,0.000000,0.000000,0.465779,0.809164,0.126928,0.277654,0.107095,360.000000,16.000000,35.000000,0.000000,0.000000,0.000000,0.000000,0.000000;
#CREDIT:;
#OFFSET:-0.999600;
#BPMS:0.000000=134.000000
,65.000000=268.000000
,202.000000=328.000000
,204.000000=268.000000
;
#STOPS:;
#DELAYS:;
#WARPS:;
#TIMESIGNATURES:0.000000=4=4
;
#TICKCOUNTS:0.000000=4
;
#COMBOS:0.000000=1
;
#SPEEDS:0.000000=1.000000=0.000000=0
,60.000000=2.000000=2.500000=0
;
#SCROLLS:0.000000=1.000000
,65.000000=0.500000
;
#FAKES:;
#LABELS:0.000000=Song Start
;
#DISPLAYBPM:134.000000:268.000000;
#NOTES:
0000
0000
0000
0000
,
0000
0000
0000
0000
,
0000
0000
0000
0000
,
2000
0000
0000
0000
,
0000
0000
3002
0000
,
0000
0000
0000
0000
,
1003
0000
0100
0000
1000
0000
0000
0001
0000
0100
0000
0001
0000
0000
0000
0000
,
1000
0010
0000
1000
0001
0010
0001
1000
,
0000
0100
0000
0100
0000
0000
0000
0010
0000
0010
0000
0000
0100
0000
1000
0000
,
1001
0000
0001
0100
0010
0110
0000
0010
,
1000
0001
0010
0100
1100
0000
1000
0001
,
0100
0101
0000
0001
1000
0100
0010
0200
,
0300
0000
1000
0000
0100
0000
0010
0000
0100
1000
0000
0001
0000
1000
0010
0000
,
0000
0100
0000
0001
0000
0000
1000
0000
0100
0000
0010
0000
0001
0000
1000
0002
,
0000
0003
0000
0000
0100
0000
0100
0000
0000
0001
0000
0000
0010
0000
0010
0000
,
0200
0000
0000
0000
,
0000
0300
1000
0000
0000
0000
1000
0000
,
0010
1000
0000
0100
,
0010
0100
0000
1000
,
0001
0000
0010
0001
,
0010
0100
0000
1000
,
0010
0000
0100
0000
0000
0100
0000
0000
,
0010
1000
0010
0000
,
0010
1000
0001
0010
,
0000
0000
0100
0000
0000
0100
0000
0000
,
1000
0001
0100
0000
,
0001
0000
0010
0000
0000
0110
0000
0000
,
0100
1000
0010
0000
,
0100
0000
0001
0000
0100
0000
0000
0010
,
0000
1000
0010
0000
,
1000
0010
0100
0000
,
0001
0000
0010
0000
0100
0000
0000
0010
,
0000
0100
1000
0010
,
0000
1000
0000
0000
0001
0000
0010
0000
,
0100
0000
0000
0000
0001
0000
0000
0001
,
0000
1000
0010
0100
,
0000
0100
0001
2000
,
0000
3000
0000
1000
0000
0100
0000
0010
,
0000
0001
0000
0100
0000
0002
0000
0000
,
0003
0001
1000
0010
,
0100
0000
0001
0000
2000
0000
0000
3000
,
0000
1000
0000
0100
0000
1000
0000
0001
,
0000
0010
0000
0001
0100
0000
0001
0000
,
0100
0010
0000
1000
0000
1000
0000
0001
,
0000
0000
0001
0000
0000
0000
0020
0000
0000
0000
0030
0000
0000
0000
0000
0001
,
0000
0000
0001
0000
,
0000
0000
0200
0000
0000
0000
0000
0000
0310
0000
0000
0000
0000
0000
0000
1000
,
0000
0000
1000
0000
,
0000
0000
0200
0000
0000
0000
0000
0000
0310
0000
0000
0000
0000
0000
0000
0001
,
0000
0000
1000
0000
,
0000
1001
0000
0000
0110
0000
0000
0000
,
1000
0100
0010
0001
,
1000
0010
0100
0001
,
1000
0001
0020
0000
,
0000
0130
1000
0001
,
1000
0200
0000
0300
,
0100
0000
1000
0000
0000
1000
0000
0000
,
0000
0001
0000
1000
0000
0000
0000
0001
,
0100
0010
0100
0001
,
0020
0000
0000
0000
0000
0130
0000
0000
,
0010
0001
1000
0010
,
0000
0010
0010
0000
,
1000
1000
2000
3000
,
0100
0200
0300
0020
,
0000
0030
0002
0003
,
0200
0300
2000
3000
,
0200
0300
0002
0003
,
2000
3000
0200
0300
,
0002
0003
0200
0000
,
0300
0000
0000
1000
0000
1000
0000
0000
,
0001
0001
1001
0000
,
1000
0100
0010
0110
,
0000
0010
0001
0100
,
0010
1000
1010
0000
,
1000
0001
0100
0101
,
0000
0001
0010
0100
,
1000
0020
0030
1000
,
0001
0000
1000
0000
0001
0100
0000
0010
,
0000
0100
0010
0000
0000
1000
0000
0001
,
0000
0010
0100
0000
1000
0000
0001
0000
,
0001
0000
1000
0010
0000
1000
0000
0000
,
0010
0000
0010
0000
0000
1000
0000
0000
,
0100
0100
0010
0100
,
1000
0000
0000
0001
0000
0000
1000
0000
0000
1000
0000
0000
0100
0000
0000
0010
,
0000
0000
0000
0002
0000
0000
0000
0000
0000
0000
0000
0000
0000
0000
0000
0000
,
0003
0001
0000
0001
,
0010
0001
0000
0100
,
0010
0100
0000
0001
,
1000
0000
0010
1000
,
0010
0100
0000
0001
,
0010
0000
0100
0000
0000
0100
0000
0000
,
0010
0001
0010
0000
,
0010
0001
1000
0010
,
0000
0000
0100
0000
0000
0100
0000
0000
,
0001
1000
0100
0000
,
1000
0000
0010
0000
0000
1001
0000
0000
,
0100
0001
0010
0000
,
0100
0000
1000
0000
0100
0000
0000
0010
,
0000
0001
0010
0000
,
0001
0010
0100
0000
,
1000
0000
0010
0000
0100
0000
0000
0010
,
0000
0100
0001
0010
,
0000
0001
0000
0000
1000
0000
0010
0000
,
0100
0000
0000
0000
1000
0000
0000
1000
,
0000
0001
0010
0100
,
0000
0100
0000
2000
,
0000
3000
0000
0100
0000
1000
0000
0001
,
0000
0010
0000
0002
0000
0000
0003
0000
,
0100
0001
1000
0010
,
1010
0000
0000
0000
0000
0000
0000
0010
0000
0000
0010
0000
0000
0020
0000
0000
,
0000
0000
0000
0000
0030
0000
0000
0000
0101
0000
0000
0000
0000
0000
0000
0100
,
0000
0000
0100
0000
0000
0200
0000
0000
0000
0000
0000
0000
0300
0000
0000
0000
,
1010
0000
0000
0000
0000
0000
0000
0010
0000
0000
0010
0000
0000
0020
0000
0000
,
0000
0030
1000
0100
,
1000
0000
0001
0010
,
0001
0000
2002
0000
,
0000
0000
0000
0000
,
0000
0000
0000
0000
,
0000
0000
0000
0000
,
0000
0000
0000
0000
,
3003
0000
0000
0000
;
