#VERSION:0.83;
#TITLE:EDGE OF THE WORLD;
#SUBTITLE:feat. Jonathan Underground;
#ARTIST:Daiki Kasho;
#TITLETRANSLIT:;
#SUBTITLETRANSLIT:;
#ARTISTTRANSLIT:;
#GENRE:;
#ORIGIN:;
#CREDIT:;
#BANNER:EDGE OF THE WORLD.png;
#BACKGROUND:EDGE OF THE WORLD-bg.png;
#PREVIEWVID:;
#JACKET:EDGE OF THE WORLD-jacket.png;
#CDIMAGE:;
#DISCIMAGE:;
#LYRICSPATH:;
#CDTITLE:;
#MUSIC:EDGE OF THE WORLD.ogg;
#OFFSET:-0.030000;
#SAMPLESTART:76.284996;
#SAMPLELENGTH:16.941000;
#SELECTABLE:YES;
#BPMS:0.000=170.000,
102.000=85.000,
105.000=170.000,
201.000=85.000,
207.000=170.000;
#STOPS:;
#DELAYS:;
#WARPS:;
#TIMESIGNATURES:0.000=6=4,
102.000=3=4,
105.000=6=4,
201.000=3=4,
207.000=6=4;
#TICKCOUNTS:0.000=4;
#COMBOS:0.000=1;
#SPEEDS:0.000=1.000=0.000=0;
#SCROLLS:0.000=1.000;
#FAKES:;
#LABELS:0.000=Song Start;
#BGCHANGES:;
#KEYSOUNDS:;
#ATTACKS:
;

//---------------dance-single - ----------------
#NOTEDATA:;
#CHARTNAME:;
#STEPSTYPE:dance-single;
#DESCRIPTION:;
#CHARTSTYLE:;
#DIFFICULTY:Hard;
#METER:6;
#RADARVALUES:0.334896,0.493457,0.103207,0.774051,0.022116,318.000000,304.000000,14.000000,105.000000,0.000000,0.000000,0.000000,0.000000,0.000000,0.334896,0.493457,0.103207,0.774051,0.022116,318.000000,304.000000,14.000000,105.000000,0.000000,0.000000,0.000000,0.000000,0.000000;
#CREDIT:;
#NOTES:
// measure 0
0000
0000
0000
0000
,  // measure 1
0000
0000
0000
0000
,  // measure 2
0000
0000
0000
0000
,  // measure 3
0000
0000
0000
0000
,  // measure 4
0000
0000
0000
0000
,  // measure 5
0000
0000
0000
0000
,  // measure 6
0000
0000
0000
0000
,  // measure 7
0000
0000
0000
0000
2000
0000
0000
0010
,  // measure 8
0000
0000
0001
0000
0000
0100
0000
0000
,  // measure 9
3002
0000
0000
0010
0000
0000
2003
0000
,  // measure 10
0100
0000
0100
0000
3002
0000
0000
0100
,  // measure 11
0000
0000
1000
0000
0000
0010
0000
0000
,  // measure 12
2003
0000
0000
0100
0000
0000
3002
0000
,  // measure 13
0010
0000
0010
0000
2003
0000
0000
0001
,  // measure 14
0000
0000
0010
0000
0000
0001
0000
0000
,  // measure 15
3200
0000
0000
0010
0000
0000
2300
0000
,  // measure 16
0001
0000
0001
0000
3020
0000
0000
0100
,  // measure 17
0000
0000
0001
0000
0000
0100
0000
0000
,  // measure 18
2030
0000
0000
0001
0000
0000
0200
0000
,  // measure 19
0000
0000
3300
0000
1000
0001
0010
0200
,  // measure 20
0000
0000
0010
0010
,  // measure 21
0310
0000
0100
0010
0000
0100
1000
0000
,  // measure 22
0001
1000
0010
0000
1000
0001
0100
0020
,  // measure 23
0000
0000
0100
0100
,  // measure 24
0130
0000
0010
0100
0000
0010
1000
0000
,  // measure 25
0001
0000
1000
0000
0100
0000
0000
0000
2000
0000
0000
3200
0000
0000
0320
0000
,  // measure 26
0000
0032
0000
0000
1003
0000
0000
0000
0001
0000
0100
0000
0000
0000
0100
0000
,  // measure 27
1000
0000
1000
0010
0000
0010
0001
0000
,  // measure 28
0001
1000
0000
1000
0020
0000
0100
0000
,  // measure 29
0130
0000
0001
0000
1000
0100
0000
0100
,  // measure 30
0001
0000
0001
0010
0000
0010
1000
0000
,  // measure 31
1000
0001
0000
0001
0010
0000
0100
0000
,  // measure 32
0010
0000
0002
0000
0000
0203
0000
0000
,  // measure 33
2300
0000
0000
3020
0000
0000
0032
0000
,  // measure 34
0000
2003
0000
0000
3020
0000
0000
0100
,  // measure 35
0000
0000
2030
0000
0000
3200
0000
0000
,  // measure 36
0302
0000
0000
0023
0000
0000
2030
0000
,  // measure 37
0000
3002
0000
0000
0023
0000
0130
0010
,  // measure 38
0001
1000
0002
0000
0000
2003
0000
0000
,  // measure 39
0000
0000
0010
0000
,  // measure 40
0000
3001
0000
0000
0000
0000
0001
1000
,  // measure 41
0001
0000
2000
0000
0000
3200
0000
0000
,  // measure 42
0000
0000
1300
0001
1000
0000
0002
0000
,  // measure 43
0000
0203
0000
0000
0320
0000
0100
0230
,  // measure 44
0000
0001
0302
0000
0000
2000
0000
0000
,  // measure 45
0003
0010
0010
3000
,  // measure 46
0000
0001
0000
0000
2000
0000
0000
0100
,  // measure 47
3200
0000
0320
0000
0000
0130
0000
0000
,  // measure 48
0020
0000
0001
0000
0031
0010
0002
0000
,  // measure 49
0000
1003
0000
0000
0002
0000
0000
0103
,  // measure 50
0000
0000
0010
0000
0020
0000
0000
0230
0000
0000
0302
0000
0000
2003
0000
0000
,  // measure 51
3200
0000
0000
0302
0000
0000
0023
0000
0000
2030
0000
0000
3001
0000
1000
0000
,  // measure 52
0200
0010
1000
0010
,  // measure 53
1000
0000
1300
0000
0100
1000
0000
1000
,  // measure 54
0001
0000
0001
0100
0010
0000
1000
0001
,  // measure 55
0200
0010
0001
0010
,  // measure 56
0001
0000
0301
0000
0100
0001
0000
1000
,  // measure 57
0100
0000
0010
0000
0100
0000
0010
0001
,  // measure 58
2000
0010
0001
0010
,  // measure 59
0001
0000
3001
0000
2000
0000
0000
3200
,  // measure 60
0000
0302
0100
2003
,  // measure 61
0000
0001
0000
0000
3020
0000
0000
0100
,  // measure 62
0000
0000
0032
0000
0000
2000
0000
0000
,  // measure 63
0003
0000
3001
1000
0010
0100
0001
1000
,  // measure 64
0020
0100
1000
0130
,  // measure 65
1010
1100
1000
1200
,  // measure 66
0010
0000
0001
0000
0310
0100
1000
0001
,  // measure 67
0020
0100
0001
0130
,  // measure 68
0011
0000
0101
0000
0001
0100
0010
0000
,  // measure 69
0102
0000
1000
0000
0013
0001
1000
0001
,  // measure 70
0020
0100
0001
0130
,  // measure 71
0011
0101
0001
0201
,  // measure 72
0010
1000
0310
2010
,  // measure 73
3001
1000
0100
0000
1200
0000
1300
0100
,  // measure 74
0010
0000
0120
0000
0130
0010
0001
0000
,  // measure 75
0021
0000
0031
0010
0100
1000
0002
0000
,  // measure 76
0000
0203
0000
0000
2300
0000
0000
3002
,  // measure 77
0000
0000
0023
0000
0000
2030
0000
0000
,  // measure 78
3002
1000
1000
0023
,  // measure 79
0000
2030
0000
0000
3002
0000
0000
0203
,  // measure 80
0000
0000
2300
0000
0000
3002
0000
0000
,  // measure 81
0023
0100
0130
1002
,  // measure 82
0000
0203
0000
0000
2300
0000
0000
3002
,  // measure 83
0000
0000
0023
0000
0000
2030
0000
0000
,  // measure 84
3002
1000
1000
0023
,  // measure 85
0000
2030
0000
0000
3200
0000
0000
0302
,  // measure 86
0000
0000
0023
0000
0000
0200
0000
0000
,  // measure 87
0000
0000
0030
2000
,  // measure 88
0000
0000
0000
0000
,  // measure 89
0000
3300
0000
0000
;

//---------------dance-single - ----------------
#NOTEDATA:;
#CHARTNAME:;
#STEPSTYPE:dance-single;
#DESCRIPTION:;
#CHARTSTYLE:;
#DIFFICULTY:Challenge;
#METER:10;
#RADARVALUES:0.716129,0.756635,0.368596,0.398083,0.073719,680.000000,630.000000,50.000000,54.000000,7.000000,0.000000,0.000000,0.000000,0.000000,0.716129,0.756635,0.368596,0.398083,0.073719,680.000000,630.000000,50.000000,54.000000,7.000000,0.000000,0.000000,0.000000,0.000000;
#CREDIT:;
#NOTES:
0000
0000
0000
0000
,
0000
0000
0000
0000
,
0000
0000
0000
0000
,
0000
0000
0000
0000
,
0000
0000
0000
0000
,
0000
0000
0000
0000
,
0000
0000
0000
0000
,
0000
0000
0000
0000
0001
0100
0010
1000
,
0001
0010
0100
1000
1100
0000
1100
0000
,
1100
0100
1000
0001
0100
0001
1000
0100
,
0010
0001
1000
0001
1000
0010
0100
0001
,
1000
0100
0010
0001
0011
0000
0011
0000
,
0011
0010
0001
1000
0010
1000
0001
0010
,
0100
1000
0001
1000
0001
0100
0010
1000
,
0010
1000
0100
0010
0001
0100
0001
0100
,
0001
0010
0100
1000
0010
1000
0010
0100
,
0001
1000
0100
0000
1000
0100
0010
0001
,
1000
0010
0001
0010
1000
0001
1000
0100
,
0010
0001
1000
0010
1000
0001
0010
0100
,
1000
0000
0001
0000
1000
0001
1000
0000
0001
0000
1000
0000
0010
0000
0001
0000
,
0010
1000
0100
1000
1100
0000
1100
0000
,
1100
0001
1000
0010
1000
0001
1000
0100
,
0010
0001
1000
0000
0001
1000
0100
0001
,
0100
1000
0010
1000
1010
0000
1010
0000
,
1010
0001
1000
0100
1000
0001
1000
0010
,
0100
0000
0001
0000
1000
0000
0000
0000
0001
0100
0001
1000
0100
1000
0001
0100
,
0001
1000
0100
0010
0002
0000
0013
0000
0100
0000
2000
0000
3010
0000
0100
0000
,
2000
3100
0010
2000
3100
0010
0002
0103
,
0010
0002
0013
0100
0002
1003
0001
0010
,
0100
0000
1000
0100
0010
0002
0103
0010
,
0002
0013
0100
0002
0013
0100
2000
3010
,
0100
2000
3100
0010
2000
3001
0010
0100
,
1000
0002
2003
3010
0100
0002
1003
0010
,
0002
1003
0100
0002
1003
0010
2000
3001
,
0100
2000
3001
0010
2000
3001
1000
0100
,
0010
0000
0002
0013
0100
2000
3001
0010
,
2000
3001
0100
2000
3001
0010
0002
0013
,
0011
0000
0010
0000
0110
0000
0100
0000
1100
0000
0000
0000
0100
1000
0100
1000
,
0001
1000
0001
0000
0010
0000
0000
0000
0000
0000
1001
0000
0001
0000
1000
0000
,
0010
0100
0010
0000
1001
1000
0100
0010
,
0000
1001
0001
1000
0010
0100
0110
0100
,
0110
0100
0010
1000
0001
1001
1000
0100
,
0010
0100
0110
0100
0110
0100
1000
0100
,
M100
0001
0010
001M
1000
0100
M100
0001
,
0010
001M
1000
0000
0000
1001
0001
1000
,
0010
0100
0110
0100
0110
0100
0010
0100
,
0000
1001
0001
1000
0200
0310
0001
0200
,
0310
1000
0200
0310
0000
1001
0001
1000
,
0020
0130
0001
0020
0130
0010
0020
0031
,
1000
1001
0001
0100
0020
0130
0001
1001
,
1000
0000
1100
0000
0210
0000
0000
0001
0000
0000
1000
0000
0000
0010
0000
0000
,
2300
0000
0000
3020
0000
0000
0032
0000
0000
0203
0000
0000
2300
0000
3020
0000
,
0230
1300
0100
0010
0001
0010
0100
1000
,
0100
0010
1000
0001
0010
0100
0001
0100
,
0010
0001
1000
0010
0100
0000
0002
0203
,
0320
0031
0010
0100
1000
0100
0010
0001
,
0010
0100
0001
1000
0100
0010
1000
0010
,
0100
1000
0010
1000
0100
0010
0002
0203
,
0320
0031
0010
0100
1000
0100
0010
0001
,
0010
0100
0001
1000
0002
0013
1000
0002
,
0103
1000
0002
0013
0100
1000
0001
0100
,
0001
0100
1000
0100
1000
0010
1000
0010
,
0001
0010
0001
1000
0001
0100
0001
1000
,
0100
0000
0010
0000
0001
0010
0001
0010
0001
0010
0001
0000
0011
0000
0010
0000
,
0100
1000
0010
0100
0010
1000
0100
0010
,
0011
0001
1001
1000
0001
0100
0101
0001
,
1000
0001
0010
0100
1000
1100
1100
0100
,
0010
0001
0100
0010
0100
0001
0010
0100
,
1100
1000
1001
1000
0010
0100
1000
0100
,
0110
0010
1000
0001
0010
0011
0011
0010
,
0100
1000
0010
0100
0010
1000
0100
0010
,
0011
0001
1001
1000
0020
0130
0001
0020
,
0130
1000
0020
0130
0010
1000
1010
0001
,
0100
0001
1000
0001
0011
1000
0001
0100
,
0001
1000
1010
0001
1000
0100
1000
0001
,
0011
0000
1000
0000
0001
1000
0001
1000
0100
1000
0100
0000
1000
0000
0001
0000
,
0100
0001
1000
0100
1000
0001
0100
1000
,
0100
0001
1000
0100
1000
0001
0100
0001
,
1000
0100
0010
0001
0010
0000
0001
1000
,
0010
1000
0001
0010
0001
1000
0010
0001
,
0010
1000
0001
0010
0001
1000
0010
1000
,
0001
0010
0100
1000
0001
1000
1001
1000
,
0010
1000
0001
0010
0001
1000
0010
0001
,
0010
1000
0001
0010
0001
1000
0010
1000
,
0001
0010
0100
1000
0100
0000
1000
0100
,
M100
0001
0010
001M
1000
0001
0100
0001
,
1000
0001
1000
0100
M100
0001
1000
0100
,
0010
0100
1000
0001
1000
0010
0200
0000
,
0000
0000
0000
0000
,
0000
0300
0000
0000
;
