#VERSION:0.83;
#TITLE:Dimentia V;
#SUBTITLE:;
#ARTIST:DjK31;
#TITLETRANSLIT:;
#SUBTITLETRANSLIT:;
#ARTISTTRANSLIT:;
#GENRE:;
#ORIGIN:;
#CREDIT:;
#BANNER:;
#BACKGROUND:;
#PREVIEWVID:;
#JACKET:;
#CDIMAGE:;
#DISCIMAGE:;
#LYRICSPATH:;
#CDTITLE:;
#MUSIC:Dimentia.ogg;
#OFFSET:-0.060000;
#SAMPLESTART:63.299999;
#SAMPLELENGTH:12.500000;
#SELECTABLE:YES;
#BPMS:0.000=95.000,
20.000=190.000,
44.000=380.000,
46.000=190.000,
50.000=380.000,
52.000=190.000,
56.000=380.000,
58.000=190.000,
62.000=380.000,
64.000=190.000,
68.000=380.000,
70.000=190.000,
74.000=380.000,
76.000=190.000,
80.000=380.000,
82.000=190.000,
86.000=380.000,
88.000=190.000,
92.000=380.000,
94.000=190.000,
98.000=380.000,
100.000=190.000,
104.000=380.000,
106.000=190.000,
110.000=380.000,
112.000=95.000,
124.000=190.000,
125.000=95.000,
127.000=190.000,
128.000=95.000,
130.000=190.000,
131.000=95.000,
133.000=190.000,
138.000=380.000,
140.000=190.000,
144.000=380.000,
146.000=190.000,
150.000=380.000,
152.000=190.000,
156.000=380.000,
158.000=190.000,
162.000=380.000,
164.000=190.000,
168.000=380.000,
170.000=190.000,
174.000=380.000,
176.000=190.000,
180.000=380.000,
182.000=190.000,
206.000=380.000,
208.000=190.000,
212.000=380.000,
214.000=190.000,
218.000=380.000,
220.000=190.000,
224.000=380.000,
226.000=190.000,
270.000=380.000,
272.000=190.000,
276.000=380.000,
278.000=190.000,
282.000=380.000,
284.000=190.000,
288.000=380.000,
290.000=190.000,
294.000=380.000,
296.000=190.000,
300.000=380.000,
302.000=190.000,
306.000=380.000,
308.000=190.000,
312.000=380.000,
314.000=190.000,
348.000=380.000,
350.000=190.000,
354.000=380.000,
356.000=190.000;
#STOPS:;
#DELAYS:;
#WARPS:;
#TIMESIGNATURES:0.000=4=4;
#TICKCOUNTS:0.000=4;
#COMBOS:0.000=1;
#SPEEDS:0.000=1.000=0.000=0;
#SCROLLS:0.000=1.000;
#FAKES:;
#LABELS:0.000=Song Start;
#BGCHANGES:;
#KEYSOUNDS:;
#ATTACKS:
;

//---------------dance-single - ----------------
#NOTEDATA:;
#CHARTNAME:;
#STEPSTYPE:dance-single;
#DESCRIPTION:;
#CHARTSTYLE:;
#DIFFICULTY:Challenge;
#METER:10;
#RADARVALUES:0.948784,1.384065,0.000000,0.008450,0.549232,786.000000,786.000000,0.000000,1.000000,0.000000,0.000000,0.000000,0.000000,0.000000,0.948784,1.384065,0.000000,0.008450,0.549232,786.000000,786.000000,0.000000,1.000000,0.000000,0.000000,0.000000,0.000000,0.000000;
#CREDIT:;
#NOTES:
// measure 0
0000
0000
0000
0000
,  // measure 1
0000
0000
0000
0000
,  // measure 2
0000
0000
0000
0000
0000
0000
0000
0000
1000
0010
1000
0010
0100
0001
0100
0001
,  // measure 3
1000
0001
1000
0001
0010
0100
0010
0100
0001
0010
0001
0010
1000
0100
1000
0100
,  // measure 4
0001
0010
0100
1000
0010
0100
0001
1000
0100
0010
1000
0001
0100
0010
1000
0001
,  // measure 5
1000
0010
0100
0001
,  // measure 6
0010
0100
0010
0001
,  // measure 7
0100
0000
1000
0100
1000
0000
0010
0000
,  // measure 8
0100
0001
0010
0100
,  // measure 9
1000
0000
0000
0001
1000
0000
0010
0000
0100
0000
0001
0000
0000
0000
0001
0000
,  // measure 10
0100
0010
0100
0001
0100
0010
0100
0001
,  // measure 11
1000
0001
1000
0001
0010
0100
0010
0001
,  // measure 12
0010
1000
0010
0100
1000
0100
1000
0100
,  // measure 13
1000
0010
1000
0001
1000
0100
1000
0001
,  // measure 14
0010
0000
0001
0000
0010
0000
0001
0000
0100
0000
0010
0000
0100
0000
0000
0001
,  // measure 15
0100
0010
0100
0001
1000
0001
1000
0001
,  // measure 16
1000
0000
0010
0000
0100
0000
0010
0000
1000
0000
0010
1000
0010
0000
0100
0000
,  // measure 17
0001
1000
0001
1000
0001
0100
0010
1000
,  // measure 18
0100
0000
1000
0001
1000
0000
0100
0000
0010
0000
0100
0000
0010
0000
0100
0000
,  // measure 19
0001
0000
1000
0000
0010
0000
1000
0000
0001
0000
1000
0001
1000
0000
0100
0000
,  // measure 20
0010
0000
0001
0000
0010
0000
0001
0000
0100
0000
0010
0000
0100
0000
0000
0010
,  // measure 21
0100
0010
1000
0001
1000
0001
1000
0001
,  // measure 22
0100
0000
0010
0000
1000
0000
0001
0000
1000
0000
0100
0001
0100
0000
0010
0000
,  // measure 23
1000
0010
1000
0010
1000
0100
1000
0001
,  // measure 24
0100
0000
0010
0100
0010
0000
0100
0000
0001
0000
1000
0000
0001
0000
1000
0000
,  // measure 25
0100
0000
0001
0000
0100
0000
0010
0000
1000
0000
0001
1000
0001
0000
0100
0000
,  // measure 26
0001
0000
0100
0000
0001
0000
0100
0000
0001
0100
0001
0100
0010
0100
0010
0100
,  // measure 27
0010
1000
0010
1000
0001
1000
0001
1000
0001
0000
0010
0000
0100
0000
1000
0000
,  // measure 28
0001
0000
0000
1000
0001
0000
1000
0000
0010
0000
0100
0000
0001
0000
1000
0001
1000
0000
0010
0000
0100
0000
0000
0001
0100
0000
0010
0000
0100
0000
0001
0000
,  // measure 29
1000
0000
0010
1000
0010
0000
0100
0000
0001
0000
0000
1000
0001
0000
0100
0000
0010
0000
0100
0000
0001
0000
1000
0000
0010
0000
0100
0000
0001
0000
0000
0100
,  // measure 30
0001
0000
0100
0000
0010
0000
1000
0010
1000
0000
0001
0000
0100
0000
0010
0000
0100
0000
0001
0000
0100
0000
0010
0000
0100
0000
0001
0000
0100
0000
0010
0000
,  // measure 31
1000
0001
1000
0001
1000
0010
1000
0001
1000
0100
1000
0001
0100
0001
0100
0001
,  // measure 32
0010
0001
0010
0100
0010
1000
0010
0001
1000
0010
1000
0010
0100
0001
0100
0010
,  // measure 33
0100
1000
0100
0010
1000
0001
1000
0001
1000
0000
0000
0010
1000
0000
0100
0000
,  // measure 34
0010
0001
0100
0010
1000
0010
1000
0001
,  // measure 35
0100
0000
0000
0001
0100
0000
0010
0000
1000
0000
0001
0000
0100
0000
0001
0000
,  // measure 36
0100
0000
0001
0000
0100
0000
0010
0000
1000
0000
0000
0010
1000
0000
0100
0000
,  // measure 37
0010
0001
1000
0010
0001
0010
0001
1000
,  // measure 38
0100
0000
0000
0010
0100
0000
0010
0000
1000
0000
0001
0000
0100
0000
0001
0000
,  // measure 39
1000
0001
1000
0010
0100
0010
1000
0001
,  // measure 40
0100
0001
0010
0100
1000
0001
1000
0010
,  // measure 41
0100
0010
1000
0001
0010
0001
0100
0010
,  // measure 42
0100
0001
0100
0010
1000
0001
0100
0001
,  // measure 43
1000
0010
0100
0010
1000
0001
1000
0010
,  // measure 44
1000
0010
1000
0010
0100
0001
0100
0001
1000
0001
1000
0001
0100
0010
0100
0010
,  // measure 45
0100
0000
0010
0000
1000
0000
0001
0000
1000
0000
0001
0100
0001
0000
1000
0000
,  // measure 46
0010
0000
0100
0000
0001
0000
1000
0010
1000
0000
0100
0000
0001
0000
1000
0001
,  // measure 47
1000
0000
0100
0000
0010
0000
0100
0000
0001
0000
0100
0001
0100
0000
0010
0000
,  // measure 48
1000
0100
1000
0001
1000
0010
0100
0001
,  // measure 49
0010
0000
0001
0000
0100
0000
0010
0100
0010
0000
1000
0000
0010
0000
0100
0001
,  // measure 50
0100
0010
1000
0001
1000
0010
1000
0001
,  // measure 51
1000
0100
1000
0001
1000
0010
1000
0010
,  // measure 52
0100
0001
0100
0010
0100
1000
0100
0010
,  // measure 53
0100
0001
0100
0001
0010
0001
0010
0100
,  // measure 54
0010
1000
0010
0001
1000
0010
1000
0010
,  // measure 55
0001
0100
0001
1000
0001
0010
0001
1000
,  // measure 56
0001
1000
0001
1000
0010
0100
0010
0100
,  // measure 57
0001
0000
0100
0001
0100
0000
0010
0000
1000
0000
0001
0000
0100
0000
0001
0000
,  // measure 58
0100
0000
0010
0000
1000
0000
0010
0100
0010
0000
0100
0000
0001
0000
1000
0000
,  // measure 59
0001
0000
0100
0000
0010
0000
1000
0000
0100
0000
1000
0100
1000
0000
0010
0000
,  // measure 60
0100
0000
0001
0000
0010
0000
0100
0000
0001
0000
1000
0000
0001
0000
0100
0001
,  // measure 61
0100
0010
1000
0001
0100
0010
1000
0001
,  // measure 62
0100
0000
0010
1000
0001
0000
0100
0000
0001
0000
1000
0000
0010
0000
1000
0000
,  // measure 63
0001
0000
0010
0000
0100
0000
0010
0100
1000
0000
0010
0000
0100
0000
0001
0000
,  // measure 64
0010
0000
0001
0000
1000
0000
0100
0000
1000
0000
0010
0100
0001
0000
0100
0000
,  // measure 65
0010
0000
1000
0000
0001
0000
0100
0000
0010
0000
1000
0000
0001
0000
1000
0001
,  // measure 66
0010
0100
0001
1000
0001
0100
1000
0100
,  // measure 67
0001
0100
1000
0100
0001
0100
0001
0100
,  // measure 68
0001
0010
1000
0010
0001
0010
1000
0010
,  // measure 69
0100
0010
0100
0010
1000
0100
0010
0100
,  // measure 70
1000
0100
0010
0100
1000
0001
1000
0001
,  // measure 71
0010
0001
0100
0001
0010
0001
0100
0001
,  // measure 72
1000
0010
1000
0010
0100
0001
0010
0001
,  // measure 73
1000
0100
1000
0010
0100
0010
1000
0001
,  // measure 74
1000
0100
0010
0001
0100
0010
1000
0001
,  // measure 75
0100
0001
0010
0100
1000
0001
0100
0010
,  // measure 76
1000
0001
0100
0010
1000
0100
0010
0001
,  // measure 77
1000
0010
1000
0010
0100
0001
0100
0001
0010
0001
0100
0010
1000
0100
0010
0001
,  // measure 78
1000
0001
1000
0001
1000
0000
0010
0000
,  // measure 79
0100
0000
0001
0100
0001
0000
0000
0000
1000
0000
0000
0000
0010
0000
0000
0000
,  // measure 80
1000
0000
0000
0000
0001
0000
1000
0001
1000
0000
0000
0000
0100
0000
0010
0000
,  // measure 81
0100
0000
0000
0000
0001
0000
0000
0000
1000
0000
0100
1000
0100
0000
0000
0000
,  // measure 82
0010
0000
0000
0000
0001
0000
0000
0000
0100
0000
0000
0001
1000
0000
0010
0000
,  // measure 83
0100
0001
0000
0001
0100
1000
0100
0001
,  // measure 84
0100
1000
0100
0001
0010
1000
0010
0001
,  // measure 85
0010
1000
0010
0001
1000
0100
0010
0001
,  // measure 86
1000
0100
0010
0001
0100
0010
1000
0001
,  // measure 87
1000
0000
0100
0000
0010
0000
0001
0000
0100
0010
0100
0010
1000
0001
1000
0001
,  // measure 88
1000
0100
0010
0001
0100
0001
1000
0010
1000
0000
0001
0000
1000
0000
0001
0000
,  // measure 89
2000
0000
0000
0000
,  // measure 90
0000
0000
0000
0000
,  // measure 91
3000
0000
0000
0000
;
