#VERSION:0.83;
#TITLE:Deadman falling;
#SUBTITLE:;
#ARTIST:猫叉Master;
#TITLETRANSLIT:;
#SUBTITLETRANSLIT:;
#ARTISTTRANSLIT:;
#GENRE:;
#ORIGIN:;
#CREDIT:;
#BANNER:[Uncommon Time] - Deadman falling.png;
#BACKGROUND:[Uncommon Time] - Deadman falling-bg.png;
#PREVIEWVID:;
#JACKET:[Uncommon Time] - Deadman falling-jacket.png;
#CDIMAGE:;
#DISCIMAGE:;
#LYRICSPATH:;
#CDTITLE:;
#MUSIC:[Uncommon Time] - Deadman falling.ogg;
#OFFSET:-4.801003;
#SAMPLESTART:75.697090;
#SAMPLELENGTH:11.636368;
#SELECTABLE:YES;
#BPMS:0.000=82.500,
42.000=165.000;
#STOPS:;
#DELAYS:;
#WARPS:;
#TIMESIGNATURES:0.000=4=4;
#TICKCOUNTS:0.000=4;
#COMBOS:0.000=1;
#SPEEDS:0.000=1.000=0.000=0;
#SCROLLS:0.000=1.000;
#FAKES:;
#LABELS:0.000=Song Start;
#BGCHANGES:;
#KEYSOUNDS:;
#ATTACKS:
;

//---------------dance-single - ----------------
#NOTEDATA:;
#CHARTNAME:;
#STEPSTYPE:dance-single;
#DESCRIPTION:;
#CHARTSTYLE:;
#DIFFICULTY:Hard;
#METER:8;
#RADARVALUES:0.455608,0.552318,0.120349,0.171928,0.068771,371.000000,357.000000,14.000000,20.000000,0.000000,0.000000,0.000000,0.000000,0.000000,0.455608,0.552318,0.120349,0.171928,0.068771,371.000000,357.000000,14.000000,20.000000,0.000000,0.000000,0.000000,0.000000,0.000000;
#CREDIT:;
#NOTES:
0000
0000
0000
0000
,
0000
0000
0000
1000
0010
0000
0000
0000
,
0000
0000
0000
0000
0000
0000
0100
0010
,
0100
0000
0000
0001
0000
0000
0000
0000
,
0000
0000
0000
0000
1001
0001
0100
0001
,
0010
0100
1000
0010
0100
0010
1000
0001
,
1001
1000
0010
0100
0010
1000
0001
0010
,
0100
0010
0001
1000
1001
0010
0100
0001
,
0010
0100
0010
0001
1000
0010
0100
0001
,
1001
0100
0010
1000
0100
1000
0001
0010
,
0100
0000
0010
0000
0001
1000
0010
0100
0001
0000
0000
0001
0000
0000
1000
0000
,
0001
0000
0000
0000
0100
0000
0000
0100
0000
0000
0010
0000
0100
0000
0000
0000
,
0010
0000
0000
0010
0000
0000
1000
0000
0010
0000
0000
0000
0100
0000
0000
0100
,
0000
0000
0001
0000
0010
0000
0100
0000
1000
0000
0000
1000
0000
0000
0010
0000
,
1000
0000
0000
0000
0001
0000
0000
0001
0000
0000
0100
0000
0001
0000
0000
0000
,
0010
0000
0000
0010
0000
0000
0100
0000
0010
0000
0000
0000
0100
0000
0000
0100
,
0000
0010
0001
0000
1001
0000
0000
0000
,
0000
0000
0001
1000
0010
1000
0100
0010
,
0100
0000
0010
0001
0000
0001
1000
0000
,
1000
0010
0000
0010
1000
0010
0100
0001
,
0010
0100
1000
0100
1000
0010
0100
0001
,
0010
0000
0100
0010
0000
0010
0001
0000
,
0001
0000
1000
0000
0000
0000
1000
0000
0010
0000
0000
0100
0000
0000
0010
0000
,
1000
0001
0010
0001
1000
0010
0100
0001
,
0010
0000
0001
0100
0000
0010
1000
0000
,
0100
0010
0000
0100
0010
0001
0100
0010
,
0001
0010
1000
0001
0010
0001
1000
0010
,
0001
0000
0010
0100
0000
0010
1000
0000
,
0001
0010
0000
0100
0010
0001
1000
0010
,
0100
1000
0200
0000
0000
0310
1000
0001
,
0100
0001
0001
0010
0001
1000
0000
0001
,
0001
0010
0100
1000
0010
0100
0100
0010
,
1000
0100
0000
1000
1000
0001
0010
0001
,
1000
0010
0010
1000
0001
1000
0000
0001
,
0001
0010
0001
1000
0001
0010
0010
0001
,
0100
0010
0000
0100
0100
0010
1000
0001
,
0010
0000
0100
0000
0100
0000
0010
0000
0001
0000
1000
0000
0001
0000
0000
0010
,
0000
0000
0100
0000
1100
0000
0000
0000
1000
0000
0000
0100
0000
0000
0010
0000
,
0012
0000
0203
0000
0310
1000
0001
0010
,
0000
0100
0010
0001
1000
0001
0200
0000
,
0310
1000
0001
0010
0000
0100
0010
0001
,
1000
0010
2000
0000
3000
0001
0100
0010
,
0100
0001
1000
0100
0010
0100
2000
0000
,
0000
3010
0000
0000
0200
0000
0000
0310
,
0100
0001
2000
0000
3100
0010
0001
0010
,
0000
0100
0010
0001
0100
0010
0200
0000
,
0310
1000
0001
0010
0000
0100
0010
0001
,
1000
0010
0200
0000
0300
0100
0010
1000
,
0001
0000
0010
0000
0100
0000
0010
0000
0001
0000
1000
0000
0010
0000
0000
0100
,
0000
0000
0001
0000
0000
1000
0000
0000
0100
0000
0010
0000
0001
0000
1000
0000
,
0010
0100
2002
0000
0000
0000
0000
0000
,
0000
3003
0000
0220
,
0000
0000
0000
0330
,
0000
0202
0000
0000
,
0000
0303
0000
2020
,
0000
0000
0000
0000
0000
0000
3030
0000
1000
0000
0000
0101
0000
0000
0001
0000
,
1100
0000
1000
0001
0001
0000
0010
0001
,
1000
0010
0001
0010
1000
0010
0000
0100
,
0100
0000
0010
1000
0001
0100
1000
0100
,
0001
0100
0000
0001
0001
0000
0010
0100
,
1000
0010
0001
0010
1000
0010
0000
0100
,
0100
0000
0010
0100
0001
0010
1000
0010
,
0001
0100
2002
0000
0000
0000
0000
0000
,
0000
0000
0000
0000
,
0000
3003
0000
0000
;

//---------------dance-single - ----------------
#NOTEDATA:;
#CHARTNAME:;
#STEPSTYPE:dance-single;
#DESCRIPTION:;
#CHARTSTYLE:;
#DIFFICULTY:Challenge;
#METER:9;
#RADARVALUES:0.572273,0.662781,0.335259,0.103157,0.330961,466.000000,427.000000,39.000000,12.000000,0.000000,0.000000,0.000000,0.000000,0.000000,0.572273,0.662781,0.335259,0.103157,0.330961,466.000000,427.000000,39.000000,12.000000,0.000000,0.000000,0.000000,0.000000,0.000000;
#CREDIT:;
#NOTES:
0000
0000
0000
0000
,
0000
0000
0000
0001
0100
0000
0000
0000
,
0000
0000
0000
0000
0000
0000
0010
1000
,
0001
0000
0000
0010
0000
0000
0000
0000
,
0000
0000
0000
0000
1001
1000
0100
1000
,
0001
0100
0001
1000
0010
1000
0001
0010
,
1001
0001
0100
0010
1000
0100
0010
0100
,
1000
0001
1000
0010
1001
1000
0100
0001
,
0100
1000
0010
0001
0010
1000
0100
0010
,
1001
0001
0100
1000
0100
0001
0100
0010
,
0100
0000
1000
0000
0010
0001
0010
0100
0110
0000
0000
0110
0000
0000
0100
0000
,
0001
0000
0000
0000
0011
0000
0000
0011
0000
0000
0001
0000
0100
0000
0000
0000
,
1010
0000
0000
1010
0000
0000
1000
0000
0100
0000
0000
0000
0110
0000
0000
0110
,
0000
0000
0010
0000
0100
0000
1000
0000
1001
0000
0000
1001
0000
0000
1000
0000
,
0010
0000
0000
0000
0101
0000
0000
0101
0000
0000
0010
0000
1000
0000
0000
0000
,
1100
0000
0000
0110
0000
0000
0010
0000
0001
0000
0000
0000
0101
0000
0000
1010
,
0000
1001
1001
0000
0220
0000
0000
0000
,
0330
0000
0000
0000
0100
0000
0010
0000
1000
0000
0100
0000
1000
0001
1000
0000
,
0010
0000
0100
0010
0000
0010
1000
0000
,
0001
1000
0000
0010
0100
0001
0010
0100
,
1000
0010
0100
0000
0010
0000
0100
0000
0001
0000
0010
0000
0100
0010
0100
0000
,
1000
0000
0001
0100
0000
0010
1000
0000
,
0100
0000
0010
0000
0000
0000
0100
0000
2000
0000
0000
3020
0000
0000
0130
0000
,
0010
0000
0100
0000
0001
0000
1000
0000
0100
0000
1000
0000
0001
0100
0010
0000
,
1000
0000
0000
0001
0010
0000
0100
0000
0000
0000
0010
0000
0001
0000
0000
1000
,
0010
0100
0000
0010
0100
0001
1000
0100
,
0010
0001
1000
0000
0001
0000
1000
0000
0010
0000
1000
0000
0001
0010
0100
0000
,
0010
0000
0000
0001
0100
0000
0010
0000
0000
0000
0100
0000
0010
0000
0000
1000
,
0100
0010
0000
0001
0010
1000
0010
0001
,
1000
0000
0010
0000
0100
0000
0000
0000
0000
0000
0001
1000
0010
0000
0010
1000
,
0001
1000
1000
0100
0010
0100
0000
0010
,
0010
0000
0001
1000
0100
0000
0100
1000
0001
0000
0100
0000
0100
0000
0010
0000
,
1000
0000
0001
0000
0000
0000
1000
0000
1000
0000
0010
0100
0001
0000
0001
0100
,
0010
1000
1000
0001
0010
0001
0000
0100
,
0100
0000
0001
1000
0010
0000
0010
1000
0001
0000
0000
0010
0000
0000
0100
0000
,
0010
0000
0010
0000
0000
0000
0100
0000
0100
0000
0010
0001
0100
0000
0100
0010
,
1000
0000
0001
0000
1000
0000
0100
0000
0010
0000
0100
0000
0110
0000
0000
0010
,
0000
0000
0001
0000
1001
0000
0000
0000
1010
0000
0000
0010
0000
0000
0100
0000
,
0102
0000
0000
0000
0023
0000
0000
0000
0130
0000
0010
0001
1000
0000
0001
0000
,
0000
0000
0010
0001
1000
0000
0010
0000
0100
0000
0001
0000
0020
0000
0000
0000
,
0031
0000
1000
0001
0100
0000
0001
0000
0000
0000
0001
1000
0010
0000
0100
0000
,
0001
0010
0200
0000
0300
0010
0100
1000
,
0001
0000
0100
0000
0010
1000
0001
0000
1000
0000
0100
0000
0010
0000
0000
0100
,
0000
0000
1000
0000
1001
0000
0000
0000
0001
0000
0000
0100
0000
0000
0010
0000
,
1001
0000
0000
0000
1020
0000
0000
0000
0130
0000
0001
0010
0100
0000
0010
0000
,
0000
0000
0010
0100
1000
0000
0001
0000
1000
0000
0010
0000
0200
0000
0000
0000
,
0310
0000
1000
0010
0100
0000
0001
0000
0000
0000
0010
0100
1000
0000
0001
0000
,
0010
0001
2000
0000
3000
0001
0010
0100
,
1000
0000
0001
0000
0100
0010
0100
0000
0010
0000
1000
0000
1001
0000
0000
0001
,
0000
0000
0010
0000
0000
0100
0000
0000
1001
0000
1000
0000
0100
0000
0010
0000
,
0001
0000
0000
0010
0000
0000
1001
0000
1000
0000
0001
0000
1000
0000
0000
0000
0000
0000
0000
0000
0000
0000
0000
0000
,
0001
0100
0010
1000
0000
0000
0000
0000
0000
0110
0100
0001
,
1000
0000
0000
0000
0000
0000
1000
0100
0010
0001
0000
0000
,
0000
0000
0000
1001
0001
0010
0100
0000
0000
0000
0000
0000
,
0010
0001
1000
0010
0000
0000
0000
0000
0000
0110
0010
1000
,
0001
0000
0000
0000
0000
0000
0000
0000
1001
0000
0000
0110
0000
0000
1001
0000
,
1000
0001
0100
0010
0010
0000
0100
0001
,
1000
0000
0001
0100
1000
0000
1000
0100
0001
0000
1000
0000
0000
0000
0001
0000
,
0001
0000
0000
0000
1000
0000
0001
0000
0010
0000
0001
0010
1000
0000
1000
0010
,
0001
1000
0000
0100
0100
0000
0010
0100
,
1000
0000
1000
0010
0001
0000
0001
0010
1000
0000
0001
0000
0000
0000
1000
0000
,
1000
0000
0000
0000
0001
0100
0010
0100
0001
1000
0001
1000
0001
1000
0001
0010
,
0100
1000
0001
0100
0020
0000
0000
0000
0000
0000
0000
0000
0000
0000
0000
0000
,
0000
0000
0000
0000
,
0000
0030
0000
0000
;

//---------------dance-single - ----------------
#NOTEDATA:;
#CHARTNAME:;
#STEPSTYPE:dance-single;
#DESCRIPTION:;
#CHARTSTYLE:;
#DIFFICULTY:Medium;
#METER:5;
#RADARVALUES:0.298417,0.359006,0.077367,0.171928,0.000000,243.000000,234.000000,9.000000,20.000000,0.000000,0.000000,0.000000,0.000000,0.000000,0.298417,0.359006,0.077367,0.171928,0.000000,243.000000,234.000000,9.000000,20.000000,0.000000,0.000000,0.000000,0.000000,0.000000;
#CREDIT:;
#NOTES:
0000
0000
0000
0000
,
0000
0000
0000
1000
0010
0000
0000
0000
,
0000
0000
0000
0000
0000
0000
0010
1000
,
0001
0000
0000
0100
0000
0000
0000
0000
,
0000
0000
0000
0000
1001
0001
0010
0000
,
0100
0010
0000
0001
0100
0000
0010
1000
,
0000
0100
0010
0000
0100
1000
0000
0010
,
0100
0000
0010
0100
0001
1000
0100
0000
,
0010
0001
0000
0010
0100
0000
1000
0001
,
0000
0100
0010
0000
1000
0010
0000
0100
,
0001
0000
0010
0100
1001
0000
0100
0000
,
0010
0001
0100
0010
,
1001
1000
0001
0010
,
0100
0010
1001
0001
,
0100
0001
0010
0100
,
1001
1000
0100
0010
,
0100
1000
0220
0000
,
0330
0010
1000
0001
,
0010
0000
0001
0100
0000
0001
1000
0000
,
0001
0010
0000
0001
1000
0000
0100
0000
,
0010
0100
1000
0010
,
0100
0000
0001
0100
0000
0010
1000
0000
,
0001
0100
0000
0010
1000
0000
0100
0000
,
0010
0100
1000
0010
,
0100
0000
0010
1000
0000
1000
0100
0000
,
0100
0010
0000
0010
0001
0000
1000
0000
,
0001
0100
0001
0010
,
0100
0000
0010
0001
0000
1000
0100
0000
,
1000
0010
0000
0100
0001
0000
0010
0000
,
0100
2000
0000
3100
,
1000
0010
0100
0000
,
0010
0100
0001
1000
,
0001
0000
1000
0010
,
0100
0001
0010
0000
,
0100
0010
0001
0001
,
1000
0000
0001
0100
,
0001
1000
0100
0010
,
0000
0100
1000
0000
,
0001
2000
3010
0100
,
0001
0010
0100
0020
,
0031
0100
1000
0100
,
0010
2000
3000
0010
,
1000
0001
0010
0200
,
0000
0320
0000
0000
0032
0000
0003
1000
,
0100
0010
0002
0000
0103
0000
0001
0000
,
0010
0001
1000
0200
,
1300
0010
0100
0001
,
1000
0200
0300
1000
,
0010
0100
0001
0020
,
0000
0032
0000
0000
2003
0000
0000
3010
,
0000
0210
0000
0000
,
0310
0000
0000
1002
,
0000
0000
1003
0000
,
0000
0200
0000
0000
,
0301
0000
0000
2010
,
0000
0000
3010
0000
,
0000
0000
0000
1000
0001
0000
1000
0001
,
0100
0000
0100
0000
0100
0000
0000
0001
,
1000
0000
1000
0010
0100
0000
0100
0000
,
0100
0000
0000
0010
1000
0000
1000
0100
,
0010
0000
0010
0000
0010
0000
0000
0100
,
0010
0000
0010
0001
0100
1000
0100
0010
,
1000
0001
0020
0000
0000
0000
0000
0000
,
0000
0000
0000
0000
,
0000
0030
0000
0000
;

//---------------dance-single - ----------------
#NOTEDATA:;
#CHARTNAME:;
#STEPSTYPE:dance-single;
#DESCRIPTION:;
#CHARTSTYLE:;
#DIFFICULTY:Easy;
#METER:3;
#RADARVALUES:0.196489,0.248543,0.111753,0.111753,0.000000,160.000000,147.000000,13.000000,13.000000,0.000000,0.000000,0.000000,0.000000,0.000000,0.196489,0.248543,0.111753,0.111753,0.000000,160.000000,147.000000,13.000000,13.000000,0.000000,0.000000,0.000000,0.000000,0.000000;
#CREDIT:;
#NOTES:
0000
0000
0000
0000
,
0000
0000
1000
0000
,
0000
0000
0000
0000
,
0010
0000
0000
0100
0000
0000
0000
0000
,
0000
0000
0000
0000
1001
0000
0000
0001
,
0000
0000
1000
0000
0000
0010
0000
0000
,
1000
0000
0000
0100
0000
0000
0010
0000
,
0000
0001
0000
0000
1001
0000
0000
0001
,
0000
0000
1000
0000
0000
0010
0000
0000
,
0100
0000
0000
0010
0000
0000
1000
0000
,
0000
0001
0000
0000
1001
0000
0000
0000
,
0000
0010
0000
0000
,
1001
0000
0000
0100
,
0000
0000
0110
0000
,
0000
1000
0000
0000
,
0110
0000
0000
1001
,
0000
0000
0020
0000
,
0030
1000
0010
0100
,
0001
0000
0000
0001
,
0000
0000
1000
0001
,
0100
0001
1000
0010
,
0100
0000
0000
0010
,
0000
0000
1000
0100
,
0010
0001
0100
0001
,
1000
0000
0000
0001
,
0000
0000
1000
0010
,
1000
0001
0010
0001
,
0100
0000
0000
0010
,
0000
0000
0100
0010
,
1000
0001
0000
1000
,
0100
1000
0100
0000
,
0010
0001
0010
0001
,
0010
0000
0001
1000
,
0001
1000
0001
0000
,
0100
0010
0100
0010
,
0100
0000
0010
1000
,
0010
1000
0010
0100
,
0000
0010
1000
0000
,
0001
0020
0031
0100
,
0000
0010
1000
0002
,
1003
0100
0000
0010
,
0100
2000
3000
0100
,
1000
0010
0100
0002
,
0000
0000
2000
0000
,
3003
0120
0130
0010
,
0000
0100
0010
2000
,
3001
0010
0000
0100
,
0010
0002
0003
1000
,
0001
0100
0010
2000
,
0000
0000
0002
0000
,
3003
0110
0000
0000
,
0000
0000
0000
1001
,
0000
0000
0000
0000
,
0000
0110
0000
0000
,
0000
0000
0000
1001
,
0000
0000
0010
0000
,
0000
1000
0000
0001
,
0100
0001
0010
0000
,
0100
0000
0010
0100
,
1000
0000
0100
0000
,
1000
0010
0100
0000
,
0010
0100
0010
1000
,
0001
2002
0000
0000
,
0000
0000
0000
0000
,
0000
3003
0000
0000
;

//---------------dance-single - ----------------
#NOTEDATA:;
#CHARTNAME:;
#STEPSTYPE:dance-single;
#DESCRIPTION:;
#CHARTSTYLE:;
#DIFFICULTY:Beginner;
#METER:1;
#RADARVALUES:0.112981,0.160537,0.060175,0.000000,0.000000,92.000000,85.000000,7.000000,0.000000,0.000000,0.000000,0.000000,0.000000,0.000000,0.112981,0.160537,0.060175,0.000000,0.000000,92.000000,85.000000,7.000000,0.000000,0.000000,0.000000,0.000000,0.000000,0.000000;
#CREDIT:;
#NOTES:
// measure 0
0000
0000
0000
0000
,  // measure 1
0000
0000
0000
0000
,  // measure 2
0000
0000
0000
0000
,  // measure 3
0000
0000
0000
0000
,  // measure 4
0000
0000
0010
0000
,  // measure 5
0000
0100
0000
0000
,  // measure 6
0001
0000
0000
1000
,  // measure 7
0000
0000
0010
0000
,  // measure 8
0000
1000
0000
0000
,  // measure 9
0001
0000
0000
0100
,  // measure 10
0000
0000
0110
0000
,  // measure 11
0000
0010
0000
0000
,  // measure 12
1000
0000
0000
0001
,  // measure 13
0000
0000
0100
0000
,  // measure 14
0000
0010
0000
0000
,  // measure 15
1000
0000
0000
1000
,  // measure 16
0000
0000
0110
0000
,  // measure 17
0000
0010
0000
0000
,  // measure 18
1000
0000
0000
1000
,  // measure 19
0000
0000
0001
0000
,  // measure 20
0000
1000
0000
0000
,  // measure 21
0010
0000
0000
0100
,  // measure 22
0000
0000
0001
0001
,  // measure 23
0001
1000
0000
0000
,  // measure 24
0010
0000
0000
1000
,  // measure 25
0000
0000
0001
0000
,  // measure 26
0000
0100
0000
0000
,  // measure 27
0010
0000
0000
1000
,  // measure 28
0000
0000
0001
0000
,  // measure 29
1000
0001
0000
1000
,  // measure 30
1000
1000
0000
0000
,  // measure 31
0001
0001
0001
0000
,  // measure 32
0000
0000
0100
0100
,  // measure 33
0100
0000
0000
0000
,  // measure 34
0010
0010
0010
0000
,  // measure 35
0000
1000
0000
0000
,  // measure 36
0010
0000
0000
0100
,  // measure 37
0000
0010
1000
0000
,  // measure 38
0001
1000
0000
0000
,  // measure 39
0000
0000
0000
0001
,  // measure 40
0000
0000
0000
0000
,  // measure 41
0000
0100
0000
0000
,  // measure 42
0010
0000
0000
1000
,  // measure 43
0000
0000
0100
0000
,  // measure 44
0000
1000
0000
0000
,  // measure 45
0000
0001
1000
0001
,  // measure 46
0000
0000
0000
0100
,  // measure 47
0010
0100
0000
0000
,  // measure 48
0010
0000
0000
1000
,  // measure 49
0000
0000
0001
0000
,  // measure 50
0000
0110
0000
0000
,  // measure 51
0000
0000
0000
1001
,  // measure 52
0000
0000
0000
0000
,  // measure 53
0000
0110
0000
0000
,  // measure 54
0000
0000
0000
1001
,  // measure 55
0000
0000
0010
0000
,  // measure 56
0000
0100
0000
0000
,  // measure 57
0010
0000
0000
1000
,  // measure 58
0000
0000
0001
0000
,  // measure 59
0000
0010
0000
0000
,  // measure 60
0001
0000
0000
1000
,  // measure 61
0000
0000
0100
0000
,  // measure 62
0000
1001
0000
0000
;
