#TITLE:Auburn Halo;
#SUBTITLE:;
#ARTIST:Arctures;
#TITLETRANSLIT:;
#SUBTITLETRANSLIT:;
#ARTISTTRANSLIT:;
#GENRE:Future Waltz;
#CREDIT:TiKAL;
#MUSIC:[Uncommon Time] - Auburn Halo.ogg;
#BANNER:[Uncommon Time] - Auburn Halo.png;
#BACKGROUND:[Uncommon Time] - Auburn Halo-bg.png;
#CDTITLE:cdtitle.png;
#SAMPLESTART:89.250;
#SAMPLELENGTH:19.355;
#SELECTABLE:YES;
#OFFSET:-0.218;
#BPMS:0.000=186.000
,405.000=183.000
,406.000=180.000
,407.000=176.000
,408.000=171.000
,409.000=165.000
,410.000=149.000
,411.000=141.000
,412.000=134.000
,413.000=125.000
,414.000=117.000
,415.000=106.000
,415.500=82.000
;
#STOPS:;
#BGCHANGES:;
#FGCHANGES:;

//--------------- dance-single - TiKAL ----------------
#NOTES:
     dance-single:
     TiKAL:
     Medium:
     4:
     0.205842,0.374935,0.049932,0.927306,0,202,195,7,130,0,0,0.205842,0.374935,0.049932,0.927306,0,202,195,7,130,0,0:
0000
0000
0000
0000
,
0000
0000
0000
0000
,
0000
0000
0000
0000
,
0000
0000
0000
0000
,
0000
0000
0000
0000
,
0000
0000
0000
0000
,
0000
0000
0000
0000
,
0000
0000
0000
0000
,
0000
0000
0000
0000
,
0000
0000
0000
0000
,
0000
0000
0000
0000
,
0000
0000
2000
3200
,
0320
0000
0001
0130
,
2000
3001
0200
0000
,
1000
0310
2000
3001
,
0020
0000
0130
1000
,
0001
0100
0020
0000
,
0130
0001
1000
0100
,
0020
0000
1000
0130
,
1000
0001
0200
0000
,
0010
0301
2000
3100
,
0020
0000
0031
2000
,
0000
3010
0200
0000
,
0301
1000
0100
0010
,
0002
0000
0103
2000
,
0000
3010
2002
0000
,
3003
0000
0001
0010
0100
1000
0001
1000
,
0002
0000
0000
0100
,
0000
0000
1000
0000
,
0000
0023
0230
2300
,
3002
0000
0000
0023
,
0000
0000
0230
0000
,
0000
1000
0000
1300
,
2000
0000
0000
3002
,
0000
0000
0203
0000
,
0000
0320
0000
0030
,
0110
0000
0000
1000
,
0000
0000
0001
0000
,
0000
0020
0230
2300
,
3002
0000
0000
0203
,
0000
0000
0320
0000
,
0000
2030
0000
0000
,
3002
0000
0000
1000
,
0000
0000
0203
0000
,
0000
0310
0000
1000
,
1002
0203
0320
2030
,
0000
3000
0002
0023
,
0230
2300
0000
3000
,
0002
0000
0000
0203
,
0000
0000
0320
0000
,
0000
0030
0000
0000
,
2000
3200
0320
0032
,
0000
0003
2000
3020
,
0230
0302
0000
0003
,
2000
0000
0000
3200
,
0000
0000
0320
0000
,
0000
0030
0000
0000
,
2001
3002
0203
0320
,
0000
1030
0002
2003
,
3020
0230
0000
0301
,
2000
3200
0320
0032
,
0023
0230
2300
0000
,
0000
3001
0200
0320
,
2030
3002
0023
0230
,
0000
1300
0002
2003
,
3020
0230
0000
0301
,
2002
0000
0000
0000
,
0000
0000
0000
0000
,
0000
0000
3003
0000
0000
0000
2000
0000
0000
3020
0000
0000
,
0230
0000
0000
0301
,
2000
0000
3200
0000
,
0000
0310
0002
0000
,
2003
0000
0000
0100
,
0000
0000
0001
0000
,
0000
3010
0200
2300
,
3020
0000
0000
0130
,
0002
0000
2003
0000
,
0000
3100
0020
0000
,
0032
0000
0000
0100
,
0000
0000
1000
0000
,
0000
0013
0200
2300
,
3002
0000
0000
0100
,
0000
0003
2002
0000
,
0000
0000
0000
3003
,
2000
0000
0000
0100
,
0000
0000
0100
0000
,
0000
3200
0320
0031
,
0002
0000
0000
0203
,
0000
0000
0320
0000
,
0000
1000
0000
1030
,
0002
0000
0000
0023
,
0000
0000
0230
0000
,
0000
2300
0000
3000
,
2002
0000
0000
0000
,
0000
0000
3003
0000
,
0000
0001
0100
0010
,
2000
0000
0000
0000
,
0000
0000
3002
0000
,
0000
0023
0230
2300
,
3002
0000
0000
0000
,
0000
0000
2003
0000
,
0000
3002
0203
0320
,
2030
0000
0000
0000
,
0000
0000
0000
0000
,
0000
0002
0000
0000
0000
0000
0000
0000
,
0000
3003
0000
0000
0000
0000
0000
0000
;

//--------------- dance-single - TiKAL ----------------
#NOTES:
     dance-single:
     TiKAL:
     Hard:
     7:
     0.393341,0.599896,0.064198,0.855975,0.0107,386,377,9,120,0,0,0.393341,0.599896,0.064198,0.855975,0.0107,386,377,9,120,0,0:
0000
0000
0000
0000
,
0000
0000
0000
0000
,
0000
0000
0000
0000
,
0000
0000
0000
0000
,
0000
0000
0000
0000
,
0000
0000
0000
0000
,
0000
0000
0000
0000
,
0000
0000
0000
0000
,
0000
0000
0000
0000
,
0000
0000
0000
0000
,
0000
0000
0000
0000
,
0000
0000
0002
0023
,
0230
1000
1000
1300
,
0002
0103
0020
1000
,
1000
1030
0002
0013
,
0200
0000
1000
0010
,
0000
0001
0020
0000
,
0330
0001
2000
3020
,
0230
0001
0001
0301
,
2000
3100
0020
0001
,
0001
0031
2000
3010
,
0200
0000
0001
0010
,
0000
1000
0020
0000
,
0330
1000
0001
0010
,
0200
1000
1300
0002
,
0100
0103
2002
0000
,
3003
0000
1000
0100
0010
0001
1000
0001
,
1000
0100
0000
0001
0100
0000
0010
0001
,
0000
1000
0010
0000
0100
0001
1000
0000
,
0100
1000
0002
0000
0010
0000
1000
0000
,
0103
0010
0100
0001
1000
0000
0100
0010
,
0100
1000
0001
0000
1000
0010
0100
0001
,
1000
0000
0001
0010
0100
1000
0001
0000
,
1000
0100
0010
0000
0010
0100
1000
0001
,
0100
0001
1000
0000
0002
0000
0023
0000
,
0230
0000
2300
0000
3001
0100
0010
1000
,
1002
0000
0000
0100
,
0000
0000
0010
0000
,
0000
2003
3200
0320
,
0032
0000
0000
0203
,
0000
0000
0320
0000
,
0000
2030
0000
0000
,
3002
0000
0000
1000
,
0000
0000
0203
0000
,
0000
0310
0000
1000
,
1002
0203
0320
2030
,
0000
0000
3100
1000
0001
0000
0020
0000
,
0230
0000
2300
0000
0000
0000
3001
0100
,
0002
0000
1003
0200
,
0000
0310
0220
0000
,
0000
0330
0000
0000
,
2000
3200
0320
0032
,
0000
0000
1003
0001
2000
0000
3020
0000
,
0230
0000
0302
0000
0000
0000
1003
0010
,
2000
0000
3001
0200
,
0000
0301
0220
0000
,
0330
0000
1000
0000
0001
0100
0010
1000
,
2001
3002
0203
0320
,
0000
0000
0130
0001
2000
0000
3002
0000
,
0023
0230
0000
1300
,
0002
0203
0320
2030
,
3020
0000
0130
0001
2000
0000
3100
0010
,
0001
1000
0010
0100
0001
1000
0001
0010
,
0200
2300
3002
0203
,
0000
0000
0310
1000
0002
0000
0023
0000
,
0230
2300
0000
3001
,
2002
0000
0000
0003
,
3020
0000
0230
0000
0002
0000
0000
0300
,
0000
0000
1003
0000
0000
0000
0002
0000
0000
0023
0000
0000
,
0130
1000
0001
0100
0001
1000
0100
0000
,
0020
0000
0031
0000
1000
0010
0100
0001
,
0100
0010
1000
0000
0200
0000
0310
0001
,
1000
0010
0100
0001
1000
0000
0001
0010
,
0000
1000
0010
0001
1000
0100
0010
0001
,
1000
0000
0001
0100
0000
1000
0100
0001
,
1000
0100
0010
0001
0010
0100
1000
0000
,
0002
0100
0003
0100
0010
1000
0001
0010
,
0001
1000
0010
0000
0200
0301
1000
0001
,
0100
1000
0000
0100
0001
1000
0100
0000
,
0010
0001
1000
0000
0010
0001
0000
0010
,
1000
0001
0010
0000
0100
1000
0001
0100
,
0010
1000
0000
0001
0010
0000
0100
1000
,
0000
0001
0100
0000
1001
0000
0000
0110
,
0000
0000
1000
0100
0010
0001
1000
0001
,
2000
0100
0100
3002
,
0103
0001
0100
0001
2000
0000
0010
0000
,
0010
3002
0023
0130
,
0200
1000
1000
0320
,
0031
0100
0001
0100
0020
0000
1000
0000
,
1030
0000
0002
0000
0103
0001
0200
0000
,
0320
0000
1030
0010
1000
0000
0002
0000
,
0013
0001
0010
0100
2000
0000
3100
1000
,
0100
1000
0001
0100
0001
1000
0001
0010
,
0200
0000
0000
1000
,
0000
0000
1000
0000
,
0000
0320
0032
2003
,
3020
0000
0000
0001
,
0000
0000
0230
0000
,
0000
0302
2003
3200
,
0320
0000
0000
0100
,
0000
0000
0032
0000
,
0000
2003
3020
0230
,
0302
0000
0000
0000
0000
0000
0000
0000
0000
0000
0000
0000
0000
0000
0000
0000
0000
0000
0000
0000
0000
0000
0000
0000
0000
0000
0000
0000
0000
0000
0000
0000
0000
0000
0000
0000
0000
0000
0000
0000
0000
1000
0000
0000
0000
0000
0000
0000
,
0000
0000
0000
0000
0000
0000
0000
0000
0000
1000
0000
0000
0000
0000
0003
0000
,
0010
0200
0000
0000
0000
0000
0000
0000
,
0000
0300
0000
0000
0000
0000
0000
0000
;

//--------------- dance-single - TiKAL ----------------
#NOTES:
     dance-single:
     TiKAL:
     Challenge:
     11:
     0.649114,0.937337,0.164062,0.806043,0.35309,637,614,23,113,0,0,0.649114,0.937337,0.164062,0.806043,0.35309,637,614,23,113,0,0:
0000
0000
0000
0000
,
0000
0000
0000
0000
,
0000
0000
0000
0000
,
0000
0000
0000
0000
,
0000
0000
0000
0000
,
0000
0000
0000
0000
,
0000
0000
0000
0000
,
0000
0000
0000
0000
,
0000
0000
0000
0000
,
0000
0000
0000
0000
,
0000
0000
0000
0000
,
0000
0000
0002
0023
,
0230
0000
0000
0000
1000
0000
0000
0000
0310
0000
0001
1000
0001
0000
0100
0000
,
0020
0000
1030
0000
0001
0000
1000
0000
0200
0000
0310
0100
0010
0000
0001
0000
,
1000
0000
0010
0100
0001
0000
1000
0001
2000
0000
3010
0000
0100
0000
0001
0000
,
0020
0000
0000
0000
1000
0000
0000
0000
0100
0000
0031
1000
0001
0000
0010
0000
,
0100
0000
1000
0000
0001
0000
1000
0000
0010
0000
0100
0010
0100
0000
0001
0000
,
1000
0000
0010
0100
0001
0000
1000
0001
0020
0000
0130
0000
2000
0000
3001
0000
,
0200
0000
0000
0000
1000
0000
0000
0000
0310
0000
1000
0001
1000
0000
0010
0000
,
0200
0000
0301
0000
1000
0000
0001
0000
0020
0000
0130
0010
0100
0000
1000
0000
,
0001
0000
0100
0001
1000
0000
0010
0100
0002
0000
1003
0000
0001
0000
0100
0000
,
0020
0000
0000
0000
0001
0000
0000
0000
0100
0000
1030
0001
1000
0000
0100
0000
,
0010
0000
0001
0000
1000
0000
0001
0000
0100
0000
0010
1000
0010
0000
0100
0000
,
0001
0000
1000
0100
1000
0000
0001
0010
0002
0000
1003
0000
0200
0000
0310
0000
,
0002
0000
0000
0000
1000
0000
0000
0000
0103
0000
0010
1000
0010
0000
0100
0000
,
0001
0000
1000
0000
0100
0000
0010
0000
0002
0000
1003
0001
1000
0000
0010
0000
,
0100
0000
0001
0100
0001
1000
0100
0010
0001
0010
0100
1000
0001
0100
0010
1000
,
0020
0000
1030
0001
0010
1000
0001
0100
,
0010
0000
0001
0000
1000
0000
0010
0000
0100
0000
0001
0100
0001
0000
1000
0000
,
0100
0000
0010
0000
0001
0000
1000
0010
2000
0000
3000
1000
0002
0000
0000
0000
,
0023
0000
0130
1000
0001
0100
1000
0001
,
0010
0000
1000
0001
1000
0000
0100
0000
0010
0000
0001
1000
0001
0000
0100
0000
,
0010
0000
1000
0000
0100
0000
0010
0001
0010
0000
0000
0100
2000
0000
0000
0000
,
3001
0100
0010
0100
1000
0100
0001
1000
,
0100
0000
0010
0001
1000
0000
0010
0000
0100
0000
0001
0100
0001
0000
1000
0100
,
0010
0001
1000
0000
0010
0000
0100
0000
0001
0000
1000
0000
0100
0000
0010
0000
,
0001
0000
0000
0000
1000
0000
0000
0000
0010
0000
0100
0010
0100
0000
0001
0000
,
1000
0000
0100
0000
0010
0000
0001
0000
1000
0000
0001
1000
0001
0000
0010
0000
,
0100
0000
1000
0001
2000
0000
3000
1000
0200
0000
0300
0100
0020
0000
0000
0000
,
0032
0000
0000
0000
1003
0000
0001
0000
0100
0000
0010
0100
0020
0000
1030
0000
,
0100
0010
0001
1000
0020
0000
0001
0000
,
1000
0230
1000
0301
,
2000
0000
0000
3200
,
0000
0000
0320
0000
,
0000
0032
0000
1003
,
1002
0203
0320
2030
,
0000
3100
2000
3200
,
0320
0032
0000
0103
,
0020
0000
1030
0002
,
0000
0013
0220
0000
,
0000
0330
1000
0001
,
2000
3020
0230
0302
,
0000
0013
0002
0023
,
0230
2300
0000
3010
,
0200
0000
0301
2000
,
0000
3100
0120
0032
,
2003
0000
0000
0000
0000
0000
0000
0000
0000
0000
0000
0000
3020
0000
0000
0000
0000
0000
0000
0000
0000
0000
0000
0000
0130
0000
0000
0000
0000
0000
0001
0000
1000
0000
0001
0000
1000
0000
0000
0100
0000
0000
0010
0000
0000
0001
0000
0000
,
2000
0000
0000
0000
3200
0000
0000
0000
0320
0000
0000
0030
0012
0000
0000
0000
,
1003
0010
0100
0001
0002
0000
0023
0000
,
0230
0000
0000
0300
2100
0000
0000
0000
3001
0000
0100
0000
0010
0000
1000
0000
,
2000
3002
0023
0230
,
2300
0000
3001
1000
0020
0000
0130
0001
,
1000
0100
0010
0100
1000
0100
0010
0001
,
1000
0000
0010
0000
0100
0000
0001
0000
1000
0000
0100
0010
0200
0000
1300
0000
,
0001
0000
0100
0000
0010
0000
1000
0000
0001
0000
0010
0100
0010
0000
0001
0000
,
1000
0000
0010
0100
0001
0000
1000
0001
1000
0000
0100
0000
0010
0000
0001
0000
,
2002
0000
0000
0003
,
3200
0000
0320
0000
0002
0000
0000
0030
,
0000
0000
0000
0000
0000
0000
0000
0000
1003
0000
0000
0000
0000
0000
0000
0000
0000
0000
0000
0000
0000
0000
0000
0000
0002
0000
0000
0000
0000
0000
0000
0000
0000
0000
0000
0000
0203
0000
0000
0000
0000
0000
0000
0000
0000
0300
0000
0000
,
1010
1000
0001
0010
0100
0010
0011
0000
,
1000
0000
0001
0000
0100
0000
0010
0000
0100
0000
0001
1000
0001
0010
0100
0000
,
1000
0000
0010
0000
1010
0000
0000
0001
0010
0000
0001
0000
1000
0000
0100
1000
,
0001
0100
0001
1000
0001
0000
1100
0100
,
1000
0000
0001
1000
0001
0000
0100
0000
0010
0000
1000
0001
1000
0100
0010
0000
,
0001
0000
0100
0000
0101
0000
0001
0000
1000
0000
0100
0010
0001
0010
0100
1000
,
0001
1000
0001
0100
0010
0100
0101
0000
,
1000
0000
0001
0000
0010
0000
0100
0000
0010
0000
0001
1000
0001
0100
0010
0000
,
1000
0000
0100
0000
1100
0000
0000
0001
0100
0000
0001
0000
1000
0010
1000
0010
,
0100
0000
0010
0100
0000
0001
0000
1000
0100
0000
0000
0000
0011
0000
0010
0001
,
0000
0000
1000
0000
0001
1000
0010
0100
0010
0000
1000
0000
0001
0000
0010
0000
,
0100
0000
1000
0001
2000
0000
3001
1000
0001
0000
0400
0000
0301
0100
0010
1000
,
0001
0000
0010
0000
0100
0000
1000
0001
1000
0000
0010
0000
1010
0000
0000
0000
,
0001
0100
0010
1000
0110
0010
1000
1001
,
0001
0000
0010
0000
0110
0000
0100
1000
0100
1000
0001
0100
0001
0100
0010
1000
,
0002
0010
1003
2001
,
3010
0000
0100
0000
0001
0000
1000
0000
1200
0000
0000
0000
0310
0001
0000
0000
,
0001
0000
1000
0000
0020
0000
0130
0000
0002
0000
1003
0000
0200
0000
0310
0001
,
2000
0000
0000
0000
3010
0100
0000
0000
0001
0000
0000
0000
1002
0000
0000
0000
,
0013
0000
0100
0000
1000
0000
0001
0000
0200
0000
0310
1000
0001
0000
0000
0000
,
1000
0001
0020
0130
2000
3001
0200
0310
,
2010
0000
3001
0010
0100
0010
0012
0000
,
1003
0000
0010
0000
0100
0001
0100
0001
1000
0000
0100
1000
0001
0000
0100
0000
,
0010
0000
1000
0001
0010
0001
1000
0010
0000
0000
0100
0001
1000
0001
0000
0000
,
0020
0000
0000
0001
,
0000
0000
0001
0000
,
0000
0230
2300
3002
,
0203
0000
0000
0010
0000
0000
1000
0000
,
0000
0000
0320
0000
,
0000
2030
3002
0023
,
0230
0000
0000
0001
0000
0000
0010
0000
,
0000
0000
2300
0000
,
0000
3002
0203
0320
,
2030
0000
0000
0000
0000
0000
3100
0000
0000
0000
0000
0000
0000
0000
0000
0000
0000
0000
0010
0000
0000
0000
0000
0000
0000
0000
0000
0000
0000
0000
0001
0000
0000
0000
0000
0000
0000
0000
0000
0000
0000
1000
0000
0000
0000
0000
0000
0000
,
0000
0000
0000
0000
0000
0010
0000
0000
0000
0000
0000
0000
0000
0000
0000
0000
0100
0000
0000
0000
0000
0000
0000
0000
0000
0000
0000
0001
0000
0000
0000
0000
0000
0000
0000
0000
0000
0000
0000
1000
0000
0000
0000
0000
0000
0000
0000
0000
,
0100
0020
0000
0000
0000
0000
0000
0000
,
0000
0030
0000
0000
0000
0000
0000
0000
;

//--------------- dance-single - TiKAL ----------------
#NOTES:
     dance-single:
     TiKAL:
     Edit:
     13:
     0.766302,1.237285,0.085598,0.713313,0.802477,752,740,12,100,0,0,0.766302,1.237285,0.085598,0.713313,0.802477,752,740,12,100,0,0:
0000
0000
0000
0000
,
0000
0000
0000
0000
,
0000
0000
0000
0000
,
0000
0000
0000
0000
,
0000
0000
0000
0000
,
0000
0000
0000
0000
,
0000
0000
0000
0000
,
0000
0000
0000
0000
,
0000
0000
0000
0000
,
0000
0000
0000
0000
,
0000
0000
0000
0000
,
0000
0000
0002
0023
,
0230
0000
0000
0000
1000
0000
0000
0000
0310
0000
0001
1000
0001
0000
0100
0000
,
0020
0000
1030
0000
0001
0000
1000
0000
0200
0000
0310
0100
0010
0000
0001
0000
,
1000
0000
0010
0100
0001
0000
1000
0001
2000
0000
3010
0000
0100
0000
0001
0000
,
0020
0000
0000
0000
1000
0000
0000
0000
0100
0000
0031
1000
0001
0000
0010
0000
,
0100
0000
1000
0000
0001
0000
1000
0000
0010
0000
0100
0010
0100
0000
0001
0000
,
1000
0000
0010
0100
0001
0000
1000
0001
0020
0000
0130
0000
2000
0000
3001
0000
,
0200
0000
0000
0000
1000
0000
0000
0000
0310
0000
1000
0001
1000
0000
0010
0000
,
0200
0000
0301
0000
1000
0000
0001
0000
0020
0000
0130
0010
0100
0000
1000
0000
,
0001
0000
0100
0001
1000
0000
0010
0100
0002
0000
1003
0000
0001
0000
0100
0000
,
0020
0000
0000
0000
0001
0000
0000
0000
0100
0000
1030
0001
1000
0000
0100
0000
,
0010
0000
0001
0000
1000
0000
0001
0000
0100
0000
0010
1000
0010
0000
0100
0000
,
0001
0000
1000
0100
1000
0000
0001
0010
0002
0000
1003
0000
0200
0000
0310
0000
,
0002
0000
0000
0000
1000
0000
0000
0000
0103
0000
0010
1000
0010
0000
0100
0000
,
0001
0000
1000
0000
0100
0000
0010
0000
0002
0000
1003
0001
1000
0000
0010
0000
,
0100
0000
0001
0100
0001
1000
0100
0010
0001
0010
0100
1000
0001
0100
0010
1000
,
0020
0000
1030
0001
0010
1000
0001
0100
,
0010
0000
0001
0000
1000
0000
0010
0000
0100
0000
0001
0100
0001
0000
1000
0000
,
0100
0000
0010
0000
0001
0000
1000
0010
2000
0000
3000
1000
0002
0000
0000
0000
,
0023
0000
0130
1000
0001
0100
1000
0001
,
0010
0000
1000
0001
1000
0000
0100
0000
0010
0000
0001
1000
0001
0000
0100
0000
,
0010
0000
1000
0000
0100
0000
0010
0001
0010
0000
0000
0100
2000
0000
0000
0000
,
3001
0100
0010
0100
1000
0100
0001
1000
,
0100
0000
0010
0001
1000
0000
0010
0000
0100
0000
0001
0100
0001
0000
1000
0100
,
0010
0001
1000
0000
0010
0000
0100
0000
0001
0000
1000
0000
0100
0000
0010
0000
,
0001
0000
0000
0000
1000
0000
0000
0000
0010
0000
0100
0010
0100
0000
0001
0000
,
1000
0000
0100
0000
0010
0000
0001
0000
1000
0000
0001
1000
0001
0000
0010
0000
,
0100
0000
1000
0001
2000
0000
3000
1000
0200
0000
0300
0100
0020
0000
0000
0000
,
0032
0000
0000
0000
1003
0000
0001
0000
0100
0000
0010
0100
0020
0000
1030
0000
,
0100
0010
0001
1000
0020
0000
0001
0000
,
1000
0230
1000
0301
,
2000
0000
0000
3200
,
0000
0000
0320
0000
,
0000
0032
0000
1003
,
1002
0203
0320
2030
,
0000
3100
2000
3200
,
0320
0032
0000
0103
,
0020
0000
1030
0002
,
0000
0013
0220
0000
,
0000
0330
1000
0001
,
2000
3020
0230
0302
,
0000
0013
0002
0023
,
0230
2300
0000
3010
,
0200
0000
0301
2000
,
0000
3100
0120
0032
,
2003
0000
0000
0000
0000
0000
0000
0000
0000
0000
0000
0000
3020
0000
0000
0000
0000
0000
0000
0000
0000
0000
0000
0000
0130
0000
0000
0000
0000
0000
0001
0000
1000
0000
0001
0000
1000
0000
0000
0100
0000
0000
0010
0000
0000
0002
0000
0000
,
2000
0000
0000
3003
0000
0000
0000
0000
0000
0000
0000
0000
0001
0000
0000
0000
0100
0000
0000
0000
0001
0000
0000
0000
1000
0000
0000
0000
0100
0000
0000
0000
0010
0000
0000
0000
0100
0000
0000
0000
1000
0000
0000
0000
0001
0000
0000
0000
,
0010
0100
1000
0001
0100
0010
1000
0001
0010
0001
1000
0010
,
0100
0001
1000
0100
0010
0100
0010
0001
1000
0010
0100
0010
,
0100
0001
1000
0100
1000
0001
0010
0001
1000
0010
0100
0001
,
1000
0100
0010
0001
1000
0001
0100
0010
1000
0001
0010
0100
,
1000
0100
0010
0001
1000
0010
1000
0001
0010
0100
1000
0001
,
0100
0000
0010
0000
0100
0000
0001
0000
1000
0000
0100
0010
0200
0000
1300
0000
,
0001
0000
0100
0000
0010
0000
1000
0000
0001
0000
0010
0100
0010
0000
0001
0000
,
1000
0000
0010
0100
0001
0000
1000
0001
1000
0000
0100
0000
0010
0000
0001
0000
,
2002
0000
0000
0003
,
3200
0000
0320
0000
0002
0000
0000
0030
,
0000
0000
1003
0000
0000
0000
0002
0000
0000
0203
0000
0000
,
0310
1000
0001
0010
0100
1000
0100
0010
0001
1000
0010
0100
0010
0100
0001
1000
,
0100
0010
0100
1000
0001
1000
0001
0100
0010
0100
0001
1000
0100
0010
0100
1000
,
0001
0100
0010
0100
0001
1000
0100
0010
0001
1000
0010
0100
0001
1000
0010
0100
,
0010
1000
0001
0010
0100
1000
0001
0010
0100
0010
0001
1000
0010
0100
0001
1000
,
0001
1000
0100
1000
0001
0010
0100
0010
0001
1000
0010
0100
0001
0100
0010
1000
,
0001
0010
0100
1000
0100
1000
0001
0100
0001
1000
0001
0010
0100
1000
0100
0010
,
0100
1000
0001
0100
0010
0100
0001
0100
0010
1000
0001
0010
0001
0010
0100
1000
,
0100
1000
0001
0100
0001
0100
0010
1000
0010
0100
0001
1000
0100
0010
0100
1000
,
0001
0100
0010
0100
0001
1000
0010
1000
0001
0010
0001
1000
0100
0010
0001
1000
,
0010
0100
0001
0100
0001
1000
0100
1000
0001
0100
0010
1000
0001
0010
0100
1000
,
0001
0010
0001
1000
0010
0100
0001
0100
0010
1000
0001
0100
0001
1000
0100
0010
,
0100
1000
0001
1000
0010
0100
0001
1000
0100
0010
0004
0000
1003
0001
1000
0001
,
1000
0100
0010
0100
1000
0001
0100
0001
1000
0001
0010
0100
0010
0001
1000
0010
,
0100
0010
0100
0001
1000
0001
0100
0000
0110
0000
0010
0000
1000
0000
1001
0000
,
0001
0000
0010
0000
0110
0000
0100
1000
0100
1000
0001
0100
0001
0100
0010
1000
,
0002
0010
1003
2001
,
3010
0000
0100
0000
0001
0000
1000
0000
1200
0000
0000
0000
0310
0001
0000
0000
,
0001
0000
1000
0000
0020
0000
0130
0000
0002
0000
1003
0000
0200
0000
0310
0001
,
2000
0000
0000
0000
3010
0100
0000
0000
0001
0000
0000
0000
1002
0000
0000
0000
,
0013
0000
0100
0000
1000
0000
0001
0000
0200
0000
0310
1000
0001
0000
0000
0000
,
1000
0001
0020
0130
2000
3001
0200
0310
,
2010
0000
3001
0010
0100
0010
0012
0000
,
1003
0000
0010
0000
0100
0001
0100
0001
1000
0000
0100
1000
0001
0000
0100
0000
,
0010
0000
1000
0001
0010
0001
1000
0010
0000
0000
0100
0001
1000
0001
0000
0000
,
0020
0000
0000
0001
,
0000
0000
0001
0000
,
0000
0230
2300
3002
,
0203
0000
0000
0010
0000
0000
1000
0000
,
0000
0000
0320
0000
,
0000
2030
3002
0023
,
0230
0000
0000
0001
0000
0000
0010
0000
,
0000
0000
2300
0000
,
0000
3002
0203
0320
,
2030
0000
0000
0000
0000
0000
3100
0000
0000
0000
0000
0000
0000
0000
0000
0000
0000
0000
0010
0000
0000
0000
0000
0000
0000
0000
0000
0000
0000
0000
0001
0000
0000
0000
0000
0000
0000
0000
0000
0000
0000
1000
0000
0000
0000
0000
0000
0000
,
0000
0000
0000
0000
0000
0010
0000
0000
0000
0000
0000
0000
0000
0000
0000
0000
0100
0000
0000
0000
0000
0000
0000
0000
0000
0000
0000
0001
0000
0000
0000
0000
0000
0000
0000
0000
0000
0000
0000
1000
0000
0000
0000
0000
0000
0000
0000
0000
,
0100
0020
0000
0000
0000
0000
0000
0000
,
0000
0030
0000
0000
0000
0000
0000
0000
;
