#VERSION:0.83;
#TITLE:妖艶魔女;
#SUBTITLE:-trappola bewitching-;
#ARTIST:gmtn;
#TITLETRANSLIT:Youen Majo;
#SUBTITLETRANSLIT:;
#ARTISTTRANSLIT:;
#GENRE:;
#ORIGIN:;
#CREDIT:caramelangel714;
#BANNER:Youen Majo -trappola bewitching-.png;
#BACKGROUND:Youen Majo -trappola bewitching--bg.png;
#PREVIEWVID:;
#JACKET:Youen Majo -trappola bewitching--jacket.png;
#CDIMAGE:;
#DISCIMAGE:;
#LYRICSPATH:;
#CDTITLE:;
#MUSIC:Youen Majo -trappola bewitching-.mp3;
#OFFSET:-2.700000;
#SAMPLESTART:36.779980;
#SAMPLELENGTH:12.000000;
#SELECTABLE:YES;
#BPMS:0.000=190.000,
40.000=95.000,
42.000=190.000,
200.000=95.000,
232.000=190.000;
#STOPS:48.500=0.300,
63.500=0.310;
#DELAYS:;
#WARPS:;
#TIMESIGNATURES:0.000=4=4;
#TICKCOUNTS:0.000=4;
#COMBOS:0.000=1;
#SPEEDS:0.000=1.000=0.000=0;
#SCROLLS:0.000=1.000;
#FAKES:;
#LABELS:0.000=Song Start;
#BGCHANGES:;
#KEYSOUNDS:;
#ATTACKS:
;

//---------------dance-single - ----------------
#NOTEDATA:;
#CHARTNAME:;
#STEPSTYPE:dance-single;
#DESCRIPTION:;
#CHARTSTYLE:;
#DIFFICULTY:Challenge;
#METER:13;
#RADARVALUES:0.850779,1.021381,0.499758,0.533076,0.378983,715.000000,655.000000,60.000000,64.000000,0.000000,0.000000,0.000000,0.000000,0.000000,0.850779,1.021381,0.499758,0.533076,0.378983,715.000000,655.000000,60.000000,64.000000,0.000000,0.000000,0.000000,0.000000,0.000000;
#CREDIT:;
#NOTES:
1001
0000
0000
1001
0000
0000
1000
0010
,
0100
0010
0100
0010
0100
0010
0100
0010
0100
0000
0000
0100
0000
0000
0100
0000
,
2000
3002
2003
3002
,
2003
3002
2003
3002
,
0203
0320
0230
0320
,
0230
0320
0230
0320
,
2030
3002
2003
3002
,
2003
3002
2003
3002
,
0203
0320
0230
0320
,
0030
1000
0010
0000
0100
0010
0100
0001
,
0120
0000
0000
1030
0100
0010
0100
0001
,
1000
0010
1000
0000
0001
0000
0100
0000
0010
0000
1000
0000
0010
0000
0100
0000
,
0001
0100
0001
0000
1000
0000
0010
0000
0100
0000
0010
0000
0001
1000
0001
0000
,
0100
0000
0010
0000
1000
0000
0010
0000
0100
0000
0010
0000
0001
0100
0001
0000
,
0010
0000
0010
0000
1000
0000
0010
0000
0100
0000
0001
0000
1000
0010
1000
0000
,
0001
0000
0100
0000
0010
0000
0100
0000
1000
0000
0010
0000
0100
0010
0100
0000
,
1000
1000
0010
0010
0100
0100
0010
0010
,
1000
0001
1000
0001
1000
0001
1000
0001
1000
0001
1000
0001
1000
0000
0000
0000
,
1001
0000
0000
1010
0000
0000
1100
0000
1000
0000
0100
0000
0010
0000
0001
0000
,
0101
0000
0000
0110
0000
0000
1001
0000
1000
0000
0010
0000
0100
0000
0001
0000
,
0110
0000
0000
1010
0000
0000
1100
0000
0100
0000
0010
0000
0100
0000
0001
0000
,
0100
0100
0001
0010
0200
0000
1300
0000
,
1010
0000
0000
1100
0000
0000
1001
0000
0010
0000
0100
0000
0010
0000
1000
0000
,
1010
0000
0000
1001
0000
0000
0011
0000
0001
0000
0100
0000
0010
0000
0001
0000
,
1010
0000
0000
1100
0000
0000
1001
0000
0100
0000
0010
0000
1000
0000
0100
0000
,
0010
0001
0100
0010
0002
0003
1100
0000
,
2001
0000
3010
0100
0010
0001
0100
0010
,
1000
0000
0100
0010
0100
0000
0001
0000
0010
0000
1000
0000
0010
0000
1000
0000
,
0102
0000
0013
0001
0010
1000
0100
0010
,
1000
0010
0100
0000
0001
0010
1000
0000
0002
0000
0000
0000
1003
0000
0000
0000
,
0120
0000
1030
0001
0100
0010
1000
0010
,
0100
0000
0001
0010
0001
0000
1000
0000
0100
0000
1000
0000
0100
0000
1000
0000
,
0201
0000
0310
1000
0100
1000
0010
0100
,
0001
0000
0010
0000
0100
0000
1000
0000
0001
0100
0001
0100
0001
0010
0001
0010
,
0001
1000
0010
0100
0001
0010
0001
0010
,
1000
0100
1000
0001
0100
0010
1000
0010
,
0100
0001
0100
1000
0010
0100
0001
0100
,
1000
0010
0100
0001
0100
0010
0010
0010
,
0100
1000
0001
0100
0001
0010
0100
0001
,
0010
0100
0001
1000
0010
0100
0001
1000
,
0001
0010
0100
0001
1000
0010
0100
0001
,
1000
0000
0010
0000
0100
0000
1000
0000
0010
0001
0010
0001
0010
0001
0010
0001
,
0010
1000
0100
0001
0100
0010
0100
1000
,
0010
1000
0010
0100
0002
0100
0013
0000
,
1000
0001
0100
0010
1000
0001
0100
0010
,
0100
0001
0100
1000
0020
0130
2000
3010
,
0100
0001
0100
0010
0100
1000
0010
0100
,
0001
0100
0010
0100
0020
0100
1030
0000
,
0101
0001
1000
0010
0100
1000
0001
0100
,
0010
0010
0100
0100
1000
1000
0001
0001
,
1001
0000
0200
0000
0310
0000
0002
0000
1003
0000
1000
0010
0100
0000
0001
0010
,
1100
0002
0103
0020
1030
0110
1001
1010
,
1100
0000
0002
0000
1003
0000
2000
0000
3010
0000
0100
0001
0010
0000
0100
0010
,
0101
0000
0020
0000
1030
0000
0100
0000
1000
0010
1000
0010
0100
0010
0100
0010
,
0101
0000
0001
0010
1000
0000
1000
0000
0000
0001
0000
0010
0100
1000
0100
0010
,
0001
0000
1000
0010
1000
0000
0101
0000
0001
0100
0001
0010
0001
1000
0010
1000
,
0110
0000
0001
0100
0001
0000
1010
0000
0000
0001
0000
1000
0010
0100
0010
0001
,
1010
0000
1000
0010
1000
0000
1100
0000
0002
0000
1003
0000
2000
0000
3001
0000
,
0110
0000
0000
1010
0000
0000
1100
0000
0010
0000
0100
0000
0001
0000
0100
0000
,
0011
0000
0000
1001
0000
0000
1010
0000
0100
0000
0010
0000
1000
0000
0010
0000
,
0101
0000
0000
0110
0000
0000
1010
0000
1000
0000
0010
0000
0100
0000
0010
0000
,
1000
0010
1000
0000
0100
0010
0100
0000
0002
0000
0010
0000
0103
0000
0000
0000
,
0120
0000
1030
0001
0100
0010
1000
0010
,
0100
0000
0001
0010
0001
0000
1000
0000
0100
0000
1000
0000
0100
0000
1000
0000
,
0201
0000
0310
1000
0100
1000
0010
0100
,
0001
0000
0010
0000
0100
0000
1000
0000
0001
0100
0001
0100
0001
0010
0001
0010
,
0002
0000
1003
0100
0020
0000
2030
0000
,
3001
0010
0100
0010
2000
0000
3100
0010
,
0001
0000
0000
1000
0010
0000
0100
0000
0001
0000
0010
0000
0100
0000
0001
0000
,
0010
0000
0000
0100
0010
0000
0001
0000
2000
0000
0100
0000
3010
0000
0000
0000
,
0101
0001
0010
0100
1010
1000
0100
0010
,
0101
0001
0010
0100
1010
1000
0100
0010
,
0100
0001
0100
0000
0010
1000
0010
0000
0100
0010
0100
0000
0001
0100
0001
0000
,
1010
0000
0000
1000
0001
0000
0100
0010
0100
0000
0010
1000
0010
0000
1000
0000
,
0100
0000
0010
0000
1002
0000
0000
0000
1003
0000
0100
0001
0100
0000
0100
0000
,
0010
1000
0010
0000
0100
0001
0100
0000
0020
0000
0100
0000
1030
0000
0000
0000
,
0100
0001
0100
0000
0002
0000
0000
0000
1003
0000
0010
0100
0010
0000
0100
0000
,
0001
0100
0001
0000
0010
1000
0010
0000
2000
0000
3100
0000
0020
0000
0031
0000
,
0120
0000
0000
0000
1030
0000
0000
0000
0100
0001
0100
0000
0010
0100
0010
0000
,
1000
0100
1000
0000
0010
0001
0010
0000
0200
0000
0010
0000
0301
0000
0000
0000
,
1000
0000
0100
0000
0001
0010
0100
0000
0001
0000
0100
0000
0010
0100
0010
0000
,
1000
0100
0001
0100
0101
0000
1010
0000
;

//---------------dance-single - ----------------
#NOTEDATA:;
#CHARTNAME:;
#STEPSTYPE:dance-single;
#DESCRIPTION:;
#CHARTSTYLE:;
#DIFFICULTY:Beginner;
#METER:4;
#RADARVALUES:0.278437,0.306414,0.083293,0.024988,0.000000,234.000000,224.000000,10.000000,3.000000,0.000000,0.000000,0.000000,0.000000,0.000000,0.278437,0.306414,0.083293,0.024988,0.000000,234.000000,224.000000,10.000000,3.000000,0.000000,0.000000,0.000000,0.000000,0.000000;
#CREDIT:;
#NOTES:
// measure 0
0000
0000
0000
0000
,  // measure 1
0000
0000
0000
0000
,  // measure 2
1000
0010
1000
0000
,  // measure 3
0100
0001
0100
0000
,  // measure 4
0010
0100
0010
0000
,  // measure 5
1000
0010
1000
0000
,  // measure 6
0100
0001
0100
0000
,  // measure 7
0010
0100
0010
0000
,  // measure 8
1000
0010
1000
0000
,  // measure 9
0100
0010
0100
0000
,  // measure 10
0002
0000
0000
1003
1000
0000
0010
0000
,  // measure 11
1000
0100
1000
0100
,  // measure 12
0001
0001
1000
0010
,  // measure 13
0100
0001
0100
0001
,  // measure 14
0001
1000
0010
1000
,  // measure 15
0100
0010
0100
0001
,  // measure 16
0001
1000
0010
0100
,  // measure 17
0010
1000
0100
0010
,  // measure 18
1000
0000
1000
0000
,  // measure 19
0010
0000
0010
0000
,  // measure 20
0100
0000
0100
0000
,  // measure 21
0001
0000
0001
0000
,  // measure 22
0100
0000
0010
0000
,  // measure 23
0100
0000
0010
0000
,  // measure 24
1000
0000
0010
0000
,  // measure 25
1000
0000
0010
0000
,  // measure 26
1001
0000
0001
1000
,  // measure 27
0000
1000
0000
0010
,  // measure 28
0100
0000
0100
0001
,  // measure 29
0100
0010
0100
0000
,  // measure 30
0110
0000
1000
0010
,  // measure 31
0000
0100
0000
0100
,  // measure 32
0001
0000
1000
0010
,  // measure 33
0100
0010
0100
0000
,  // measure 34
1001
0000
1000
0010
,  // measure 35
0000
0100
0000
0100
,  // measure 36
0001
0000
0001
0010
,  // measure 37
1000
0010
1000
0000
,  // measure 38
0110
0000
1000
0010
,  // measure 39
0000
0100
0000
0100
,  // measure 40
1000
0000
0010
0100
,  // measure 41
0001
0100
0010
0100
,  // measure 42
0001
0000
0001
0000
,  // measure 43
0001
0000
1000
1000
,  // measure 44
0100
0000
0100
0000
,  // measure 45
0100
0000
0010
0010
,  // measure 46
0001
0000
0001
0000
,  // measure 47
0001
0000
1000
1000
,  // measure 48
0100
0000
0100
0000
,  // measure 49
0020
0030
0200
0300
,  // measure 50
0000
0001
0000
1000
,  // measure 51
0000
0001
0000
1000
,  // measure 52
0000
0100
0000
0010
,  // measure 53
0000
0100
0000
0010
,  // measure 54
0100
0010
0000
0100
,  // measure 55
0100
0010
0000
0100
,  // measure 56
1000
1000
0000
0001
,  // measure 57
0010
1000
0000
0001
,  // measure 58
0100
0000
0100
0001
,  // measure 59
0010
0000
1000
0010
,  // measure 60
0100
0000
0100
0001
,  // measure 61
0010
1000
0010
0000
,  // measure 62
1001
0000
1000
0100
,  // measure 63
0000
0010
0000
0100
,  // measure 64
0001
0000
1000
0010
,  // measure 65
0100
0010
1000
0001
,  // measure 66
0010
0100
0010
0000
,  // measure 67
1000
0010
1000
0000
,  // measure 68
0100
0001
0100
0000
,  // measure 69
0010
0100
0010
0100
,  // measure 70
0001
0100
0001
0000
,  // measure 71
1000
0010
1000
0000
,  // measure 72
0100
0001
0100
0000
,  // measure 73
0010
0100
0010
0100
,  // measure 74
0010
0000
0110
0000
,  // measure 75
0100
0000
0100
0000
,  // measure 76
1000
0000
1001
0000
,  // measure 77
0001
0000
0001
0000
,  // measure 78
0010
0000
0110
0000
,  // measure 79
0100
0000
0100
0000
,  // measure 80
0001
0000
1001
0000
,  // measure 81
1000
0010
0100
0110
;

//---------------dance-single - ----------------
#NOTEDATA:;
#CHARTNAME:;
#STEPSTYPE:dance-single;
#DESCRIPTION:;
#CHARTSTYLE:;
#DIFFICULTY:Easy;
#METER:6;
#RADARVALUES:0.464061,0.544737,0.599710,0.233221,0.000000,390.000000,318.000000,72.000000,28.000000,0.000000,0.000000,0.000000,0.000000,0.000000,0.464061,0.544737,0.599710,0.233221,0.000000,390.000000,318.000000,72.000000,28.000000,0.000000,0.000000,0.000000,0.000000,0.000000;
#CREDIT:;
#NOTES:
0000
0000
0000
0000
,
0000
0000
0000
0000
,
1000
0001
1000
0001
,
1000
0001
1000
0001
,
0100
0010
0100
0010
,
0100
0010
0100
0010
,
1000
0001
1000
0001
,
1000
0001
1000
0001
,
0100
0010
0100
0010
,
0100
0000
0100
0010
,
1002
0000
0013
0100
,
0010
0100
1000
0010
,
0100
0010
0001
0000
0010
0000
0100
0000
,
0010
0001
0100
0010
,
0100
0010
1000
0100
,
1000
0000
0001
0000
0100
0000
0010
1000
,
0110
0110
1001
1001
,
1000
0010
0100
0000
0001
0100
0010
0000
,
0110
1010
0100
0010
,
0101
0110
0010
0010
,
1001
1001
1000
0100
,
0010
0001
2000
3000
,
0011
0110
1000
0010
,
0101
0110
0100
0010
,
0110
0110
1000
0100
,
0010
0001
0001
0000
,
0120
0000
1030
0010
,
1000
0001
0100
0010
,
0201
0000
0310
1000
,
1000
0010
0200
0300
,
1020
0000
0130
0010
,
0001
1000
0010
1000
,
0102
0000
0013
0100
,
0010
1000
0010
1000
,
2100
0000
3001
0001
,
0110
0110
1010
1010
,
0201
0000
0310
0100
,
1010
0110
0102
0003
,
2010
0000
3100
0010
,
0101
0101
0110
0110
,
0210
0000
0301
0010
,
1000
0000
0010
0000
0100
0001
0100
0000
,
0100
0010
0100
0010
,
1000
0100
0011
0011
,
1000
0010
1000
0010
,
0100
0001
0020
1030
,
0100
0001
0100
0001
,
0010
0100
1010
1010
,
0100
0001
0100
0001
,
0100
0100
0010
0010
,
1000
1000
0001
0001
,
0100
0000
0100
0000
0010
0000
0010
0100
,
1000
1000
0001
0001
,
0100
0100
0110
0110
,
0001
0100
0001
0000
1000
0010
1000
0000
,
0100
0010
0100
0000
0001
0010
0100
1000
,
0001
0100
0001
0000
0010
0100
0010
0000
,
1000
0010
1000
0000
0100
0100
0010
0010
,
0011
0011
1000
0010
,
0110
0110
1000
0010
,
1100
1100
0001
0100
,
0010
0100
0002
1003
,
0120
0000
1030
0100
,
0001
0100
0001
0101
,
2010
0000
3001
0100
,
0010
0100
0001
0100
,
0020
1030
0200
0301
,
0110
1001
1010
0101
,
0010
0100
0001
0100
,
0010
0000
0100
0000
1000
0001
1000
0000
,
0002
0103
0020
1030
,
0101
0110
1010
1100
,
0001
0100
0010
1000
,
0010
0000
0100
0000
0010
0100
0010
0000
,
1001
0110
2020
3030
,
0100
0001
0100
0001
,
0110
0101
0022
0033
,
1000
0100
1000
0100
,
0110
1010
2002
3003
,
0100
0001
0100
0001
,
0110
1010
0202
0303
,
0010
0100
0010
0110
;

//---------------dance-single - ----------------
#NOTEDATA:;
#CHARTNAME:;
#STEPSTYPE:dance-single;
#DESCRIPTION:;
#CHARTSTYLE:;
#DIFFICULTY:Medium;
#METER:9;
#RADARVALUES:0.560443,0.714967,0.349831,0.166586,0.058305,471.000000,429.000000,42.000000,20.000000,0.000000,0.000000,0.000000,0.000000,0.000000,0.560443,0.714967,0.349831,0.166586,0.058305,471.000000,429.000000,42.000000,20.000000,0.000000,0.000000,0.000000,0.000000,0.000000;
#CREDIT:;
#NOTES:
0010
0000
0000
0001
0000
0000
0100
0000
,
2010
0000
3010
0010
,
1000
0100
0010
0001
,
1000
0100
0010
0001
,
0001
0010
0100
1000
,
0001
0010
0100
1000
,
1000
0100
0010
0001
,
1000
0100
0010
0001
,
0001
0010
0100
1000
,
0200
0000
0310
0000
1000
0100
1000
0100
,
0020
0000
0000
1000
1030
0000
0001
0000
,
1000
0010
0100
0000
0100
0000
0001
0000
,
0010
1000
0100
0000
0001
0000
0010
1000
,
0010
0000
0010
0000
0100
0000
0100
0010
,
0100
0010
1000
0000
1000
0000
0010
1000
,
0010
0000
0100
0000
0001
0000
0100
0010
,
1000
0010
0100
0000
0010
0001
0100
0000
,
0001
1000
0001
0000
0100
0010
0100
0000
,
1000
0000
0000
1000
0000
0000
1000
0000
0010
0000
0001
0000
1000
0000
0000
0000
,
0001
0000
0000
0001
0000
0000
0001
0000
0010
0000
0100
0000
0001
0000
0100
0000
,
0010
0000
0000
0010
0000
0000
0010
0000
0100
0000
0001
0000
0100
0000
0000
0000
,
0010
0100
0001
0000
2000
0000
3001
0000
,
0100
0000
0000
0100
0000
0000
0100
0000
0010
0000
0001
0000
0010
0000
0000
0000
,
0001
0000
0000
0001
0000
0000
0001
0000
1000
0000
0010
0000
1000
0000
0000
0000
,
0100
0000
0000
0100
0000
0000
0100
0000
0010
0000
1000
0000
0010
0000
0000
0000
,
0100
0001
0100
0000
0020
0000
1030
0000
,
0200
0000
0301
0010
,
1000
0010
1000
0000
0100
0001
0100
0000
,
0020
0000
1030
1000
,
0010
0100
0001
0100
0002
0000
1003
0000
,
0020
0000
0130
0100
,
0001
0100
0001
0000
0010
1000
0010
0000
,
2000
0000
3001
0001
,
0100
0010
0100
0000
0001
0100
0001
0000
,
0010
1000
0000
0100
0000
1000
0000
0100
,
0000
0001
0000
0010
0000
0001
0000
0010
,
0000
0100
0000
0010
0000
0100
0000
0010
,
0000
1000
0000
0100
0000
1000
0100
1000
,
0010
0001
0000
0001
0000
0010
0000
0100
,
0000
1000
0000
0100
0000
0010
0000
0001
,
0000
0010
0000
0100
0000
0010
0000
0100
,
0000
0001
0000
0100
0010
0100
0010
0001
,
1010
0110
0101
0110
,
0010
0000
0100
0000
0001
0100
0001
0000
,
0110
1010
1100
0101
,
0010
0000
1000
0000
0100
0010
0100
0010
,
0011
0101
0110
1010
,
1000
0000
0010
0000
0100
0001
0100
0000
,
0110
1001
1010
0101
,
0010
0000
0100
0000
0001
0100
0001
0100
,
0010
1000
0101
0000
0010
0100
0110
0000
,
0001
0010
1100
0000
1000
0100
0011
0000
,
0010
0100
0110
0000
0001
1000
1001
0000
,
0010
0100
0011
0000
1000
0010
1000
0010
,
0100
0000
0001
0000
0110
0000
1010
0000
0000
1010
0000
0000
1000
0000
0100
0000
,
0010
0001
0100
0001
2000
0000
3001
0001
,
0010
0000
0100
0000
0101
0000
0110
0000
0000
1010
0000
0000
0100
0000
0001
0000
,
0100
0000
0010
0000
0100
0000
0001
0000
1000
0001
1000
0000
0010
0100
0010
0000
,
1000
0000
0000
1000
0000
0000
1000
0000
0001
0000
0100
0000
0001
0000
0000
0000
,
0010
0000
0000
0010
0000
0000
0010
0000
0100
0000
0010
0000
0100
0000
0000
0000
,
0010
0000
0000
0010
0000
0000
0010
0000
0100
0000
0001
0000
0100
0000
0000
0000
,
1000
0000
0000
1000
0000
0000
1000
0000
0010
0000
0001
0000
0010
0000
0000
0000
,
0020
0000
0130
0100
,
0001
0100
0001
0000
0010
1000
0010
0000
,
2000
0000
3001
0001
,
0100
0010
0100
0000
0001
0100
0001
0000
,
0010
0000
0100
0001
0020
0000
1030
0000
,
0100
0010
0100
0010
0002
0000
1003
0000
,
0010
0100
1000
0000
0010
0100
0001
0000
,
0010
0100
0010
0100
0020
0000
1030
0000
,
0002
0000
0103
0010
2000
0000
3010
0000
,
0100
0001
0100
0001
0020
0000
0130
0000
,
0001
0100
0001
0000
0010
1000
0010
0000
,
0100
0001
0100
0000
0010
0100
0010
0100
,
0110
0000
1001
0000
1001
0000
1000
0010
,
0100
0000
0001
0000
0100
0010
0100
0010
,
1010
0000
1100
0000
1100
0000
0001
0100
,
0010
0000
0100
0000
0001
0100
0001
0100
,
0011
0000
0110
0000
0110
0000
0010
0100
,
0010
0000
1000
0000
0100
0010
0100
0010
,
1100
0101
0101
0010
,
0001
0100
0001
0100
0020
0000
0130
0000
;

//---------------dance-single - ----------------
#NOTEDATA:;
#CHARTNAME:;
#STEPSTYPE:dance-single;
#DESCRIPTION:;
#CHARTSTYLE:;
#DIFFICULTY:Hard;
#METER:11;
#RADARVALUES:0.765106,0.919243,0.874577,0.516417,0.154092,643.000000,538.000000,105.000000,62.000000,0.000000,0.000000,0.000000,0.000000,0.000000,0.765106,0.919243,0.874577,0.516417,0.154092,643.000000,538.000000,105.000000,62.000000,0.000000,0.000000,0.000000,0.000000,0.000000;
#CREDIT:;
#NOTES:
1000
0000
0000
0001
0000
0000
0100
1000
,
0120
0000
0000
0000
0100
0000
0000
0000
1030
0000
0000
0010
0000
0000
0010
0000
,
2000
3002
2003
3002
,
2003
3002
2003
3002
,
0203
0320
0230
0320
,
0230
0320
0230
0320
,
2030
3002
2003
3002
,
2003
3002
2003
3002
,
0203
0320
0230
0320
,
0130
0001
0010
0000
1000
0100
0010
0001
,
0210
0000
0000
0301
0001
0010
0001
0100
,
1000
0010
0100
0010
0100
1000
0001
0100
,
0010
1000
0010
0000
0100
0000
0001
0000
0010
0000
0100
0000
1000
0000
0001
0000
,
0010
0001
1000
0010
0100
0001
0100
0010
,
0100
1000
0010
0100
0001
0100
0010
1000
,
0001
0000
1000
0000
0010
0000
1000
0000
0100
0000
0010
0000
0100
0010
0100
0000
,
0010
0010
0100
0100
0010
0010
0100
0100
,
0001
1000
0001
1000
0100
0010
0100
0000
,
0110
0000
0000
0110
0000
0000
0110
0000
1000
0000
0001
0000
0100
0000
0010
0000
,
1001
0000
0000
1001
0000
0000
1001
0000
0001
0000
0100
0000
0001
0000
0100
0000
,
1010
0000
0000
1010
0000
0000
1010
0000
0001
0000
0100
0000
0010
0000
0100
0000
,
1000
0001
1000
0010
0102
0000
1003
0000
,
0110
0000
0000
0110
0000
0000
0110
0000
0001
0000
1000
0000
0010
0000
0100
0000
,
0011
0000
0000
0011
0000
0000
0011
0000
1000
0000
0010
0000
1000
0000
0100
0000
,
1001
0000
0000
1001
0000
0000
1001
0000
0010
0000
0100
0000
0001
0000
0010
0000
,
1000
0100
1000
0001
0020
0000
0130
0000
,
2100
0000
3010
0001
0100
0001
0100
0010
,
0000
1000
0010
0100
0001
0100
0001
0010
,
1200
0000
0310
0100
0010
1000
0001
0100
,
0001
0010
0100
1000
1002
0000
1003
0000
,
0102
0000
0013
0001
1000
0100
1000
0001
,
0000
0100
0010
0100
0001
1000
0001
0100
,
0021
0000
0130
0010
0100
1000
0001
0100
,
0010
0000
0100
0000
1000
0000
0100
0000
0010
0001
0010
0000
0100
1000
0100
0000
,
0010
1010
0000
0101
0000
0110
0000
1010
,
0000
1100
0000
0101
0000
0011
0000
1001
,
0000
1010
0000
1100
0000
0101
0000
0110
,
0000
1001
0000
0110
0000
0010
1000
0010
,
0100
0101
0000
0110
0000
1010
0000
1100
,
0000
1001
0000
0110
0000
0101
0000
0110
,
0000
1010
0000
1100
0000
1001
0000
0101
,
0000
0110
0000
1001
1000
0010
1000
0010
,
0100
0001
0100
0010
0100
0001
0010
0100
,
1010
0000
0101
0000
0020
0100
1030
0000
,
0001
0010
0100
0010
0001
1000
0001
0100
,
0101
0000
0110
0000
1000
0100
0010
0001
,
1000
0010
1000
0010
0100
0010
0100
0010
,
0101
0000
0110
0000
0200
0010
0301
0000
,
1000
0010
0100
0001
0100
0010
0100
1000
,
0001
0001
0010
0010
0100
0100
1000
1000
,
1001
0000
0101
0000
0000
0000
1010
0000
0000
0000
0110
0000
0000
0000
0010
1000
,
0100
0101
0000
0110
0000
1010
0101
1010
,
0100
0000
0110
0000
0000
0000
1010
0000
0000
0000
0101
0000
0000
0000
0010
0100
,
0001
0101
0000
1010
0010
0011
0010
0011
,
2000
0000
3001
0010
0002
0000
1003
0000
0000
1000
0000
0001
0100
0001
0100
0001
,
0100
0000
0010
1000
0010
0000
0100
0000
0101
0000
0110
0000
1010
0000
1100
0000
,
1001
0000
0100
0010
0200
0000
0301
0000
0000
0001
0000
0010
0100
0010
0100
0010
,
0100
0000
0001
0010
0001
0000
1000
0000
0110
0000
1010
0000
1100
0000
1001
0000
,
0110
0000
0000
0110
0000
0000
0110
0000
0100
0000
0010
0000
0100
0000
0010
0000
,
0011
0000
0000
0011
0000
0000
0011
0000
2000
0000
0000
0000
3010
0000
0000
0000
,
1010
0000
0000
1010
0000
0000
1010
0000
1000
0000
0010
0000
1000
0000
0010
0000
,
0110
0000
0000
0110
0000
0000
0110
0000
0200
0000
0000
0000
0310
0000
0000
0000
,
0102
0000
0013
0001
1000
0100
1000
0001
,
0000
0100
0010
0100
0001
1000
0001
0100
,
0021
0000
0130
0010
0100
1000
0001
0100
,
0010
0000
0100
0000
1000
0000
0100
0000
0010
0001
0010
0000
0100
1000
0100
0000
,
0002
0000
1003
0010
2000
0000
3001
0000
,
0100
0000
0001
0010
0001
0000
0100
0000
0020
0000
0000
0000
1030
0000
0100
0000
,
0001
0001
0100
0000
1000
1000
0010
0000
,
0100
0000
0010
0000
0100
0000
0001
0000
0100
0000
0010
0000
1000
0001
1000
0000
,
0010
0100
0010
0100
1000
0010
1000
0010
,
1000
0001
1000
0001
0100
0001
0100
0001
,
0100
0010
0100
0000
0001
0000
0010
0000
0100
1000
0100
0000
0010
0000
0100
0000
,
0001
0100
0001
0100
0001
0000
1000
0000
0010
0000
1000
0000
0010
0000
0100
0000
,
0012
0000
1000
0000
0103
0010
0100
0001
,
2000
3020
0230
0301
,
2010
0000
0100
0000
3001
0010
0100
0010
,
0002
0203
0320
1030
,
0120
0000
1000
0000
0130
0001
0100
0010
,
0200
2300
3002
0013
,
0201
0000
0010
0000
0301
0100
0001
0010
,
1000
0100
0010
0001
1001
0000
1010
0000
;
