#VERSION:0.82;
#TITLE:TRICK or WHISKY;
#SUBTITLE:;
#ARTIST:かねこちはる;
#TITLETRANSLIT:;
#SUBTITLETRANSLIT:;
#ARTISTTRANSLIT:Kaneko Chiharu;
#GENRE:;
#ORIGIN:;
#CREDIT:;
#BANNER:TRICK or WHISKY.png;
#BACKGROUND:TRICK or WHISKY-bg.png;
#PREVIEWVID:;
#JACKET:TRICK or WHISKY-jacket.png;
#CDIMAGE:;
#DISCIMAGE:;
#LYRICSPATH:;
#CDTITLE:;
#MUSIC:TRICK or WHISKY.ogg;
#OFFSET:0.000000;
#SAMPLESTART:70.110001;
#SAMPLELENGTH:15.000000;
#SELECTABLE:YES;
#DISPLAYBPM:125.000000;
#BPMS:0.000=125.000,
162.000=250.000,
163.500=125.000;
#STOPS:20.000=1.440,
74.750=1.440,
162.000=0.120,
162.500=0.120,
163.000=0.120;
#DELAYS:;
#WARPS:;
#TIMESIGNATURES:0.000=4=4;
#TICKCOUNTS:0.000=4;
#COMBOS:0.000=1;
#SPEEDS:0.000=1.000=0.000=0;
#SCROLLS:0.000=1.000;
#FAKES:;
#LABELS:0.000=Song Start;
#BGCHANGES:;
#KEYSOUNDS:;
#ATTACKS:
;

//---------------dance-single - ----------------
#NOTEDATA:;
#CHARTNAME:;
#STEPSTYPE:dance-single;
#DESCRIPTION:;
#CHARTSTYLE:;
#DIFFICULTY:Hard;
#METER:8;
#RADARVALUES:0.508610,0.515227,0.100762,0.503812,0.398851,352.000000,12.000000,60.000000,0.000000,0.000000,0.000000,0.000000,0.000000,0.508610,0.515227,0.100762,0.503812,0.398851,352.000000,12.000000,60.000000,0.000000,0.000000,0.000000,0.000000,0.000000;
#CREDIT:;
#NOTES:
// measure 0
0000
0000
0000
0000
,  // measure 1
0000
0000
0000
0000
,  // measure 2
0000
0000
0000
0000
,  // measure 3
0000
0000
0000
0000
,  // measure 4
0000
0000
0000
0000
,  // measure 5
0000
0000
0000
0000
1000
0000
0001
0000
0100
0000
0001
0000
1000
0000
0001
0010
,  // measure 6
0000
0010
0001
0000
0001
0000
0010
0000
0100
0000
0010
0000
0001
0000
1000
0100
,  // measure 7
0000
0100
1000
0000
1000
0000
0100
0000
0010
0000
0001
0000
1000
0000
0100
0000
,  // measure 8
0010
0001
2000
0000
3020
0000
0032
0000
,  // measure 9
0203
0000
0000
0000
1300
0000
0001
0000
0010
0000
0001
0000
0100
0000
0010
1000
,  // measure 10
0000
1000
0001
0000
0001
0000
1000
0000
0001
0000
0100
0000
0010
0000
0100
0001
,  // measure 11
0000
0001
1000
0000
1000
0000
0010
0000
0100
0000
0001
0000
1000
0000
0010
0000
,  // measure 12
0100
0001
2000
0000
3200
0000
0302
0000
,  // measure 13
0023
0000
0000
0000
0000
0000
0000
0000
0000
0000
0000
0000
0030
0000
0000
1000
0000
0000
0000
0000
0000
0000
0000
0000
1000
0000
0000
0000
0100
0000
0000
0000
0010
0000
0000
0000
0000
0000
0000
0100
0000
0000
0000
0000
0000
0000
0000
0000
,  // measure 14
0100
0000
0000
0000
0010
0000
0000
0000
0001
0000
0000
0000
0000
0000
0000
0010
0000
0000
0000
0000
0000
0000
0000
0000
0010
0000
0000
0000
0001
0000
0000
0000
1000
0000
0000
0000
0020
0000
0000
0000
0000
0000
0000
0000
0000
0000
0000
0000
,  // measure 15
0000
0000
0230
0300
0200
0300
0001
1000
,  // measure 16
0010
0000
0000
0000
0001
0000
1000
0100
0000
0100
0000
0000
1000
0000
0001
0000
,  // measure 17
0010
0000
0000
0000
1000
0000
0001
0100
0000
0000
0001
0010
0000
0010
0000
0010
,  // measure 18
0000
0100
2000
0000
0002
0000
3003
0000
,  // measure 19
0001
0000
0100
0000
0010
0000
0100
0000
0001
0000
1000
0020
0000
0000
0130
0000
,  // measure 20
0001
0000
0010
0000
0100
0000
0010
0000
0001
0000
1000
0200
0000
0000
0310
0000
,  // measure 21
0001
0001
1000
1000
0000
0100
1000
0001
,  // measure 22
0100
0000
0010
0000
0010
0100
0000
0001
0000
1000
0000
0020
0000
0030
0000
0000
,  // measure 23
1001
0000
0000
0000
0000
0001
0000
0001
0010
0000
0000
0010
0100
0000
0100
1000
,  // measure 24
0000
1000
0000
0000
0000
0001
0100
0000
0100
0000
0000
0000
0010
0100
0010
0000
,  // measure 25
0010
1000
0100
1000
0001
0100
0001
0010
,  // measure 26
0000
0110
0000
0011
0000
1100
0100
1000
,  // measure 27
0001
0000
0001
0100
0010
0000
0010
0100
0002
0000
0000
0003
0100
0002
0000
0000
,  // measure 28
1003
0000
1000
0100
0010
0000
0010
0100
1000
0200
0000
0000
1300
0000
0100
0000
,  // measure 29
0010
0000
0001
0100
0010
0000
1000
0100
0010
0000
0000
0000
0010
0000
0100
0000
,  // measure 30
1000
0001
1000
0000
0001
0000
0100
0002
0000
0000
0103
0000
0010
0000
1000
0000
,  // measure 31
0100
0000
1000
0000
0001
0000
1000
0000
0100
0000
1000
0001
0000
0000
0000
0000
,  // measure 32
0100
0000
0001
0000
1000
0000
0001
0010
0000
0000
0010
0100
0000
0100
0010
0000
,  // measure 33
0001
0000
0100
0000
1000
0000
0100
0000
0001
0000
0100
0020
0000
0000
0030
0000
,  // measure 34
1000
0000
0000
1100
0000
0000
1001
0000
0000
0101
0000
0000
0110
0000
0000
0000
,  // measure 35
0200
0000
0000
0302
0000
0000
0203
0000
0000
0302
0000
0000
0103
0000
0001
0000
,  // measure 36
0020
0000
0000
0230
0000
0000
2300
0000
0000
3020
0000
0000
1030
0001
0200
0000
,  // measure 37
0000
0000
0000
0302
0000
0000
0000
0000
0000
0000
0000
0000
0203
0000
0000
0000
0000
0000
0000
0000
0000
0302
0000
0000
0000
0000
0000
0000
0000
0000
0103
0000
0000
0000
0000
0000
0001
0000
0000
0000
0000
0000
0000
0000
0000
0000
1000
0000
,  // measure 38
0000
0000
1000
0000
0000
0000
1000
0000
0000
0000
0000
0000
0000
0000
0000
0100
0000
0000
1000
0000
0000
0001
0000
0000
0020
0000
0000
0000
0000
0000
0000
0000
0000
0000
0000
0000
0230
0000
0000
0000
0000
0000
0000
0000
0000
2300
0000
0000
,  // measure 39
0000
0000
3200
0000
0000
2300
0000
0000
3100
0000
1000
0000
0020
0000
0000
0230
,  // measure 40
0000
0000
0302
0000
0000
0023
0000
0000
0130
0000
0110
0000
1001
0000
2000
0000
,  // measure 41
0000
0000
0000
3200
0000
0000
0000
0000
0000
0000
0000
0000
0302
0000
0000
0000
0000
0000
0000
0000
0000
0203
0000
0000
0000
0000
0000
0000
0000
0000
1300
0000
0000
0000
0000
0000
0100
0000
0000
0000
0000
0000
0000
0000
0000
0000
0010
0000
,  // measure 42
0000
0000
0010
0000
0000
0000
0010
0000
0000
0000
0000
0000
0000
0000
0000
0001
0000
0000
1000
0000
0000
0010
0000
0000
0200
0000
0000
0000
0000
0000
0000
0000
0000
0000
0000
0000
0000
0000
0000
0000
0000
0000
0000
0000
0000
0000
0000
0000
,  // measure 43
0000
0000
0000
0000
,  // measure 44
0000
0000
0300
0000
2002
3003
1000
0100
,  // measure 45
0010
0000
0100
1000
0000
1000
0001
0000
0001
0000
0100
0000
0010
0000
0100
0000
,  // measure 46
0001
0000
1000
0010
0000
0010
0100
0000
0001
0000
1000
0000
0100
0000
0010
0000
,  // measure 47
0001
1000
0010
0100
0002
0000
0023
0000
,  // measure 48
2030
0000
3200
0000
0301
0010
1000
0010
,  // measure 49
0001
0000
0010
0100
0000
0100
1000
0000
1000
0000
0010
0000
0001
0000
0010
0000
,  // measure 50
1000
0000
0001
0100
0000
0100
0010
0000
1000
0000
0001
0000
0100
0000
0010
0000
,  // measure 51
1000
0001
0010
0100
2000
0000
3200
0000
,  // measure 52
0302
0000
0000
0000
0000
0000
0000
0000
0000
0000
0000
0000
0023
0000
0000
0000
0000
0000
0000
0000
0000
0000
0000
0000
0030
0000
0000
1000
0000
0000
0000
0000
0000
0000
0000
0000
1000
0000
0000
0000
0010
0000
0000
0000
0100
0000
0000
0000
,  // measure 53
0000
0000
0000
0010
0000
0000
0000
0000
0000
0000
0000
0000
0010
0000
0000
0000
0100
0000
0000
0000
0001
0000
0000
0000
0000
0000
0000
0100
0000
0000
0000
0000
0000
0000
0000
0000
0010
0000
0000
0000
1000
0000
0000
0000
0001
0000
0000
0000
,  // measure 54
0020
0000
0000
0000
,  // measure 55
0031
0000
0100
0001
0000
0001
0100
0000
0010
1000
0000
1000
0100
0000
0010
0000
,  // measure 56
0000
2200
0000
0000
0000
0000
0000
0000
,  // measure 57
0000
0000
0000
0000
,  // measure 58
0000
0000
0000
0000
0000
0000
0000
3300
0000
0000
0000
0000
0000
0000
0000
0000
;

//---------------dance-single - ----------------
#NOTEDATA:;
#CHARTNAME:;
#STEPSTYPE:dance-single;
#DESCRIPTION:;
#CHARTSTYLE:;
#DIFFICULTY:Beginner;
#METER:1;
#RADARVALUES:0.101962,0.094255,0.033587,0.000000,0.041984,81.000000,4.000000,0.000000,0.000000,0.000000,0.000000,0.000000,0.000000,0.101962,0.094255,0.033587,0.000000,0.041984,81.000000,4.000000,0.000000,0.000000,0.000000,0.000000,0.000000,0.000000;
#CREDIT:;
#DISPLAYBPM:125.000000;
#NOTES:
0000
0000
0000
0000
,
0000
0000
0000
0000
,
0000
0000
0000
0000
,
0000
0000
0000
0000
,
0000
0000
0000
0000
,
0000
1000
0000
1000
,
0000
0001
0000
0001
,
0000
1000
0000
0001
,
0000
0100
0000
0000
,
0000
0001
0000
0001
,
0000
1000
0000
1000
,
0000
0001
0000
1000
,
0000
0100
0000
0000
,
0000
0000
0000
0000
0000
0010
0000
0000
0000
0000
0000
0000
0000
0010
0000
0000
,
0000
0000
0000
0000
0000
0010
0000
0000
0000
0000
0000
0000
0110
0000
0000
0000
,
0000
0000
0000
1000
,
0000
1000
0000
0001
,
0000
0001
0000
1000
,
0000
0001
0000
0000
,
1000
0000
0100
0000
,
1000
0000
0010
0000
,
0100
0000
0100
0000
,
0010
0000
0100
0000
,
0001
0000
0100
0000
,
0001
0000
0010
0000
,
0100
0000
0100
0000
,
0010
0000
0000
0000
,
0001
0000
0001
0000
,
0100
0000
0100
0000
,
0010
0000
0010
0000
,
1000
0000
1000
0000
,
0001
0000
0000
0000
,
1000
0000
0000
0000
,
0001
0000
1000
0000
,
0001
0000
1000
0000
,
0100
0000
0000
0000
,
0010
0000
0000
0000
0000
0000
0000
0100
,
0000
0000
0000
0000
0000
0000
0000
0000
0000
0000
0000
0000
0000
0000
0000
0000
0000
0000
0000
0000
0000
0000
0000
1000
,
0000
0000
0000
0000
0000
0001
0000
0000
0000
0000
0000
0000
0100
0000
0000
0000
,
0000
0000
0000
0010
,
0000
0000
0000
0000
0000
0000
0000
0100
,
0000
0000
0000
0000
0000
0000
0000
0000
0000
0000
0000
0000
0000
0000
0000
0000
0000
0000
0000
0000
0000
0000
0000
0001
,
0000
0000
0000
0000
0000
1000
0000
0000
0000
0000
0000
0000
0000
0000
0000
0000
,
0000
0000
0000
0000
,
0000
0000
1001
0000
,
0000
0000
0001
0000
,
1000
0000
0001
0000
,
1000
0000
0010
0000
,
0000
0000
1000
0000
,
1000
0000
0001
0000
,
0001
0000
1000
0000
,
0001
0000
0010
0000
,
0000
0000
0000
0000
0000
0000
0000
0000
0000
0100
0000
0000
0000
0000
0000
0000
,
0000
0100
0000
0000
0000
0000
0000
0000
0000
0100
0000
0000
0000
0000
0000
0000
,
0110
0000
0000
0000
,
0000
0000
0000
0000
,
0000
1001
0000
0000
0000
0000
0000
0000
;

//---------------dance-single - ----------------
#NOTEDATA:;
#CHARTNAME:;
#STEPSTYPE:dance-single;
#DESCRIPTION:;
#CHARTSTYLE:;
#DIFFICULTY:Easy;
#METER:3;
#RADARVALUES:0.203924,0.188510,0.050381,0.092366,0.037786,153.000000,6.000000,11.000000,0.000000,0.000000,0.000000,0.000000,0.000000,0.203924,0.188510,0.050381,0.092366,0.037786,153.000000,6.000000,11.000000,0.000000,0.000000,0.000000,0.000000,0.000000;
#CREDIT:;
#DISPLAYBPM:125.000000;
#NOTES:
0000
0000
0000
0000
,
0000
0000
0000
0000
,
0000
0000
0000
0000
,
0000
0000
0000
0000
,
0000
0000
0000
0000
,
0000
1000
0000
0100
,
1000
0001
0000
0100
,
0001
1000
0000
0100
,
1000
0010
0010
0020
,
0030
0001
0000
0100
,
0001
1000
0000
0100
,
1000
0001
0000
0100
,
0001
0010
0010
0020
,
0030
0000
0000
0000
0000
0100
0000
0000
1000
0000
0000
0000
0000
0100
0000
0000
,
0010
0000
0000
0000
0000
0100
0000
0000
0001
0000
0000
0000
0200
0000
0000
0000
,
0000
0000
0300
1000
,
0000
0001
1000
0010
,
0000
0100
0010
1000
,
0000
0001
0020
0030
,
0001
0100
0001
0000
,
1000
0100
0010
0000
,
0001
0100
0010
1000
,
0100
1000
0010
0100
,
0001
0000
0001
1000
,
0010
0000
1000
0001
,
0010
0000
0010
0000
0200
0000
0000
0310
,
0000
0010
0000
0100
0000
0000
0100
0000
,
1000
0010
1000
0010
,
0100
0001
0100
0100
,
0001
0010
0001
0010
,
0100
1000
1000
0100
,
1000
0001
1000
0001
,
0010
0100
0010
0100
,
1000
0001
1000
0001
,
0100
0010
0200
0300
,
0001
0000
0000
0001
0000
0000
0100
0000
,
0010
0000
0000
0010
0000
0000
0000
1000
,
0000
0000
0000
0000
0000
0000
1000
0000
0000
0000
0000
0000
0000
0000
0000
0100
0000
0000
0000
0000
0000
0000
0000
0110
,
0000
0000
0000
0000
0000
1001
0000
0000
0000
0000
0000
0000
1000
0000
0000
0000
,
0000
1000
0000
0000
0100
0000
0010
0000
,
0000
0010
0000
0000
0001
0000
0000
0001
,
0000
0000
0000
0000
0000
0000
0001
0000
0000
0000
0000
0000
0000
0000
0000
0100
0000
0000
0000
0000
0000
0000
0000
0110
,
0000
0000
2002
0000
,
0000
0000
3003
0000
,
0000
0000
1001
0000
,
0100
0001
1000
0000
,
0100
1000
0001
0100
,
0010
1000
0100
0100
,
0200
0300
1000
0000
,
0100
1000
0001
0000
,
0100
0001
1000
0100
,
0010
0001
0100
0100
,
0200
0000
0000
0000
0300
0000
0000
0000
0000
0010
0000
0000
0001
0000
0000
0000
,
0000
0010
0000
0000
0100
0000
0000
0000
0000
0010
0000
0000
1000
0000
0000
0000
,
0020
0000
0000
0000
,
0030
0000
0000
0000
,
0000
1001
0000
0000
0000
0000
0000
0000
;

//---------------dance-single - ----------------
#NOTEDATA:;
#CHARTNAME:;
#STEPSTYPE:dance-single;
#DESCRIPTION:;
#CHARTSTYLE:;
#DIFFICULTY:Medium;
#METER:5;
#RADARVALUES:0.351469,0.368019,0.134350,0.369462,0.138548,233.000000,16.000000,44.000000,0.000000,0.000000,0.000000,0.000000,0.000000,0.351469,0.368019,0.134350,0.369462,0.138548,233.000000,16.000000,44.000000,0.000000,0.000000,0.000000,0.000000,0.000000;
#CREDIT:;
#DISPLAYBPM:125.000000;
#NOTES:
0000
0000
0000
0000
,
0000
0000
0000
0000
,
0000
0000
0000
0000
,
0000
0000
0000
0000
,
0000
0000
0000
0000
,
0000
0000
1000
0000
0100
0000
1000
0001
,
0010
0000
0001
0000
0100
0000
0001
1000
,
0010
2000
3200
0302
,
0203
2300
3020
0032
,
0023
0000
1030
0000
0010
0000
0100
0001
,
0010
0000
0001
0000
0010
0000
0100
1000
,
0010
2000
3020
0032
,
0023
2030
3200
0302
,
0203
0000
0000
0000
0300
0010
0000
0000
0011
0000
0000
0000
0000
0100
0000
0000
,
1100
0000
0000
0000
0000
0010
0000
0000
0110
0000
0000
0000
2002
0000
0000
0000
,
0000
0000
3003
0001
,
0100
0000
0001
1000
0010
0000
1000
0000
,
0100
0000
1000
0001
0100
0001
0010
0000
,
0020
0130
0200
0300
,
1000
0100
1000
0000
0001
0010
0001
0000
,
0100
0001
0100
0000
0010
1000
0010
0000
,
1000
0001
0100
0000
0001
1000
0010
0000
,
1000
0001
0010
0000
0001
1000
0100
0000
,
1000
1100
0100
0110
,
0010
0011
0001
0101
,
0100
0000
0001
0000
1000
0000
0100
1000
,
0000
0001
0000
0200
0000
0310
0100
0100
,
0001
0000
0000
0001
0100
0000
0000
0100
0010
0000
0000
0000
0100
0001
0000
0000
,
1000
0000
0000
1000
0100
0000
0000
0100
0020
0000
0000
0000
0130
0000
0000
0000
,
1000
0000
0000
0001
0100
0000
0000
0100
0010
0000
0000
0000
0100
0000
0001
0000
,
0100
0000
0010
1000
0100
0000
1000
0000
,
0001
0000
0100
0000
0010
0000
0000
0000
0001
0000
0100
0010
0000
0000
0000
0000
,
1000
0000
0100
0000
0010
0000
0100
1000
0000
0000
0000
0000
1001
0000
0000
0000
,
0001
0100
0010
0000
1000
0010
0100
0000
,
0001
0000
0000
0010
0000
0000
0100
0000
0000
1000
0000
0000
0110
0000
0000
0000
,
0001
0000
0000
0100
0000
0000
0001
0000
0000
0100
0000
0000
0001
0000
0000
0000
,
1000
0000
0000
0100
0000
0000
1000
0000
0000
0100
0000
0000
1000
0000
0001
0000
,
0000
0000
0000
0100
0000
0000
0000
0000
0000
0000
0000
0000
0001
0000
0000
0000
0000
0000
0000
0000
0000
0100
0000
0000
0000
0000
0000
0000
0000
0000
0001
0000
0000
0000
0000
0000
0000
0000
0000
0000
0000
0000
0000
0000
0000
0000
0010
0000
,
0000
0000
0010
0000
0000
0100
0000
0000
0200
0000
0000
0000
1300
0000
0000
0100
,
0000
0000
0010
0000
0000
0100
0000
0000
1000
0000
0000
0000
0001
0000
0000
0100
,
0000
0000
0010
0000
0000
0100
0000
0000
0001
0000
0001
0000
0001
0000
1000
0000
,
0000
0000
0000
0100
0000
0000
0000
0000
0000
0000
0000
0000
0010
0000
0000
0000
0000
0000
0000
0000
0000
0100
0000
0000
0000
0000
0000
0000
0000
0000
1000
0000
0000
0000
0000
0000
0001
0000
0000
0000
0000
0000
0000
0000
0000
0000
0100
0000
,
0000
0000
0100
0000
0000
0010
0000
0000
0020
0000
0000
0000
0000
0000
0000
0000
,
0000
0000
0030
0000
,
0000
0000
1001
1000
,
1000
0010
0100
0000
0001
0000
1000
0000
,
0001
0010
0100
0000
2000
0000
3200
0000
,
0320
0230
2300
3020
,
0032
0023
1030
0100
,
0010
0001
0100
0000
0001
0000
0010
0000
,
0100
1000
0001
0000
0002
0000
0023
0000
,
0230
0320
0032
0203
,
2300
0000
0000
0000
3200
0000
0000
0000
0300
0001
0000
0000
0101
0000
0000
0000
,
0000
1000
0000
0000
1010
0000
0000
0000
0000
0001
0000
0000
1001
0000
0000
0000
,
0220
0000
0000
0000
,
0330
0000
0000
0000
,
0000
2002
0000
0000
0000
0000
0000
0000
,
0000
0000
0000
0000
,
0000
0000
0000
0000
0000
0000
0000
3003
0000
0000
0000
0000
0000
0000
0000
0000
;
