#VERSION:0.83;
#TITLE:Spooky;
#SUBTITLE:;
#ARTIST:good-cool;
#TITLETRANSLIT:;
#SUBTITLETRANSLIT:;
#ARTISTTRANSLIT:;
#GENRE:;
#ORIGIN:;
#CREDIT:;
#BANNER:;
#BACKGROUND:;
#PREVIEWVID:;
#JACKET:;
#CDIMAGE:;
#DISCIMAGE:;
#LYRICSPATH:;
#CDTITLE:;
#MUSIC:09 - good-cool - Spooky.mp3;
#OFFSET:-0.340000;
#SAMPLESTART:6.090000;
#SAMPLELENGTH:13.200000;
#SELECTABLE:YES;
#BPMS:0.000=140.000,
268.000=150.000,
268.500=160.000,
269.000=170.000,
269.500=180.000,
270.000=190.000,
270.500=200.000,
271.000=210.000,
271.500=225.000,
272.000=235.000,
272.500=245.000,
273.000=255.000,
273.500=265.000,
274.000=275.000,
274.500=285.000,
275.000=295.000,
275.500=310.000,
276.000=320.000,
276.500=330.000,
277.000=340.000,
277.500=350.000,
278.000=360.000,
278.500=370.000,
279.000=380.000,
279.500=390.000,
280.000=415.000,
280.500=425.000,
281.000=435.000,
281.500=445.000,
282.000=455.000,
283.000=350.000,
285.000=280.000,
287.000=190.000,
288.000=140.000;
#STOPS:;
#DELAYS:;
#WARPS:;
#TIMESIGNATURES:0.000=4=4;
#TICKCOUNTS:0.000=4;
#COMBOS:0.000=1;
#SPEEDS:0.000=1.000=0.000=0;
#SCROLLS:0.000=1.000;
#FAKES:;
#LABELS:0.000=Song Start;
#BGCHANGES:;
#KEYSOUNDS:;
#ATTACKS:
;

//---------------dance-single - ----------------
#NOTEDATA:;
#CHARTNAME:;
#STEPSTYPE:dance-single;
#DESCRIPTION:;
#CHARTSTYLE:;
#DIFFICULTY:Challenge;
#METER:10;
#RADARVALUES:0.593974,0.738074,0.082008,0.565857,0.356736,507.000000,497.000000,10.000000,69.000000,0.000000,0.000000,0.000000,0.000000,0.000000,0.593974,0.738074,0.082008,0.565857,0.356736,507.000000,497.000000,10.000000,69.000000,0.000000,0.000000,0.000000,0.000000,0.000000;
#CREDIT:;
#NOTES:
// measure 0
0000
0000
0000
0000
,  // measure 1
0010
1000
0010
0100
0010
0001
0010
0100
,  // measure 2
1000
0001
1000
0010
1000
0100
1000
0002
,  // measure 3
2003
3020
0230
0302
,  // measure 4
2003
0000
0010
0000
3001
0000
0100
0001
,  // measure 5
1000
0000
0000
0001
0010
0000
0000
0000
0100
0000
0001
0000
1000
0000
0100
0000
,  // measure 6
1000
0100
0010
0001
1000
0000
0000
0001
0100
0000
0010
0000
2000
0000
3002
0000
,  // measure 7
2003
0000
0000
3020
0000
0000
0000
0000
1000
0000
0030
0000
0100
0000
0002
0000
,  // measure 8
0023
0000
0030
0200
0000
0000
0000
0000
0010
0000
0300
0000
0001
0000
0100
0000
,  // measure 9
0010
0000
0000
1000
0010
0000
0000
0000
0100
0000
0001
0000
0010
0000
1000
0000
,  // measure 10
0001
0010
0100
1000
0001
0000
0000
0100
0001
0000
0100
0000
0010
0000
1000
0010
,  // measure 11
1000
0100
0001
0100
1000
0100
0001
0100
,  // measure 12
0010
0001
0100
0001
1000
0010
0100
0001
,  // measure 13
1000
0000
0001
0000
0010
0000
0001
0000
0100
0000
0001
0100
0000
0010
2000
0000
,  // measure 14
3002
0000
0000
0000
0203
0000
0000
0000
0310
0000
0100
0001
0000
1000
0010
0000
,  // measure 15
1000
0010
1000
0100
1000
0010
1000
0100
,  // measure 16
0010
0100
0001
0100
1000
0010
0100
0001
,  // measure 17
0100
0000
0010
0000
1000
0000
0001
0000
1000
0000
0001
0010
0000
1000
0200
0000
,  // measure 18
0320
0000
0230
0000
0302
0000
2003
0100
,  // measure 19
3001
0000
0000
0001
0000
0000
0001
0000
0100
0000
0000
0100
0000
0000
0100
0000
,  // measure 20
0010
0000
0000
0010
0000
0000
0010
0000
1000
0000
0000
1000
0000
0000
1000
0000
,  // measure 21
0001
0000
0000
0100
0000
0000
0001
0000
1000
0000
0000
0010
0000
0000
1000
0000
,  // measure 22
0100
0000
0000
0010
0000
0000
0100
0000
0010
0000
0000
0001
0000
0000
0010
0000
,  // measure 23
1000
0000
0000
0001
0000
0000
0100
0000
0010
0000
0000
1000
0000
0000
0100
0000
,  // measure 24
0001
0000
0000
0010
0000
0000
1000
0000
0001
0000
0000
0100
0000
0000
0010
0000
,  // measure 25
1000
0000
0000
0001
0000
0000
0010
0000
1000
0000
0000
0100
0000
0000
0010
0000
,  // measure 26
0001
0100
0001
0100
0001
0000
0100
0000
0010
1000
0010
0000
1000
0000
0001
1000
,  // measure 27
0001
0001
0100
1000
1000
0010
0100
0100
,  // measure 28
0001
0000
1000
0000
0010
0100
0000
0001
0010
0000
1000
0100
0000
1000
0001
0000
,  // measure 29
0100
0001
1000
0010
0000
0100
0001
1000
,  // measure 30
0001
0100
0001
0100
1000
0100
1000
0100
,  // measure 31
0001
0001
1000
0010
0010
0100
1000
1000
,  // measure 32
0001
0000
0100
0000
0001
0100
0000
1000
0100
0000
0001
0010
0000
1000
0010
0000
,  // measure 33
1000
0001
0100
0010
0000
0010
0100
0001
,  // measure 34
1000
0010
1000
0000
0001
0100
0001
0000
1000
0001
1000
0000
0001
1000
0001
0000
,  // measure 35
1001
0000
1000
0010
1000
0000
0010
0000
0200
0000
0000
0000
0301
0000
1000
0000
,  // measure 36
0020
0000
0130
0001
2000
0000
3001
0100
,  // measure 37
0010
0000
0100
0000
0001
0000
0100
0001
0000
1000
0100
0000
0010
0000
0100
0000
,  // measure 38
0001
1000
0000
0000
0000
2002
0000
0000
0000
3003
0000
1000
0001
0000
0000
0000
,  // measure 39
0100
0000
0001
0100
0001
0000
0100
0000
0002
0000
0000
0000
1003
0000
0001
0000
,  // measure 40
0200
0000
0310
0100
0020
0000
1030
0001
,  // measure 41
1010
0100
0001
0000
0011
0100
1000
0000
,  // measure 42
1001
0000
0100
0000
0110
0000
0001
0000
1000
0001
1000
0001
0100
0010
0100
0010
,  // measure 43
0100
0001
2000
0000
3010
0020
0000
0130
,  // measure 44
0001
0000
0010
0000
0100
0000
1000
0000
0001
0000
1000
0001
0000
0100
0010
0000
,  // measure 45
0100
0010
0002
0000
0103
0200
0000
0310
,  // measure 46
1000
0001
1000
0100
1000
0000
0001
0000
0100
0001
0100
0000
0100
0010
0100
0000
,  // measure 47
0001
0010
2000
0000
3001
0002
0000
0103
,  // measure 48
0010
0000
1000
0000
0001
0000
0100
0000
0001
0000
1000
0010
0000
1000
0001
0000
,  // measure 49
0100
0010
2000
0000
3010
0020
0000
0130
,  // measure 50
0001
0100
0001
0100
0010
0100
0010
0100
0001
1000
0001
1000
0001
0010
0001
0010
,  // measure 51
0200
0302
2003
3020
,  // measure 52
0230
0000
0001
0000
0310
0000
1000
0001
,  // measure 53
0100
0010
1000
1000
0010
0001
0100
0010
,  // measure 54
1000
0010
0100
0001
1000
0010
0012
2003
,  // measure 55
3020
0000
0030
0020
0000
0000
0000
0000
0100
0000
0000
0000
0230
0000
0302
0000
,  // measure 56
2003
0000
3000
2000
0000
0000
0000
0000
0010
0000
0000
0000
3001
0000
0100
0000
,  // measure 57
0001
0100
0010
0010
1000
0100
1000
0001
,  // measure 58
0010
0000
0100
0000
0010
0000
0001
0000
1000
0000
0010
0000
0100
0001
0200
0000
,  // measure 59
0320
2030
3002
0203
,  // measure 60
0302
0000
1000
0000
0013
0000
0100
0010
,  // measure 61
1000
0010
0100
0100
0001
0010
0100
0001
,  // measure 62
2020
3030
0202
0303
2001
0000
3020
0032
,  // measure 63
2003
0000
3000
2000
0000
0000
0000
0000
0010
0000
0001
0000
3010
0000
0200
0000
,  // measure 64
0302
0000
0003
0002
0000
0000
0000
0000
0100
0000
1000
0000
0103
0000
0010
0000
,  // measure 65
0100
0001
0100
0000
0010
0000
0010
0000
1000
0000
0100
0000
0010
0000
0001
0000
,  // measure 66
0100
0001
0100
0010
1000
0001
1000
0100
1000
0001
0100
0010
0100
0001
2000
0000
,  // measure 67
0000
0000
0000
0000
,  // measure 68
0000
0000
0000
0000
,  // measure 69
0000
0000
0000
0000
,  // measure 70
0000
0000
0001
0000
,  // measure 71
0000
0000
0000
0000
,  // measure 72
3000
0000
0000
0000
;
