#TITLE:Spooky Scary Skeletons;
#SUBTITLE:(The Living Tombstone Remix);
#ARTIST:Andrew Gold;
#TITLETRANSLIT:;
#SUBTITLETRANSLIT:;
#ARTISTTRANSLIT:;
#GENRE:EDM;
#CREDIT:TiKAL;
#MUSIC:[Summerween] - Spooky Scary Skeletons (The Living Tombstone Remix).ogg;
#BANNER:[Summerween] - Spooky Scary Skeletons (The Living Tombstone Remix).png;
#BACKGROUND:[Summerween] - Spooky Scary Skeletons (The Living Tombstone Remix)-bg.png;
#CDTITLE:cdtitle.png;
#SAMPLESTART:7.516;
#SAMPLELENGTH:30.000;
#SELECTABLE:YES;
#OFFSET:-0.016;
#BPMS:0.000=128.000
,174.000=512.000
,175.000=128.000
;
#STOPS:174.000=0.117
,174.333=0.117
,174.667=0.117
;
#DISPLAYBPM:128.000;
#BGCHANGES:;
#FGCHANGES:;

//--------------- dance-single - TiKAL ----------------
#NOTES:
     dance-single:
     TiKAL:
     Hard:
     6:
     0,0,0,0,0:
0000
0000
0000
0000
,
0000
0000
0000
0000
,
0000
0000
0000
0000
,
0000
0000
0000
0000
,
0001
0000
0100
0000
0001
0000
0000
0000
0010
0000
0000
0010
0000
0000
0001
0000
,
1000
0000
0100
0010
0001
0000
0000
0000
,
1000
0010
1000
0000
0001
0100
0001
0000
,
1000
0100
0010
0001
1000
0000
0000
0000
,
1000
0000
0010
0000
1000
0000
0000
0000
0100
0000
0000
0100
0000
0000
1000
0000
,
0001
0000
0010
0100
1000
0000
0000
0000
,
0001
0100
0001
0000
1000
0010
1000
0000
,
0001
0010
0100
1000
0001
0000
0000
0000
,
1000
0001
0100
0000
0001
1000
0010
0000
,
0010
0100
0010
0100
0020
0000
0030
0000
,
1000
0001
0100
0000
0001
1000
0100
0000
,
0100
0010
0100
0010
0200
0000
0300
0000
,
1000
0000
0100
0000
1000
0000
0000
0000
0010
0000
0000
0010
0000
0000
1000
0000
,
0001
0000
0100
0010
1000
0000
0000
0000
,
0001
0010
0001
0000
1000
0100
1000
0000
,
0001
0100
0010
1000
0001
0000
0000
0000
,
2000
0000
3200
0000
,
0320
0000
0032
0000
,
1003
0000
1000
0000
1000
0000
0001
0000
0001
0000
0001
0000
,
0020
0000
0000
0130
,
1000
0000
0000
0100
0000
0000
0010
0000
0000
0001
0000
1000
,
0001
0000
0010
0000
0100
0000
1000
0001
,
1000
0000
0000
0010
0000
0000
0100
0000
0000
0001
0000
1000
,
0001
0000
0000
0100
0000
0000
0010
1000
0010
1000
0000
0000
,
0001
0000
0000
0010
0000
0000
0100
0000
0000
1000
0000
0001
,
1000
0000
0100
0000
0010
0000
0001
1000
,
0001
0000
0000
0100
0000
0000
0010
0000
0000
1000
0000
0001
,
2000
3020
0230
0301
,
1000
0100
0000
0010
0000
0100
0000
0010
,
0001
1000
0000
0001
0000
1000
0100
0010
,
0001
1000
0000
0001
0000
1000
0000
0001
,
0100
0000
0000
0010
0000
0000
0000
0000
0000
0100
0000
0000
0010
0000
1000
0000
0001
0000
0010
0000
0000
0000
0000
0000
,
0001
0100
0000
0010
0000
0100
0000
0010
,
1000
0001
0000
1000
0000
0001
0100
0010
,
1000
0001
0000
1000
0000
0001
0000
1000
,
0200
0320
0032
1003
,
0002
0000
0023
0000
,
0230
0000
2300
0000
,
3001
0001
1000
1000
,
0010
0010
0010
0010
0020
0000
0130
0000
,
0001
0000
0100
0001
0000
0000
1000
0000
0000
1000
0000
0000
,
1000
0000
0000
0000
0100
0000
1000
0000
0000
0000
0000
0000
0001
0000
0000
0000
0000
0000
0001
0000
0000
1000
0000
0000
,
0001
0000
0010
0001
0000
0000
1000
0000
0000
1000
0000
0000
,
1000
0000
0010
0100
0000
0001
1000
0001
1000
0001
0000
0000
,
1000
0000
0100
1000
0000
0000
0001
0000
0000
0001
0000
0000
,
0001
0000
0000
0000
0100
0000
0001
0000
0000
0000
0000
0000
1000
0000
0000
0000
0000
0000
1000
0000
0000
0001
0000
0000
,
1000
0000
0010
1000
0000
0000
0001
0000
0000
0001
0000
0000
,
0002
0023
0230
1300
,
0001
0100
0001
0100
0000
0000
0010
0000
0000
0010
0000
0000
,
1000
0000
0100
0000
1000
0000
0100
0000
0000
0000
0000
0000
0010
0000
0000
0000
0000
0000
0010
0000
0000
0001
0000
0000
,
1000
0010
1000
0010
0000
0000
0100
0000
0000
0100
0000
0000
,
0001
0000
0010
0100
0000
1000
0001
1000
0001
1000
0000
0000
,
0001
0010
0001
0010
0000
0000
0100
0000
0000
0100
0000
0000
,
1000
0000
0010
0000
1000
0000
0010
0000
0000
0000
0000
0000
0100
0000
0000
0000
0000
0000
0100
0000
0000
0001
0000
0000
,
1000
0100
1000
0100
0000
0000
0010
0000
0000
0010
0000
0000
,
0002
0203
0320
1030
,
0001
1000
0010
0100
0001
1000
0010
0100
,
0001
1000
0100
0010
0001
1000
0100
0000
,
1000
0001
0010
0100
1000
0001
0010
0100
,
1000
0001
0100
0010
1000
0001
0200
0000
,
0000
0000
0000
0000
,
0000
0300
0000
0000
;

//--------------- dance-single - TiKAL ----------------
#NOTES:
     dance-single:
     TiKAL:
     Challenge:
     10:
     0,0,0,0,0:
0000
0000
0000
0000
,
0000
0000
0000
0000
,
0000
0000
0000
0000
,
0000
0000
0000
0000
,
1001
0000
1000
0000
0010
0000
0010
0000
0100
0000
0001
0200
0000
0000
0310
0000
,
1000
0002
0000
0000
0013
0000
0100
0000
2000
0000
0001
0000
0000
0000
3001
0000
,
0001
0001
0010
0010
0100
1000
0002
0000
,
1003
0010
0001
0010
2000
0001
3001
0000
,
0001
0000
0001
0000
0100
0000
0100
0000
0010
0000
1000
0020
0000
0000
0130
0000
,
0001
1000
0100
0010
0002
1000
0000
1003
,
1000
0000
1000
0000
0200
0000
0000
0000
0310
0000
0001
2000
0000
0000
3001
1000
,
0001
0100
1000
0100
0002
1000
1003
0000
,
0001
0000
0010
0000
0100
0000
0010
0000
0001
0000
1000
0020
0000
0000
0130
0000
,
0001
0000
0000
0100
0000
0000
0010
0000
0000
1000
0000
0002
0000
0000
0000
1000
0000
0000
0000
0000
0000
1003
0000
0000
,
1000
0000
0000
0000
0000
0000
0010
0000
0000
0000
0000
0000
0100
0000
0000
0000
0000
0000
0010
0000
0000
0000
0000
0000
1000
0000
0000
0000
0000
0000
0001
0000
0000
0020
0000
0000
0000
0000
0000
0000
0000
0000
0130
0000
0000
0000
1000
0000
,
0100
0010
0001
1000
0002
1000
1003
0001
,
1000
0000
1000
0000
0100
0000
0100
0000
0010
0000
0001
0020
0000
0000
0130
0000
,
1000
0001
0100
0010
2000
0001
0000
3001
,
0001
0000
0001
0000
0100
0000
0100
0000
0010
0000
1000
0002
0000
0000
1003
0000
,
1000
0100
0001
0100
1000
0001
1001
0000
,
1000
0100
0010
0001
1000
0100
0010
0001
,
1000
0010
0100
0001
1000
0010
0100
0001
,
1000
0000
1000
0000
1000
0000
0001
0000
0001
0000
0001
0000
,
0100
0000
0000
0000
0010
0000
0000
0000
0100
0000
0000
0000
0010
0000
0000
0000
0100
0000
0000
0000
0010
0000
0000
0000
1000
0000
0000
0000
0001
0000
0000
0000
1000
0000
0000
0000
0002
0000
0000
0000
0000
0000
0000
0000
0000
0003
0000
0000
,
0011
0000
0000
1100
0000
0000
1010
0000
0000
0101
0000
0001
,
1000
0000
0110
0000
1001
0000
0001
1000
,
0101
0000
0000
0011
0000
0000
1100
0000
0000
1010
0000
1000
,
0001
0000
0000
0000
0000
0000
0110
0000
0000
0000
0000
0000
1001
0000
1000
0000
0001
0000
1000
0000
0000
0001
0000
0000
,
1010
0000
0000
0101
0000
0000
0011
0000
0000
1100
0000
1000
,
0001
0000
0110
0000
1001
0000
1000
0001
,
1100
0000
0000
1010
0000
0000
0101
0000
0000
0011
0000
0001
,
2000
0000
3100
0000
0020
0000
0031
0000
2000
0000
3010
0100
0002
0000
0000
0003
,
1001
0000
0000
0002
0000
0000
0013
0000
0000
2000
0000
0000
3010
0000
0000
0002
0000
0000
0013
0000
0000
0100
1000
0000
,
0001
0200
1300
0200
0301
0200
0310
1000
,
0001
0000
0000
0020
0000
0000
1030
0000
0000
0020
0000
0000
0031
0000
0000
0020
0000
0000
1030
0000
0000
0010
0100
0000
,
1000
0000
0000
0200
0000
0000
0301
0000
0000
0200
0000
0000
1300
0000
0010
0000
0100
0000
0001
0000
0000
1000
0000
0000
,
1001
0000
0000
2000
0000
0000
3010
0000
0000
0002
0000
0000
0013
0000
0000
2000
0000
0000
3010
0000
0000
0100
0001
0000
,
1000
0200
0301
0200
1300
0200
0310
0001
,
1000
0000
0000
0020
0000
0000
0031
0000
0000
0020
0000
0000
1030
0000
0000
0020
0000
0000
0031
0000
0000
0010
0100
0000
,
0001
0000
0100
0000
0010
0000
1000
0000
0001
0000
0010
0100
2000
0000
0000
0000
,
3001
0100
0010
1000
0001
0100
0010
1000
,
0001
0010
0100
1000
0001
0010
0100
1000
,
0001
0010
0001
0010
0100
1000
0100
1000
,
0001
0000
0000
0001
0000
0000
0100
0000
0000
0100
0000
0000
0010
0000
1000
0000
0010
0000
2000
0000
0000
0000
0000
0000
,
3001
0010
0010
0200
0000
1300
0001
0100
0100
0001
1000
1000
,
0100
0000
1000
0000
1000
0000
0200
0000
0000
0000
0310
0000
0001
0000
1000
0000
1000
0000
0010
0000
0000
0100
0000
0000
,
0001
0100
0100
0020
0000
1030
0001
0010
0010
0001
1000
1000
,
0010
0000
1000
0000
0100
0000
0010
0000
0001
0000
0100
0000
0001
0000
1000
0000
0010
0000
0100
0000
0000
0001
0000
0000
,
1000
0100
0100
0020
0000
0031
1000
0010
0010
1000
0001
0001
,
0010
0000
0001
0000
0001
0000
0020
0000
0000
0000
0130
0000
1000
0000
0001
0000
0001
0000
0100
0000
0000
0010
0000
0000
,
1000
0010
0010
0200
0000
0301
1000
0100
0100
1000
0001
0001
,
0200
0000
0310
0000
2000
0000
3001
0000
0020
0000
0130
1000
0002
0000
0000
0000
,
1003
1000
1000
0020
0000
0130
0001
0001
0001
0010
0100
0100
,
1000
0000
1000
0000
1000
0000
0200
0000
0000
0000
0310
0000
0001
0000
0001
0000
0001
0000
0100
0000
0000
0010
0000
0000
,
1000
1000
1000
0002
0000
0013
0100
0100
0100
1000
0001
0001
,
1000
0000
0010
0000
1000
0000
0001
0000
1000
0000
0100
0000
0010
0000
0001
0000
1000
0000
0001
0000
0000
0100
0000
0000
,
0001
0001
0001
0020
0000
0130
1000
1000
1000
0010
0100
0100
,
0001
0000
0001
0000
0001
0000
0200
0000
0000
0000
0310
0000
1000
0000
1000
0000
1000
0000
0100
0000
0000
0010
0000
0000
,
0001
0001
0001
2000
0000
3010
0100
0100
0100
0001
1000
1000
,
0001
0000
0010
0000
0100
0000
1000
0000
0001
0000
0100
0010
2000
0000
0000
0000
,
3001
1000
0001
0010
0000
0100
1000
0001
1000
0001
0000
0100
0001
1000
0001
0010
0100
1000
0100
0010
0001
1000
0001
0100
,
0010
1000
0001
0010
0000
0100
1000
0001
0100
0010
0000
1000
0001
0000
0010
0100
0000
1000
0001
0000
0000
0010
0000
0100
,
1000
0001
1000
0010
0000
0100
0001
1000
0001
1000
0000
0100
1000
0001
1000
0010
0100
0001
0100
0010
1000
0001
1000
0100
,
0010
0001
1000
0010
0000
0100
0001
1000
0100
0010
0000
0001
1000
0000
0010
0100
0000
0001
2000
0000
0000
0000
0000
0000
,
0000
0000
0000
0000
,
0000
3000
0000
0000
;
