#VERSION:0.83;
#TITLE:Paripi Princess;
#SUBTITLE:;
#ARTIST:Shiron;
#TITLETRANSLIT:Paripi Princess;
#SUBTITLETRANSLIT:;
#ARTISTTRANSLIT:;
#GENRE:;
#ORIGIN:;
#CREDIT:;
#BANNER:paripiprincess_bn.png;
#BACKGROUND:paripiprincess_bg.png;
#PREVIEWVID:;
#JACKET:paripiprincess_jacket.png;
#CDIMAGE:;
#DISCIMAGE:;
#LYRICSPATH:;
#CDTITLE:cdtitle.png;
#MUSIC:paripiprincess.ogg;
#OFFSET:0.000000;
#SAMPLESTART:35.695675;
#SAMPLELENGTH:14.594597;
#SELECTABLE:YES;
#BPMS:0.000=148.000;
#STOPS:;
#DELAYS:;
#WARPS:;
#TIMESIGNATURES:0.000=4=4;
#TICKCOUNTS:0.000=4;
#COMBOS:0.000=1;
#SPEEDS:0.000=1.000=0.000=0;
#SCROLLS:0.000=1.000;
#FAKES:;
#LABELS:0.000=Song Start;
#BGCHANGES:;
#KEYSOUNDS:;
#ATTACKS:
;

//---------------dance-single - What is Fire Fire anyway?----------------
#NOTEDATA:;
#CHARTNAME:Hard;
#STEPSTYPE:dance-single;
#DESCRIPTION:What is Fire Fire anyway?;
#CHARTSTYLE:;
#DIFFICULTY:Hard;
#METER:10;
#RADARVALUES:0.714338,0.805354,0.187681,0.060326,0.418932,746.000000,718.000000,28.000000,9.000000,0.000000,0.000000,0.000000,0.000000,0.000000,0.714338,0.805354,0.187681,0.060326,0.418932,746.000000,718.000000,28.000000,9.000000,0.000000,0.000000,0.000000,0.000000,0.000000;
#CREDIT:DigitalBasic;
#NOTES:
0000
0000
0000
0000
,
0000
0000
0000
0000
,
0000
0000
0000
0000
,
0000
0000
0000
0000
,
1000
0100
1000
0010
1000
0100
1000
0001
,
0100
0010
0100
0010
1000
0001
0010
0100
,
0010
0001
0100
0001
0020
0000
0030
0001
,
0100
1000
0100
0010
0200
0000
0300
0000
,
0010
1000
0010
0010
0100
0001
0010
0100
,
0010
0010
0001
0001
1000
1000
0010
0100
,
0110
0100
0001
0000
0001
1000
0100
0000
,
1000
0000
0010
0000
0100
0000
0001
0000
1000
0100
0010
0001
1000
0000
0001
0000
,
0100
0010
0100
0100
0001
0010
0100
0010
,
0001
0001
0100
0100
0010
0010
1000
1000
,
1010
1000
0001
0000
0001
0010
0100
0000
,
0100
1000
0100
0010
0100
1000
0100
0010
,
0001
0100
0010
0100
0001
0100
0010
0100
,
0001
0000
0000
0100
0001
0000
1000
0000
0100
0000
0000
1000
0100
0000
1000
0000
,
0001
0000
0000
0001
0100
0000
0010
0000
1000
0000
0000
1000
0100
0000
0010
0000
,
0001
0010
0001
0000
1000
0010
1000
0000
0001
0100
0001
0000
1000
0100
1000
0000
,
0010
0000
0100
0010
0100
0000
0010
1000
0000
1000
0000
1000
0001
0000
0010
0000
,
0220
0000
0000
0330
,
1000
0100
0010
0000
0001
0010
0100
0000
1000
0100
0010
0000
0001
0100
0010
0000
,
0100
0000
0010
1000
0010
1000
0001
0000
0010
0000
0100
0000
0010
0000
0001
0000
,
0100
0100
0010
0010
1000
0001
0010
0001
,
0100
0010
0100
0000
0001
0000
0010
0000
0100
0010
0100
0000
1000
0000
0010
0000
,
1000
0100
0001
0100
0010
0001
1000
0000
,
0010
0000
0100
0010
0100
0010
1000
0000
0100
0000
1000
0000
0001
0000
0010
0000
,
0001
0001
0100
0100
0010
1000
0001
0010
,
0100
0010
0100
0000
1000
0000
0010
0000
0100
0010
0100
0000
0010
0000
1000
0000
,
1010
0000
0000
1001
0000
0000
0101
0000
1001
0000
1000
0000
0001
1000
0001
1000
,
0001
0000
0010
0100
0010
0001
0010
0000
0001
0000
1000
0000
0010
0000
0001
0000
,
0010
0010
0100
0100
0001
1000
0100
0001
,
0100
1000
0100
0000
0010
0000
0001
0000
0100
1000
0100
0000
0010
0000
1000
0000
,
0001
0100
0010
0001
0010
1000
0001
0000
,
1000
0000
0010
1000
0001
1000
0010
0000
0100
0000
1000
0000
0100
0000
0001
0000
,
0010
0010
0100
0100
1000
0010
1000
0001
,
0100
0001
0100
0000
0010
0000
1000
0000
0100
0001
0100
0000
0010
0000
0001
0000
,
0100
0010
0001
0010
1000
0100
0001
0100
,
0110
0000
0000
0000
0110
0000
0000
0000
1001
0000
1000
0001
1000
0000
0000
0000
,
1000
0000
0100
0000
1000
0000
0010
1000
0000
0010
0000
0100
0001
0000
1000
0000
,
1100
0000
1001
0000
0101
1001
1100
0000
,
0001
0000
0100
0000
0001
0000
0010
0001
0000
0100
0000
0010
1000
0000
0001
0000
,
0011
0000
0000
1001
0000
0000
1000
0010
0100
0001
0000
0000
,
1000
0010
1000
0100
1100
0000
1001
0000
,
0001
0000
0000
0100
0000
0000
0001
0000
0000
0010
0000
0000
0001
0000
0010
0000
0100
0000
1000
0000
0000
0000
0000
0000
,
1000
0000
0100
0000
0001
0000
0000
0001
0000
1000
0000
0010
0001
0000
1000
0000
,
0020
0000
0000
0000
,
0130
0001
0100
0010
1000
0100
0010
0001
,
1000
0000
0010
0100
0010
0000
1000
0000
0100
0000
0010
0000
0100
0000
1000
0000
,
0001
0000
0010
0000
1000
0000
0010
0000
0001
0000
1000
0001
1000
0000
0010
0000
,
0100
0000
0001
0000
0100
0000
1000
0000
0100
0000
0010
1000
0010
0000
0100
0000
,
0010
1000
0100
0010
0001
0100
0010
0100
,
0010
0000
1000
0100
1000
0000
0001
0000
0100
0000
0010
0000
0100
0000
0001
0000
,
0010
0000
1000
0000
0010
0000
0001
0000
1000
0001
1000
0001
1000
0000
0010
0000
,
0100
0000
0001
0000
1000
0000
0100
0000
0010
0000
0100
0010
0001
0000
1000
0000
,
0010
0000
0100
0010
0100
0010
0100
0000
0010
0000
1000
0000
0001
0000
0010
0000
,
0100
0000
0010
0100
0010
0100
0010
0000
0001
0000
1000
0000
0010
0000
0100
0000
,
0001
0000
0100
0001
0100
0000
0010
0100
0010
0000
1000
0010
1000
0000
0001
1000
,
0001
0000
0010
0000
0100
0000
0001
0000
0100
1000
0001
0010
0100
0000
0000
0000
,
1000
0000
0100
1000
0100
1000
0100
0000
0010
0000
0001
0000
0100
0000
0010
0000
,
1000
0000
1000
0000
0001
0000
0001
0000
0100
0000
0010
0000
0100
0000
0000
0100
,
0001
0000
1000
0000
0010
0000
0000
0010
1000
0000
0001
0000
0010
0000
0000
0010
,
0001
0100
1000
0100
0001
0010
0100
0000
,
1100
0000
0000
1000
0100
0000
0000
0000
0011
0000
0011
0000
0000
0000
0000
0000
,
0100
0001
0100
0000
0001
0010
0001
0000
1000
0010
1000
0000
0100
1000
0100
0000
,
0010
0000
0001
0010
0001
0000
0001
0100
0000
0100
0000
0100
0010
0000
0100
0000
,
0220
0000
0000
0330
,
0001
0100
0010
0000
1000
0010
0100
0000
0001
0100
0010
0000
1000
0100
0010
0000
,
0100
0000
0010
0001
0010
0001
1000
0000
0010
0000
0100
0000
0010
0000
1000
0000
,
0100
0100
0010
0010
0001
1000
0010
1000
,
0100
0010
0100
0000
1000
0000
0010
0000
0100
0010
0100
0000
0001
0000
0010
0000
,
0001
0100
1000
0100
0010
1000
0001
0000
,
0010
0000
0100
0010
0100
0010
0001
0000
0100
0000
0001
0000
1000
0000
0010
0000
,
1000
1000
0100
0100
0010
0001
1000
0010
,
0100
0010
0100
0000
0001
0000
0010
0000
0100
0010
0100
0000
0010
0000
0001
0000
,
0011
0000
0000
1001
0000
0000
1100
0000
1001
0000
0001
0000
1000
0001
1000
0001
,
1000
0000
0010
0100
0010
1000
0001
0000
1000
0000
0001
0000
0010
0000
1000
0000
,
0010
0010
0100
0100
1000
0001
0100
1000
,
0100
0001
1000
0000
0100
0000
1000
0000
0001
0100
0010
0000
1000
0000
0001
0000
,
1000
0100
0010
1000
0010
0001
1000
0000
,
0001
0000
0010
0001
1000
0001
0100
0000
0001
0000
1000
0000
0100
0000
1000
0000
,
0010
0010
0100
0100
0001
0010
0001
1000
,
0100
1000
0001
1000
0000
1000
0001
0000
1000
0010
0100
0001
0000
0001
1000
0000
,
0100
0000
0100
0000
0010
0000
0010
0000
0001
0010
0100
0000
1000
0010
0100
0000
,
0001
0010
0100
0000
1000
0010
0100
0000
0001
0010
0100
0000
1000
0010
0100
0000
,
0001
0010
0100
0000
1000
0010
0100
0000
0001
0010
0100
1000
0001
1000
0010
0100
,
0001
1000
0000
0001
1000
0000
0100
0010
0000
0100
0010
0000
0100
0000
0010
0000
,
0000
2002
0000
0000
,
3003
0000
0000
0000
;

//---------------dance-single - ----------------
#NOTEDATA:;
#CHARTNAME:;
#STEPSTYPE:dance-single;
#DESCRIPTION:;
#CHARTSTYLE:;
#DIFFICULTY:Easy;
#METER:4;
#RADARVALUES:0.271947,0.354919,0.100544,0.194384,0.000000,284.000000,269.000000,15.000000,29.000000,0.000000,0.000000,0.000000,0.000000,0.000000,0.271947,0.354919,0.100544,0.194384,0.000000,284.000000,269.000000,15.000000,29.000000,0.000000,0.000000,0.000000,0.000000,0.000000;
#CREDIT:;
#NOTES:
0000
0000
0000
0000
,
0000
0000
0000
0000
,
0000
0000
0000
0000
,
0000
0000
0000
0000
,
0020
0000
0230
0000
,
0302
0000
0023
0000
,
0230
0000
2300
0000
,
3001
0000
0000
0000
,
1000
1000
1000
0000
,
0010
0100
0001
1000
,
0100
0000
0100
0000
,
1000
0001
0100
0010
,
0100
0100
0100
0000
,
0001
0010
0100
1000
,
0010
0000
0010
0000
,
0100
0001
0010
0100
,
0110
0000
1000
0000
,
1100
0000
0101
0000
,
0011
0000
1010
0000
,
1000
0010
0001
0100
,
2000
0000
3000
1000
,
1001
0000
0000
0000
,
2000
0000
0000
0000
,
3010
0100
0010
1000
,
0001
0001
1000
1000
,
0100
0010
0001
0010
,
0100
1000
0010
0100
,
0001
1000
0001
0010
,
0100
0100
0010
0010
,
0001
0100
0010
0100
,
0001
0100
1000
0010
,
0001
1000
0001
0010
,
0001
0001
0100
0100
,
0010
1000
0010
0100
,
0001
0010
0100
0010
,
0100
1000
0100
0010
,
0100
0100
1000
1000
,
0010
0100
0010
1000
,
0001
0010
0001
1000
,
1001
1001
1001
0000
,
2000
0100
0001
0010
,
3100
0100
0010
0010
,
0002
0100
1000
0010
,
0103
0100
0010
0010
,
1000
0001
1001
1001
,
1000
0001
0220
0330
,
0001
0100
1000
0010
,
0001
0000
0000
0000
,
2000
0000
3200
0000
,
0320
0000
0032
0000
,
0203
0000
0320
0000
,
2030
0000
3002
0000
,
0023
0000
2030
0000
,
3020
0000
0032
0000
,
0203
0000
2300
0000
,
3200
0000
0320
0000
,
1030
0100
1000
0000
,
0001
0100
0001
0000
,
1000
0010
0001
0100
,
1000
0010
0100
0001
,
0100
0001
0100
0000
,
0010
1000
0010
0000
,
1000
0100
0001
0010
,
1000
0000
0000
0000
,
1001
0000
0110
0000
,
0001
0100
1000
0010
,
0001
0100
1000
0010
,
0001
0000
0000
0000
,
0002
0000
0000
0000
,
0013
0100
0010
0001
,
1000
1000
0001
0001
,
0100
0010
1000
0010
,
0100
0001
0010
0100
,
1000
0001
1000
0010
,
0100
0100
0010
0010
,
1000
0100
0010
0100
,
1000
0100
0001
0010
,
1000
0001
1000
0010
,
1000
1000
0100
0100
,
0010
0001
0010
0100
,
1000
0010
0100
0010
,
0100
0001
0100
0010
,
0100
0100
0001
0001
,
0010
0100
0010
0001
,
1000
0010
1000
0001
,
1000
0100
0001
0010
,
1000
0010
0001
0100
,
1000
0000
0000
0000
,
0000
0110
0000
0000
;

//---------------dance-single - ----------------
#NOTEDATA:;
#CHARTNAME:;
#STEPSTYPE:dance-single;
#DESCRIPTION:;
#CHARTSTYLE:;
#DIFFICULTY:Medium;
#METER:7;
#RADARVALUES:0.435689,0.505651,0.100544,0.087138,0.013406,455.000000,440.000000,15.000000,13.000000,0.000000,0.000000,0.000000,0.000000,0.000000,0.435689,0.505651,0.100544,0.087138,0.013406,455.000000,440.000000,15.000000,13.000000,0.000000,0.000000,0.000000,0.000000,0.000000;
#CREDIT:;
#NOTES:
0000
0000
0000
0000
,
0000
0000
0000
0000
,
0000
0000
0000
0000
,
0000
0000
0000
0000
,
1000
0100
0010
0100
,
1000
0010
0100
1000
,
0100
0010
0200
0000
,
0301
0010
0200
0000
,
1300
0000
0010
0100
0010
0000
1000
0000
,
0001
0100
0001
0000
1000
0100
1000
0000
,
0100
0010
0100
0010
,
0001
0100
0010
0000
0100
0010
1000
0000
,
0100
0000
1000
0001
1000
0000
0001
0000
,
1000
0010
1000
0000
0001
0010
0001
0000
,
0010
0100
0010
0100
,
0100
1000
0010
0000
0010
0100
0001
0000
,
0101
0000
0001
0000
1000
0100
1000
0000
,
1100
1000
1010
0010
,
0011
0001
0101
0100
,
1000
0010
0001
0000
0001
0010
1000
0000
,
1000
0100
0001
0100
1000
0000
0001
1000
,
1001
0000
0000
0000
,
0002
0010
0100
0010
,
0103
0010
0100
0000
0010
0000
1000
0000
,
1000
0100
0010
0000
0010
0100
1000
0000
,
0100
1000
0001
0000
1000
0010
0100
0000
,
0010
0000
1000
0000
0100
0001
0100
0000
,
1000
0010
1000
0000
0001
0000
0010
0000
,
0001
0100
0010
0000
0010
0100
0001
0000
,
0100
0010
1000
0000
0100
0010
0001
0000
,
0001
0000
0000
1000
0000
0000
0100
0000
1000
0000
0010
0000
1000
0000
0000
0000
,
0001
0100
1000
0100
0001
0000
0010
0000
,
0001
0010
1000
0000
1000
0010
0001
0000
,
0010
0001
0100
0000
0010
0001
0100
0000
,
1000
0000
0010
0000
0100
0010
0010
0000
,
1000
0010
0001
0010
1000
0000
0010
0000
,
1000
0100
0001
0000
0001
0100
1000
0000
,
0010
1000
0100
0000
0010
1000
0100
0000
,
0001
1000
0001
0000
0010
0100
0010
0000
,
0110
0000
0110
0000
1001
0001
1000
0000
,
1000
0100
1000
0100
1000
0010
0100
0001
,
0100
0000
0100
0000
0010
1000
0001
0000
,
0001
0010
0001
0010
0001
0010
0100
0010
,
0100
0000
0100
0000
0010
0001
1000
0000
,
1000
0001
1000
0001
1001
0000
1001
0000
,
0010
0100
0010
0100
0020
0000
0130
0000
,
0100
1000
0100
0000
0010
0001
0010
0000
,
2002
0000
0000
3003
,
1000
0010
0100
0010
,
1000
0001
0010
0100
,
0001
0100
0010
0001
,
1000
0010
0100
1000
,
0100
0010
1000
0001
,
0010
0100
0001
0100
,
0010
0001
0200
0000
,
0310
1000
0200
0000
,
1300
0000
0100
1000
0010
0000
0100
0000
,
0001
0000
0010
0001
0100
0000
0010
1000
,
0100
0000
0010
0001
0100
0000
0010
1000
,
0100
0000
1000
0000
0001
0100
0001
0000
,
0100
0000
0001
0100
0010
0000
1000
0000
,
0100
0010
0001
0000
1000
0100
0010
0000
,
0001
0100
1000
0000
1000
0010
0001
0000
,
2002
0000
0000
3003
,
1001
0000
0000
0000
1000
0100
0000
0000
,
0010
0001
0100
1000
0100
0010
0001
0010
,
1000
0100
0001
0100
0010
1000
0010
0001
,
1000
0000
0000
0000
,
2000
0010
0100
0010
,
3100
0010
0100
0000
0010
0000
0001
0000
,
0001
0100
0010
0000
0010
0100
0001
0000
,
0100
0001
1000
0000
0001
0010
0100
0000
,
0010
0000
0001
0000
0100
1000
0100
0000
,
0001
0010
0001
0000
1000
0000
0010
0000
,
1000
0100
0010
0000
0010
0100
1000
0000
,
0100
0010
0001
0000
0100
0010
1000
0000
,
1000
0000
0000
0001
0000
0000
0100
0000
0001
0000
0010
0000
0001
0000
0000
0000
,
1000
0100
0001
0100
1000
0000
0010
0000
,
1000
0010
0001
0000
0001
0010
1000
0000
,
0010
1000
0100
0000
0010
1000
0100
0000
,
0001
0000
0010
0000
0100
0010
0010
0000
,
0001
0010
1000
0010
0001
0000
0010
0000
,
0001
0100
1000
0000
1000
0100
0001
0000
,
0010
0001
0100
0000
0010
0001
0100
0000
,
1000
0001
1000
0010
0100
0010
0100
0001
,
1000
0100
0001
1000
0010
0001
0100
1000
,
0001
0010
1000
0001
0100
0010
1000
0100
,
0010
0000
0000
0100
0000
0000
0010
0000
0000
0100
0000
0000
0010
0000
0100
0000
,
0000
2002
0000
3003
;

//---------------dance-single - ----------------
#NOTEDATA:;
#CHARTNAME:Very Hard;
#STEPSTYPE:dance-single;
#DESCRIPTION:;
#CHARTSTYLE:;
#DIFFICULTY:Challenge;
#METER:13;
#RADARVALUES:1.006394,1.073806,0.147464,0.060326,1.360690,1051.000000,1029.000000,22.000000,9.000000,0.000000,1.000000,0.000000,0.000000,0.000000,1.006394,1.073806,0.147464,0.060326,1.360690,1051.000000,1029.000000,22.000000,9.000000,0.000000,1.000000,0.000000,0.000000,0.000000;
#CREDIT:DigitalBasic;
#OFFSET:0.000000;
#BPMS:0.000000=148.000000
;
#STOPS:;
#DELAYS:;
#WARPS:;
#TIMESIGNATURES:0.000000=4=4
;
#TICKCOUNTS:0.000000=4
;
#COMBOS:0.000000=1
;
#SPEEDS:0.000000=1.000000=0.000000=0
;
#SCROLLS:0.000000=0.750000
,28.000000=0.500000
,32.000000=1.000000
,188.000000=0.250000
,192.000000=0.750000
,224.000000=0.900000
,252.000000=1.000000
,352.000000=0.250000
,353.000000=2.000000
;
#FAKES:;
#LABELS:0.000000=Song Start
;
#NOTES:
// measure 0
0000
0000
0000
0000
,  // measure 1
0000
0000
0000
0000
,  // measure 2
0000
0000
0000
0000
,  // measure 3
0000
0000
0000
0000
,  // measure 4
0001
0100
1000
0100
0010
0100
0001
0010
,  // measure 5
0100
0000
0000
0010
0100
0010
0100
0000
0000
0010
0000
0000
0001
0000
0000
1000
0000
0000
0100
0000
0000
0001
0000
0000
,  // measure 6
0100
0000
0000
0010
0000
0000
0001
0000
0000
0100
0000
0000
0010
0100
0010
0100
0010
0100
0010
0000
0000
0100
0000
0000
,  // measure 7
1000
0000
0000
0001
0000
0000
0010
0000
0000
1000
0000
0000
0100
0010
0100
0010
0100
0010
0100
0000
0000
0000
0000
0000
,  // measure 8
1000
0000
0001
0100
0010
0100
0001
0010
0100
0010
0001
0100
0010
0100
0001
1000
,  // measure 9
0010
0000
0010
0000
0100
0000
0100
0000
0001
0010
0001
1000
0010
0000
0010
0100
,  // measure 10
0001
1000
0010
0100
0001
0000
0001
0010
0100
1000
0001
0010
0100
0000
0100
1000
,  // measure 11
0010
0100
0001
0100
0010
1000
0100
0010
0100
1000
0001
0100
0010
0000
0010
0000
,  // measure 12
0100
0000
0010
1000
0010
0100
0010
1000
0100
0010
0100
1000
0010
0100
0010
0000
,  // measure 13
1000
0000
1000
0000
0001
0000
0001
0000
0010
0001
0010
0100
1000
0000
1000
0000
,  // measure 14
0010
1000
0001
0100
0010
0000
0010
1000
0100
0010
0001
1000
0010
0000
0010
0100
,  // measure 15
0010
1000
0010
0100
0010
1000
0010
0100
0010
1000
0100
0010
0100
1000
0100
0000
,  // measure 16
0010
0001
0010
0100
0010
0001
0010
0100
0010
0001
0100
0010
0100
0001
0100
0000
,  // measure 17
0001
0100
0010
0100
0001
1000
0100
1000
0010
1000
0100
1000
0010
0100
0001
1000
,  // measure 18
0001
0100
0001
1000
0100
0010
0001
0010
0100
1000
0010
0100
0010
1000
0001
0010
,  // measure 19
0001
1000
0100
0010
0001
0100
0010
1000
0001
0100
0010
1000
0100
0010
0100
0000
,  // measure 20
0010
0000
0100
0100
0100
0000
0010
0001
0000
0001
0000
0001
1000
0000
1000
0000
,  // measure 21
2002
0000
3003
0000
,  // measure 22
1000
0000
0010
0000
1000
0010
1000
0000
0001
0000
0010
0000
0001
0010
0001
0000
1000
0000
0100
0000
1000
0100
1000
0000
0001
0000
0100
0000
0001
0000
0000
0000
,  // measure 23
0100
0000
0010
1000
0010
0100
0001
0010
0100
0010
0001
1000
0010
0100
0010
0000
,  // measure 24
0100
0000
0100
0000
0010
0000
0010
0000
1000
0010
0001
0010
1000
0000
0100
0010
,  // measure 25
0100
0010
0001
0010
0100
0000
1000
0010
0100
0010
1000
0010
0100
0000
0010
1000
,  // measure 26
0100
1000
0001
0010
0100
0010
0001
0010
1000
0010
0001
1000
0010
0000
0000
0000
,  // measure 27
0010
0000
1000
0010
0100
0001
0010
0100
1000
0100
0010
0001
0100
0010
0100
0000
,  // measure 28
0010
0000
0010
0000
0100
0000
0100
0000
0001
0100
1000
0100
0001
0000
0010
0100
,  // measure 29
0010
0001
0010
0100
1000
0000
0001
0100
0010
0100
0001
1000
0010
0000
1000
0010
,  // measure 30
0100
0000
0001
0000
1000
0000
0010
0000
0100
0000
0001
0000
0010
0000
0100
0000
1000
0000
0001
0000
0010
0100
0010
0000
0001
0000
1000
0000
0001
0000
0100
0000
,  // measure 31
0001
0000
0010
0001
0010
0100
1000
0010
0100
0010
1000
0001
0010
0100
0010
0000
,  // measure 32
0100
0000
0100
0000
0010
0000
0010
0000
0001
0010
1000
0010
0001
0000
0100
0010
,  // measure 33
0100
0010
1000
0010
0100
0000
0001
0010
0100
0010
0001
0010
0100
0000
0010
0001
,  // measure 34
0100
0001
1000
0010
0100
0010
1000
0010
0001
0010
1000
0001
0010
0000
0000
0000
,  // measure 35
0010
0000
0001
0010
0100
1000
0010
0100
0001
0100
0010
1000
0100
0010
0100
0000
,  // measure 36
0010
0000
0010
0000
0100
0000
0100
0000
1000
0100
0001
0100
1000
0000
0010
0100
,  // measure 37
0010
1000
0010
0100
0001
0000
1000
0100
0010
0100
1000
0001
0010
0000
0001
0010
,  // measure 38
0100
1000
0001
0010
0100
1000
0010
0100
0001
1000
0010
0100
0001
1000
0001
1000
,  // measure 39
1001
0000
0000
0000
0000
0000
0000
0000
1001
0000
0000
0000
0000
0000
0000
0000
1001
0000
0000
0000
1000
0001
1000
0001
1000
0000
0000
0000
0000
0000
0000
0000
,  // measure 40
1000
0000
0100
0000
0010
0000
0100
0010
0000
0010
0000
0010
1000
0000
0001
0000
,  // measure 41
0101
0001
1001
1000
1100
1100
1100
0000
,  // measure 42
0001
0000
0100
0000
0010
0000
0100
0010
0000
0010
0000
0010
0001
0000
1000
0000
,  // measure 43
1100
0000
0000
1000
0000
0000
1001
0000
0000
0001
0000
0000
0101
0000
0001
0000
0100
0000
0110
0000
0000
0000
0000
0000
,  // measure 44
1000
0010
0100
0001
0202
0000
1010
0303
,  // measure 45
0001
0000
0000
0010
0000
0000
0100
0000
0000
1000
0000
0000
1100
0000
1000
0000
0001
0000
0101
0000
0000
0000
0000
0000
,  // measure 46
0001
0000
0000
0000
0010
0000
0000
0000
0100
0000
0000
0000
0100
0000
0010
0000
0000
0000
0010
0000
0000
0000
0010
0000
1000
0000
0000
0000
0010
0100
0010
0100
,  // measure 47
0020
0000
0000
0000
,  // measure 48
1030
0010
0001
0010
0100
0010
1000
0100
,  // measure 49
0010
0000
0000
0100
0010
0100
0010
0000
0000
0100
0000
0000
1000
0000
0000
0001
0000
0000
0010
0000
0000
1000
0000
0000
,  // measure 50
0010
0000
0000
0100
0000
0000
1000
0000
0000
0010
0000
0000
0100
0000
0000
0010
0100
0010
0100
0000
0000
0010
0000
0000
,  // measure 51
1000
0000
0000
0100
0000
0000
0001
0000
0000
0100
0000
0000
1000
0000
0000
0010
0100
0010
0100
0000
0000
0001
0000
0000
,  // measure 52
0001
0100
1000
0100
0010
0100
0001
0010
,  // measure 53
0100
0000
0000
0010
0100
0010
0100
0000
0000
0010
0000
0000
0001
0000
0000
1000
0000
0000
0100
0000
0000
0001
0000
0000
,  // measure 54
0100
0000
0000
0010
0000
0000
0001
0000
0000
0100
0000
0000
0010
0100
0010
0100
0010
0100
0010
0000
0000
0100
0000
0000
,  // measure 55
1000
0000
0000
0001
0000
0000
0010
0000
0000
1000
0000
0000
0100
0000
0000
0010
0100
0010
0100
0010
0100
0010
0100
0010
,  // measure 56
0100
0000
0100
1000
0100
0010
0100
1000
0001
0000
0001
0100
0010
0100
0001
0100
,  // measure 57
0010
0000
1000
0100
0010
0100
1000
0000
0010
0000
0100
0001
0100
0000
0001
0100
,  // measure 58
0010
0000
1000
0100
0010
0000
0001
0100
0010
1000
0010
0100
0010
0000
1000
0100
,  // measure 59
0010
0001
0010
0100
0001
0100
1000
0100
1000
0010
0100
0010
1000
0000
0000
0000
,  // measure 60
1000
0000
0100
0010
0001
0010
0100
0010
0001
0000
1000
0010
0100
0010
1000
0010
,  // measure 61
0100
0000
0001
0010
0100
0010
0001
0000
0100
0000
0010
1000
0001
0000
0100
0001
,  // measure 62
1000
0000
0010
0100
0001
0000
0010
0100
0010
0001
0010
0100
0010
0000
0010
0001
,  // measure 63
0100
0010
0100
0001
0100
0010
0100
0001
0100
0010
1000
0100
0010
0001
1000
0000
,  // measure 64
1100
1000
0001
0100
0010
0100
0010
0000
0110
0000
0110
0000
0010
0100
0001
0000
,  // measure 65
0100
0000
0001
0000
0100
0001
0100
0000
0001
0000
0010
0000
0001
0010
0001
0000
1000
0000
0010
0000
1000
0010
1000
0000
0100
0000
1000
0000
0100
1000
0100
0000
,  // measure 66
0010
0000
0100
0100
0100
0000
0010
0001
0000
0001
0000
0001
1000
0000
1000
0000
,  // measure 67
2002
0000
3003
0000
,  // measure 68
0001
0000
0010
0000
0001
0010
0001
0000
1000
0000
0010
0000
1000
0010
1000
0000
0001
0000
0100
0000
0001
0100
0001
0000
1000
0000
0100
0000
1000
0000
0000
0000
,  // measure 69
0100
0000
0010
0001
0010
0100
1000
0010
0100
0010
1000
0001
0010
0100
0010
0000
,  // measure 70
0100
0000
0100
0000
0010
0000
0010
0000
0001
0010
1000
0010
0001
0000
0100
0010
,  // measure 71
0100
0010
1000
0010
0100
0000
0001
0010
0100
0010
0001
0010
0100
0000
0010
0001
,  // measure 72
0100
0001
1000
0010
0100
0010
1000
0010
0001
0010
1000
0001
0010
0000
0000
0000
,  // measure 73
0010
0000
0001
0010
0100
1000
0010
0100
0001
0100
0010
1000
0100
0010
0100
0000
,  // measure 74
0010
0000
0010
0000
0100
0000
0100
0000
1000
0100
0001
0100
1000
0000
0010
0100
,  // measure 75
0010
1000
0010
0100
0001
0000
1000
0100
0010
0100
1000
0001
0010
0000
0001
0010
,  // measure 76
0100
0000
1000
0000
0001
0000
0010
0000
0100
0000
1000
0000
0010
0000
0100
0000
0001
0000
1000
0000
0010
0100
0010
0000
1000
0000
0001
0000
1000
0000
0100
0000
,  // measure 77
1000
0000
0010
1000
0010
0100
0001
0010
0100
0010
0001
1000
0010
0100
0010
0000
,  // measure 78
0100
0000
0100
0000
0010
0000
0010
0000
0001
0010
1000
0010
0001
0000
0100
0010
,  // measure 79
0100
0010
1000
0010
0100
0000
0001
0010
0100
0010
0001
0010
0100
0000
0010
0001
,  // measure 80
0100
0001
1000
0010
0100
0010
1000
0010
0001
0010
1000
0001
0010
0000
0000
0000
,  // measure 81
0010
0000
0001
0010
0100
1000
0010
0100
0001
0100
0010
1000
0100
0010
0100
0000
,  // measure 82
0010
0000
0010
0000
0100
0000
0100
0000
1000
0100
0001
0100
1000
0000
0010
0100
,  // measure 83
0010
1000
0010
0100
0000
0010
1000
0100
0010
0001
0010
0100
0000
0100
0010
0001
,  // measure 84
1000
0010
0100
0010
1000
0001
0010
0100
1000
0100
0010
0001
1000
0010
0100
0000
,  // measure 85
0001
0010
0100
1000
0010
0100
0001
0100
0010
1000
0001
0010
0100
0010
0001
1000
,  // measure 86
0100
0010
0100
1000
0001
1000
0010
0100
0010
1000
0100
0010
0001
0100
0010
0100
,  // measure 87
0001
0010
0000
0100
1000
0000
0010
1000
0000
0001
0100
0000
0010
0000
0100
0000
,  // measure 88
0100
2002
0000
0000
,  // measure 89
3003
0000
0000
0000
;
