#VERSION:0.83;
#TITLE:Happy Halloween;
#SUBTITLE:;
#ARTIST:Junky feat.鏡音リン;
#TITLETRANSLIT:;
#SUBTITLETRANSLIT:;
#ARTISTTRANSLIT:;
#GENRE:;
#ORIGIN:;
#CREDIT:;
#BANNER:[Summerween] - Happy Halloween.png;
#BACKGROUND:[Summerween] - Happy Halloween-bg.png;
#PREVIEWVID:;
#JACKET:[Summerween] - Happy Halloween-jacket.png;
#CDIMAGE:;
#DISCIMAGE:;
#LYRICSPATH:;
#CDTITLE:;
#MUSIC:[Summerween] - Happy Halloween.ogg;
#OFFSET:-0.005000;
#SAMPLESTART:80.004997;
#SAMPLELENGTH:16.000000;
#SELECTABLE:YES;
#BPMS:0.000=120.000;
#STOPS:;
#DELAYS:;
#WARPS:;
#TIMESIGNATURES:0.000=4=4;
#TICKCOUNTS:0.000=4;
#COMBOS:0.000=1;
#SPEEDS:0.000=1.000=0.000=0;
#SCROLLS:0.000=1.000;
#FAKES:;
#LABELS:0.000=Song Start;
#BGCHANGES:;
#KEYSOUNDS:;
#ATTACKS:
;

//---------------dance-single - ----------------
#NOTEDATA:;
#CHARTNAME:;
#STEPSTYPE:dance-single;
#DESCRIPTION:;
#CHARTSTYLE:;
#DIFFICULTY:Hard;
#METER:7;
#RADARVALUES:0.246969,0.276489,0.060741,0.065414,0.051396,370.000000,357.000000,13.000000,14.000000,0.000000,0.000000,0.000000,0.000000,0.000000,0.246969,0.276489,0.060741,0.065414,0.051396,370.000000,357.000000,13.000000,14.000000,0.000000,0.000000,0.000000,0.000000,0.000000;
#CREDIT:;
#NOTES:
0000
0000
0000
0000
,
0000
0000
0000
0000
,
0000
0000
0000
0000
,
0000
0000
0000
0000
1001
0110
1001
0000
,
0001
0000
1000
0010
1000
0000
0100
1000
,
0100
0000
1000
0001
1000
0000
0010
0000
,
0100
0000
0001
0010
0001
0000
1000
0100
,
1000
0000
0001
0100
0001
0000
0020
0000
,
0130
0000
0010
0001
0100
0000
0010
1000
,
0100
0000
1000
0010
0100
0000
0001
0000
,
1000
0000
0001
0010
0100
0000
0010
0001
,
0100
0000
0010
0100
0001
1000
0200
0000
,
0310
0000
0000
0001
0100
0000
0000
0001
,
1000
0100
1000
0001
0100
0001
0010
0100
,
1000
0000
0000
0000
0000
0000
0100
0000
0010
0000
0000
0000
0000
0000
0100
1000
,
0100
0000
1000
0010
0100
0000
0002
0000
,
0103
0000
0000
0010
1000
0000
0000
0010
,
1000
0010
0100
0001
0010
0100
0010
0001
,
1000
0000
0000
0001
0010
0000
0000
0100
,
0010
0001
0100
1000
0100
0010
1000
0001
,
0011
0000
0001
1000
0010
0000
1000
0001
,
0100
0000
0010
1000
0100
0000
1001
0000
,
0110
0000
0100
0010
1000
0000
0010
0100
,
0001
0000
1000
0000
0001
1000
0020
0000
,
0130
0000
0000
0010
0100
0000
0000
0010
,
0100
0010
1000
0001
0010
0001
1000
0100
,
0010
0000
0000
0100
1000
0000
0000
0100
,
0010
0001
0100
1000
0100
0000
1001
0000
,
0001
0000
0000
0100
0010
0000
0000
0100
,
0010
1000
0010
0100
0001
0010
0001
1000
,
0100
0000
0000
1000
0001
0000
0000
0100
,
0001
0000
0000
0010
0100
0000
0000
0000
,
0010
0010
0001
0001
,
1000
1000
0100
0100
,
1000
1000
0001
0001
,
1000
0010
0100
0001
2000
0000
3002
0000
,
0103
0000
0000
0010
1000
0000
0000
0010
,
0100
0000
0000
0010
0001
0000
0000
0010
,
0100
0000
0000
0010
1000
0000
0020
0000
,
1030
0100
0010
0001
1001
0110
1001
0000
,
0001
0000
0100
0000
0010
0000
1000
0000
0001
0000
0000
0010
0000
0000
0001
0000
,
1000
0000
0010
0000
0100
0000
0001
0000
1000
0000
0000
0001
0000
0000
0000
0000
,
0100
0000
0010
0000
1000
0000
0100
0000
0010
0000
0000
0100
0000
0000
0010
0000
,
0001
0000
0000
0100
0000
0000
0010
0000
2000
0000
0000
3002
0000
0000
2003
0000
,
3100
0000
1000
0000
0010
0000
0100
0000
0001
0000
0000
0010
0000
0000
0001
0000
,
1000
0000
0010
0000
1000
0000
0001
0000
0010
0000
0000
0100
0000
0000
0000
0000
,
0010
0000
0001
0000
1000
0000
0100
0000
1000
0000
0000
0001
0000
0000
0100
0000
,
0001
0010
1000
0010
0001
0000
0000
0000
,
1000
0000
0001
0000
0100
0000
0001
0000
1000
0000
0000
0010
0000
0000
0100
0000
,
0010
0000
1000
0000
0010
0000
0100
0000
0001
0000
0000
1000
0000
0000
0000
0000
,
0001
0000
0010
0000
0001
0000
0100
0000
0010
0000
0000
1000
0000
0000
0010
0000
,
0100
0000
0000
0010
0000
0000
1000
0000
0002
0000
0000
0023
0000
0000
0230
0000
,
0310
0000
0001
0000
0100
0000
0001
0000
1000
0000
0000
0100
0000
0000
1000
0000
,
0010
0000
0000
0100
0000
0000
0010
0000
1000
0000
0000
0001
0000
0000
0000
0000
,
0010
0000
0001
0000
0100
0000
0010
0000
1000
0000
0000
0001
0000
0000
1000
0000
,
0100
0001
0100
1000
0001
0000
0000
0000
,
1000
0000
0010
0000
0100
0000
0001
0000
0010
0000
0000
0100
0000
0000
0010
0000
,
0001
0000
0010
0001
1000
0000
1001
0000
,
1000
0000
0010
0000
0100
0000
0001
0000
1000
0000
0000
0100
0000
0000
1000
0000
,
0010
0000
1000
0010
0100
0001
0020
0000
,
0031
0000
1000
0000
0010
0000
1000
0000
0100
0000
0000
0010
0000
0000
0001
0000
,
0100
0000
0001
0100
0010
0000
1001
0000
,
1000
0000
0001
0000
0010
0000
0100
0000
0010
0000
0000
0001
0000
0000
1000
0000
,
0001
0010
1000
0010
0001
0000
0000
1000
,
0100
0001
0100
1000
0001
0000
0000
1000
,
0001
0100
1000
0010
0001
0000
1001
0000
;

//---------------dance-single - ----------------
#NOTEDATA:;
#CHARTNAME:;
#STEPSTYPE:dance-single;
#DESCRIPTION:;
#CHARTSTYLE:;
#DIFFICULTY:Medium;
#METER:5;
#RADARVALUES:0.199578,0.215047,0.140172,0.009345,0.004672,299.000000,269.000000,30.000000,2.000000,0.000000,0.000000,0.000000,0.000000,0.000000,0.199578,0.215047,0.140172,0.009345,0.004672,299.000000,269.000000,30.000000,2.000000,0.000000,0.000000,0.000000,0.000000,0.000000;
#CREDIT:;
#NOTES:
0000
0000
0000
0000
,
0000
0000
0000
0000
,
0000
0000
0000
0000
,
0000
0000
0000
0000
0001
1000
1001
0000
,
0001
0011
0001
1001
,
1000
1100
1000
1001
,
1000
1010
0010
0110
,
0100
0000
0101
0000
0001
1000
0020
0000
,
0130
0110
0001
1001
,
1000
1010
0010
0110
,
0100
0101
0001
0011
,
0010
0000
0110
0000
0100
0010
0001
0000
,
1000
0000
0000
0001
0010
0000
0000
0001
,
0010
0001
1000
0100
,
1000
0000
0000
0010
1000
0000
0000
0010
,
0100
0000
0010
1000
0001
0000
0000
0000
,
0100
0000
0000
0010
0100
0000
0000
0010
,
0100
0001
0010
0001
,
1000
0000
0000
0010
1000
0000
0000
0010
,
1000
0010
0100
0001
,
1000
1001
0001
0011
,
0010
0110
0100
1100
,
1000
1001
0001
0011
,
0010
0000
0110
0000
0100
0010
0002
0000
,
0103
0000
0000
0010
1000
0000
0000
0010
,
0100
0010
1000
0001
,
0010
0000
0000
0100
0010
0000
0000
0010
,
0100
0010
0001
0000
,
0100
0000
0000
0010
0100
0000
0000
0010
,
0100
0001
0010
0001
,
1000
0000
0000
0010
1000
0000
0000
0010
,
0100
0000
0000
0000
,
0010
1000
0010
1000
,
0001
0100
0001
0100
,
0001
0010
0001
0010
,
0100
1000
0100
0100
,
1000
0000
0001
0000
,
0100
0000
0010
0000
,
1000
0010
0100
0001
,
1000
0000
0100
0000
0010
0001
1001
0000
,
0010
0000
1000
0000
0010
1000
0100
0000
,
0010
0000
0001
0000
0010
0001
1000
0000
,
0001
0000
0100
0000
0010
0100
0010
0000
,
1000
0000
0000
0010
0000
0000
0100
0000
0001
0000
0000
0000
0000
0000
0000
0000
,
1000
0000
0001
0000
0100
0001
0010
0000
,
0100
0000
1000
0000
0100
0010
0001
0000
,
0010
0000
0100
0000
1000
0001
1000
0000
,
0001
0010
0100
1000
0001
0000
0000
0000
,
0100
0000
0010
0000
0100
0010
1000
0000
,
0001
0000
0010
0000
0100
0010
0001
0000
,
1000
0000
0001
0000
0100
0001
0010
0000
,
0100
0000
0000
0010
0000
0000
0001
0000
1000
0000
0000
0000
0000
0000
0000
0000
,
0001
0000
0100
0000
0010
1000
0100
0000
,
0010
0000
0100
0000
0010
0001
1000
0000
,
0010
0000
1000
0000
0010
0100
0001
0000
,
1000
0100
0010
0001
1000
0000
0000
0000
,
0001
0000
0010
0000
0100
0010
0001
0000
,
1001
1000
1001
0001
,
1000
0000
0010
0000
0100
0010
1000
0000
,
1001
0001
1001
1000
,
0010
0000
0100
0000
0010
1000
0100
0000
,
0110
0010
0110
0100
,
0010
0000
0001
0000
0100
0010
1000
0000
,
0001
0010
0100
1000
0001
0000
0000
0000
,
1000
0100
0010
0001
1000
0000
0000
0000
,
0001
0100
0010
1000
0001
0000
0110
0000
;

//---------------dance-single - ----------------
#NOTEDATA:;
#CHARTNAME:;
#STEPSTYPE:dance-single;
#DESCRIPTION:;
#CHARTSTYLE:;
#DIFFICULTY:Easy;
#METER:3;
#RADARVALUES:0.119480,0.153605,0.042052,0.000000,0.000000,179.000000,170.000000,9.000000,0.000000,0.000000,0.000000,0.000000,0.000000,0.000000,0.119480,0.153605,0.042052,0.000000,0.000000,179.000000,170.000000,9.000000,0.000000,0.000000,0.000000,0.000000,0.000000,0.000000;
#CREDIT:;
#NOTES:
0000
0000
0000
0000
,
0000
0000
0000
0000
,
0000
0000
0000
0000
,
0000
0000
0000
0000
,
1000
0000
0001
0000
,
1000
0000
0001
1000
,
0010
0000
0100
0000
,
0010
0000
0100
0010
,
1000
0000
0100
0000
,
1000
0000
0100
1000
,
0001
0000
0100
0000
,
0001
0000
0100
0001
,
0010
0000
0010
0000
,
0010
0001
1000
0010
,
0100
0000
0100
0000
,
0100
0010
1000
0000
,
0001
0000
0001
0000
,
0001
1000
0010
1000
,
0100
0000
0100
0000
,
0100
0010
0001
1000
,
1001
0000
0001
0000
,
1000
0000
0010
1000
,
0010
0000
0100
0000
,
0001
0000
1000
0001
,
0010
0000
0010
0000
,
0010
0001
0100
0001
,
1000
0000
1000
0000
,
0100
1000
0010
0000
,
0100
0000
0100
0000
,
0100
0010
1000
0001
,
0010
0000
0010
0000
,
0110
0000
0000
0000
,
0010
0000
0001
0000
,
0100
0000
0001
0000
,
1000
0000
0001
0000
,
1000
0000
0010
0100
,
0010
0000
1000
0000
,
0001
0000
0100
0000
,
0010
0000
0100
0000
,
0010
0100
0001
1000
,
1001
0001
0010
0000
,
0001
1000
0010
0000
,
1000
0100
0010
0000
,
0100
0010
0001
0000
,
1000
0001
0100
0000
,
0010
0100
0001
0000
,
1000
0010
0100
0000
,
0010
0010
1001
0000
,
0100
0001
0010
0000
,
0100
0010
0001
0000
,
1000
0001
0100
0000
,
0010
1000
0100
0000
,
1000
0100
0010
0000
,
0100
0010
0001
0000
,
1000
0001
0100
0000
,
0010
0100
1001
0000
,
0001
0001
0001
0000
,
1000
0000
1000
0000
,
0010
0010
0010
0000
,
0100
0000
0100
0000
,
0010
0100
0001
1000
,
0100
0000
0100
0000
,
0010
0001
0100
0001
,
1000
0001
1001
0000
,
0001
1000
1001
0000
,
1000
0001
0110
1001
;

//---------------dance-single - ----------------
#NOTEDATA:;
#CHARTNAME:;
#STEPSTYPE:dance-single;
#DESCRIPTION:;
#CHARTSTYLE:;
#DIFFICULTY:Beginner;
#METER:1;
#RADARVALUES:0.066081,0.122884,0.028034,0.000000,0.000000,99.000000,93.000000,6.000000,0.000000,0.000000,0.000000,0.000000,0.000000,0.000000,0.066081,0.122884,0.028034,0.000000,0.000000,99.000000,93.000000,6.000000,0.000000,0.000000,0.000000,0.000000,0.000000,0.000000;
#CREDIT:;
#NOTES:
// measure 0
0000
0000
0000
0000
,  // measure 1
0000
0000
0000
0000
,  // measure 2
0000
0000
0000
0000
,  // measure 3
0000
0000
0000
0000
,  // measure 4
0001
0000
0001
0000
,  // measure 5
0001
0000
0001
0000
,  // measure 6
1000
0000
1000
0000
,  // measure 7
1000
0000
1000
0000
,  // measure 8
0010
0000
0010
0000
,  // measure 9
0010
0000
0010
0000
,  // measure 10
0100
0000
0100
0000
,  // measure 11
0100
0000
0100
0000
,  // measure 12
0001
0000
0000
0000
,  // measure 13
0001
0000
0000
0000
,  // measure 14
1000
0000
0000
0000
,  // measure 15
0100
0000
0010
0000
,  // measure 16
1000
0000
0000
0000
,  // measure 17
0001
0000
0000
0000
,  // measure 18
0100
0000
0000
0000
,  // measure 19
0010
0000
0100
0000
,  // measure 20
0001
0000
0001
0000
,  // measure 21
0001
0000
0001
0000
,  // measure 22
1000
0000
1000
0000
,  // measure 23
1000
0000
1000
0000
,  // measure 24
0010
0000
0000
0000
,  // measure 25
0010
0000
0000
0000
,  // measure 26
0100
0000
0000
0000
,  // measure 27
0001
0000
1000
0000
,  // measure 28
0100
0000
0000
0000
,  // measure 29
0100
0000
0000
0000
,  // measure 30
0010
0000
0000
0000
,  // measure 31
0001
0000
0000
0000
,  // measure 32
1000
0000
0000
0000
,  // measure 33
0100
0000
0000
0000
,  // measure 34
0010
0000
0000
0000
,  // measure 35
0001
0000
0000
0000
,  // measure 36
0100
0000
0000
0000
,  // measure 37
0010
0000
0000
0000
,  // measure 38
1000
0000
0000
0000
,  // measure 39
0001
0000
0000
0000
,  // measure 40
1001
0000
0000
0000
,  // measure 41
0100
0000
0000
0000
,  // measure 42
0010
0000
0000
0000
,  // measure 43
1000
0000
1000
0000
,  // measure 44
0001
0000
0000
0000
,  // measure 45
0100
0000
0000
0000
,  // measure 46
0010
0000
0000
0000
,  // measure 47
0100
0100
0100
0000
,  // measure 48
0010
0000
0000
0000
,  // measure 49
1000
0000
0000
0000
,  // measure 50
0001
0000
0000
0000
,  // measure 51
0100
0000
0010
0000
,  // measure 52
0100
0000
0000
0000
,  // measure 53
0001
0000
0000
0000
,  // measure 54
1000
0000
0000
0000
,  // measure 55
0001
0001
0001
0000
,  // measure 56
1001
0000
0000
0000
,  // measure 57
0100
0000
0100
0000
,  // measure 58
1001
0000
0000
0000
,  // measure 59
0010
0000
0010
0000
,  // measure 60
0110
0000
0000
0000
,  // measure 61
1000
0000
1000
0000
,  // measure 62
0110
0000
0000
0000
,  // measure 63
0001
0001
0001
0000
,  // measure 64
1000
1000
1000
0000
,  // measure 65
0010
0010
0010
1001
;
