#TITLE:HORROR FANTASY;
#SUBTITLE:;
#ARTIST:SCREAM TEAM;
#TITLETRANSLIT:;
#SUBTITLETRANSLIT:;
#ARTISTTRANSLIT:;
#CREDIT:SupremeX;
#BANNER:HORROR FANTASY-bn.png;
#BACKGROUND:HORROR FANTASY-bg.png;
#LYRICSPATH:;
#CDTITLE:cdtitle.png;
#MUSIC:HORROR FANTASY.ogg;
#OFFSET:-1.117;
#SAMPLESTART:52.960;
#SAMPLELENGTH:12.000;
#SELECTABLE:YES;
#BPMS:0.000=154.960;
#STOPS:;
#BGCHANGES:;

//---------------dance-single - ----------------
#NOTES:
     dance-single:
     :
     Hard:
     8:
     0.542,0.569,0.218,0.262,0.191: // measure 1
0000
0000
0000
0000
,  // measure 2
0000
0000
0000
0000
,  // measure 3
0000
0000
0000
0000
,  // measure 4
0000
0000
0000
0000
,  // measure 5
1000
0001
1000
0010
,  // measure 6
0100
0010
1000
0010
,  // measure 7
1000
0001
0100
0001
,  // measure 8
1000
0010
0100
0001
,  // measure 9
2002
0000
0000
0000
,  // measure 10
3003
0000
0000
0000
0100
0100
0000
0000
,  // measure 11
0010
0000
1000
0000
0100
0000
0010
0001
0020
0000
0030
0000
0000
0000
0100
1000
,  // measure 12
0100
0000
0000
0000
1000
0000
0000
1000
0000
0000
0100
0000
0010
0000
0001
0000
,  // measure 13
0010
0000
0100
0000
0010
0000
0100
2000
0000
0000
3000
0000
0000
0000
0010
0100
,  // measure 14
0010
0000
0000
1000
0000
0000
0001
0000
0000
0100
0010
0100
0010
0000
1000
0000
,  // measure 15
0001
0000
0100
0000
0010
0000
0010
0200
0000
0000
0300
0000
0000
0000
0001
0000
,  // measure 16
1000
0000
0000
0000
0010
0000
0000
0010
0000
0000
1000
0100
1000
0000
0001
0000
,  // measure 17
0100
0000
0000
0010
0000
0000
1000
0000
0000
0001
0000
1000
0000
0000
0010
0000
,  // measure 18
0100
0000
0000
0000
0001
0001
0000
0000
,  // measure 19
1000
0100
0010
0100
1000
0100
0010
0000
,  // measure 20
0100
0000
0000
0100
0000
0000
0100
0000
0002
0000
0000
0000
0003
0000
0020
0000
,  // measure 21
0000
0130
0010
1000
0001
1000
0010
0100
,  // measure 22
0010
0000
0000
0010
0000
0000
0010
0000
1000
0000
0001
0000
0100
0000
0010
0000
,  // measure 23
1000
0001
1000
0100
0010
0001
0100
0000
,  // measure 24
0001
0000
0000
0001
0000
0000
0001
0000
2000
0000
0000
0000
3000
0000
0200
0000
,  // measure 25
0000
0300
1000
0100
0010
0001
0010
0100
,  // measure 26
1000
0000
0000
1000
0000
0000
1000
0000
0000
0000
0000
0000
0001
0000
0000
0000
,  // measure 27
1000
0010
0100
0001
2000
0000
3100
0000
,  // measure 28
0010
0001
0010
0100
0020
0000
0130
0000
,  // measure 29
0010
0000
0100
0000
1000
0000
0100
0000
0010
0000
0000
0001
0000
0000
0010
0000
,  // measure 30
0100
0000
1000
0000
0100
0000
0010
0000
0001
0010
0001
0010
0001
0010
0000
0000
,  // measure 31
0001
0010
0100
1000
1100
0000
1100
0000
,  // measure 32
0010
0001
0010
0100
0011
0000
0011
0000
,  // measure 33
1000
0001
0010
0100
1000
0000
0110
0000
,  // measure 34
0110
0000
0002
2003
,  // measure 35
3100
0000
1000
1000
0000
0100
0010
0100
,  // measure 36
0010
0000
0001
0001
0000
1000
0001
0100
,  // measure 37
0010
1000
0010
0100
0001
0000
1001
0000
,  // measure 38
1000
0110
0001
0101
,  // measure 39
0020
0000
1030
1000
0000
0001
0100
0001
,  // measure 40
0200
0000
0310
0010
0000
1000
0001
1000
,  // measure 41
0010
0100
0010
0001
0010
0000
1100
0000
,  // measure 42
0101
1100
1001
0110
,  // measure 43
2000
0000
3010
0010
0000
0100
0001
1000
,  // measure 44
0002
0000
0103
0100
0000
0001
0010
0100
,  // measure 45
1000
0100
0010
0100
1000
0000
1100
0000
,  // measure 46
0100
0110
0010
0011
,  // measure 47
0200
0000
1300
1000
0000
0100
0010
0001
,  // measure 48
2000
0000
3010
0010
0000
1000
0001
0100
,  // measure 49
0010
1000
0010
1000
0100
0000
0110
0000
,  // measure 50
0001
0000
1001
0000
0020
0000
0000
0030
,  // measure 51
1000
0000
0010
0000
0100
0000
0001
2000
0000
0000
3000
0000
0000
0000
0100
0000
,  // measure 52
0010
0000
0000
0000
0001
0000
0000
0001
0000
0000
1000
0000
0010
0000
1000
0000
,  // measure 53
0001
0000
0010
0000
0100
0000
1000
0200
0000
0000
0300
0000
0000
0000
0010
0001
,  // measure 54
0010
0000
0000
0100
0000
0000
1000
0000
0000
0100
0010
0100
0010
0000
0001
0000
,  // measure 55
1000
0000
0010
0000
1000
0000
1000
0200
0000
0000
0300
0000
0000
0000
0010
0000
,  // measure 56
0001
0000
0000
0001
0000
0000
0010
0000
0000
0000
0100
1000
0100
0000
1000
0000
,  // measure 57
0010
0000
0000
0100
0000
0000
0001
0000
0000
0100
0000
0010
0000
0000
1000
0000
,  // measure 58
0001
0000
0000
0000
1000
2000
0000
0000
,  // measure 59
3000
0000
0000
0000
;

//---------------dance-single - ----------------
#NOTES:
     dance-single:
     :
     Medium:
     5:
     0.355,0.410,0.131,0.120,0.065:
0000
0000
0000
0000
,
0000
0000
0000
0000
,
0000
0000
0000
0000
,
0000
0000
0000
0000
,
1000
1000
0010
0010
,
0100
0100
0001
0001
,
1000
0010
1000
0001
,
0100
0010
0100
0001
,
2000
0000
0000
0000
,
3000
0000
0000
0000
0010
0010
0000
0000
,
0100
0001
0010
0000
,
0100
0000
0000
0000
1000
0000
0000
0010
0000
0000
1000
0000
0001
0000
0000
0000
,
0001
1000
0020
0030
,
0100
0000
0000
0001
0000
0000
1000
0000
0000
0001
0000
0000
0000
0000
0000
0000
,
0100
0000
0000
0000
0010
0000
0000
0100
0000
0000
0000
0000
0000
0000
0010
0000
,
1000
0000
0000
0000
0001
0000
0000
0001
0000
0000
0010
0000
0100
0000
1000
0000
,
0100
0000
0000
1000
0000
0000
0001
0000
0000
1000
0000
0000
0010
0000
0100
0000
,
0010
0000
0000
0000
1000
1000
0000
0000
,
0001
0000
0001
0000
0100
0010
1000
0000
,
0100
0100
0010
0000
,
0001
0010
0100
1000
,
0001
0000
0000
0100
0000
0000
0001
0000
0000
0000
0000
0000
0000
0000
0000
0000
,
1000
0010
0100
0001
,
1000
0000
0000
0010
0000
0010
0000
0000
,
0100
0000
0100
0000
0001
1000
0001
0000
,
1000
0000
0000
0100
0000
0000
0010
0000
0000
0000
0000
0000
0000
0000
0000
0000
,
0001
1000
0110
0110
,
0001
1000
0011
1100
,
0010
0000
0000
0000
0001
0000
0000
0000
0100
0000
0000
1000
0000
0000
0100
0000
,
0010
0010
0001
0001
,
0010
0000
0100
0000
1000
0100
1000
0000
,
0100
0000
0010
0000
0001
0010
0001
0000
,
0010
0100
1000
0100
,
0020
0000
0001
0031
,
1000
0000
0000
1000
0000
0000
0010
0000
,
0010
0000
0000
0100
0000
0000
0100
0000
,
0001
0001
1000
0100
,
1000
0001
0011
0110
,
2000
0000
3000
0010
0000
0010
0000
0000
,
0200
0000
0000
0301
0000
0000
0001
0000
,
0010
0100
1000
0100
,
0011
1100
1001
0110
,
0002
0000
0000
0013
0000
0000
0010
0000
,
0200
0000
0000
1300
0000
0000
1000
0000
,
0001
0100
0001
1000
,
0010
0100
0010
0000
1000
0001
1000
0000
,
0020
0000
0000
0130
0000
0000
0100
0000
,
0002
0000
0000
1003
0000
0000
1000
0000
,
0010
1000
0100
0010
,
0101
1010
0000
0000
,
0100
0001
0100
0000
,
0001
0000
0000
0000
1000
0000
0000
1000
0000
0000
0000
0000
0010
0000
0000
0000
,
0100
0001
0100
0000
,
0010
1000
0001
1000
,
0010
0100
0010
0000
2000
0000
3000
0000
,
0100
0000
0000
0000
0010
0000
0000
0001
0000
0000
0010
0000
0100
0000
1000
0000
,
0010
0000
0010
0000
0100
0000
0001
1000
,
0001
0000
0000
0000
1000
2000
0000
3000
;

//---------------dance-single - ----------------
#NOTES:
     dance-single:
     :
     Easy:
     3:
     0.257,0.282,0.087,0.011,0.000:
0000
0000
0000
0000
,
0000
0000
0000
0000
,
0000
0000
0000
0000
,
0000
0000
0000
0000
,
0010
0000
0010
0000
,
0100
0000
0100
0000
,
0001
0000
0001
0000
,
1000
0000
1000
0000
,
0020
0000
0000
0000
,
0030
0000
0000
0000
0100
0100
0000
0000
,
0001
0001
1000
0000
,
0010
0100
0001
1000
,
1000
1000
0010
0000
,
0100
0001
0100
0010
,
1000
1000
0001
0000
,
0100
0010
0100
0001
,
1000
1000
0001
0100
,
0010
0000
0000
0000
1000
1000
0000
0000
,
0001
0001
0100
0100
,
0010
0000
0000
0010
0000
0000
0000
0000
,
1000
0001
0100
0010
,
1000
0000
0000
1000
0000
0000
0000
0000
,
0001
0100
0001
1000
,
0010
0000
0000
0010
0000
0000
0000
0000
,
1000
0001
0100
0010
,
0100
0000
0000
0100
0000
0000
0000
0000
,
0001
0000
1100
0000
,
0001
0000
0011
0000
,
1000
0000
0110
0000
,
1001
0000
0000
0000
,
1000
0000
0110
0000
,
0001
0000
0110
0000
,
1000
0001
1000
0010
,
0100
0000
0001
0001
,
1000
0000
0000
1000
0000
0000
0001
0000
,
0100
0000
0000
0100
0000
0000
0000
0000
,
0010
1000
0001
0100
,
0010
1000
0001
0100
,
0010
0000
0000
0010
0000
0000
0100
0000
,
0001
0000
0000
0001
0000
0000
0000
0000
,
1000
0010
0100
0001
,
1000
1000
0010
0010
,
0100
0000
0000
0100
0000
0000
0000
0000
,
0001
0000
0000
0001
0000
0000
0000
0000
,
1000
0010
0100
0001
,
0100
0100
0001
0001
,
1000
0000
0000
1000
0000
0000
0000
0000
,
0010
0000
0000
0010
0000
0000
0000
0000
,
0100
0001
1000
0010
,
0001
0001
0000
0000
,
1000
0010
0100
0000
,
0001
0001
0001
0001
,
1000
0010
0100
0000
,
0001
1000
0010
1000
,
0001
0100
0010
0000
,
1000
1000
1000
1000
,
0001
0100
0010
1000
,
1001
0000
0110
0000
;

//---------------dance-single - Copied from----------------
#NOTES:
     dance-single:
     Copied from:
     Beginner:
     2:
     0.123,0.155,0.000,0.000,0.000:
0000
0000
0000
0000
,
0000
0000
0000
0000
,
0000
0000
0000
0000
,
0000
0000
0000
0000
,
0010
0000
0000
0000
,
0010
0000
0000
0000
,
0100
0000
0000
0000
,
0100
0000
0000
0000
,
0100
0000
0000
0000
,
0000
0000
0001
0000
,
1000
0000
0000
0000
,
0010
0000
0010
0000
,
0100
0000
0100
0000
,
0001
0000
0001
0000
,
1000
0000
1000
0000
,
0010
0000
0010
0000
,
0100
0000
0100
0000
,
0100
0000
0100
0000
,
0001
0000
0001
0000
,
0001
0000
0000
0000
,
1000
0000
1000
0000
,
1000
0000
0000
0000
,
0010
0000
0010
0000
,
0010
0000
0000
0000
,
0100
0000
0100
0000
,
0100
0000
0000
0000
,
0001
0000
1000
0000
,
0001
0000
1000
0000
,
0010
0000
0100
0000
,
0010
0000
0000
0000
,
1000
0000
0001
0000
,
1000
0000
0001
0000
,
0100
0000
0010
0000
,
0100
0000
0100
0000
,
0001
0000
0000
0000
,
1000
0000
0000
0000
,
0001
0000
1000
0000
,
0001
0000
1000
0000
,
0010
0000
0000
0000
,
0100
0000
0000
0000
,
0010
0000
0100
0000
,
0010
0000
0100
0000
,
0001
0000
0000
0000
,
1000
0000
0000
0000
,
0001
0000
1000
0000
,
0001
0000
1000
0000
,
0001
0000
0000
0000
,
0100
0000
0000
0000
,
0010
0000
1000
0000
,
0001
0000
0000
0000
,
0100
0000
0000
0000
,
0100
0000
0000
0000
,
0010
0000
0000
0000
,
0010
0000
0000
0000
,
1000
0000
0000
0000
,
1000
0000
0000
0000
,
0001
0000
0000
0000
,
1000
0000
0000
0000
;
