#TITLE:GHOSTS;
#SUBTITLE:;
#ARTIST:Ladytron;
#TITLETRANSLIT:;
#SUBTITLETRANSLIT:;
#ARTISTTRANSLIT:;
#CREDIT:Licensed Music;
#BANNER:ghosts-bn.png;
#BACKGROUND:ghosts-bg.png;
#LYRICSPATH:;
#CDTITLE:Licensed Music.png;
#MUSIC:ghosts.ogg;
#OFFSET:0.000;
#SAMPLESTART:24.468;
#SAMPLELENGTH:19.680;
#SELECTABLE:YES;
#BPMS:0.000=124.979;
#STOPS:;
#BGCHANGES:;

//---------------dance-single - ----------------
#NOTES:
     dance-single:
     :
     Easy:
     3:
     0.221,0.240,0.108,0.097,0.000:
0000
0000
0000
0000
,
0000
0000
0000
0000
,
0000
0000
0000
0000
,
0000
0000
0000
0000
,
0000
0001
1000
0001
,
0000
0010
0001
0010
,
0000
0010
1000
0010
,
2000
0001
3001
0100
,
0010
1000
0010
1000
,
0000
0001
0100
0001
,
0000
1000
0100
1000
,
0002
0100
0103
0010
,
1001
0000
0000
0010
,
0020
0000
0001
0031
,
1001
0000
0000
0010
,
1000
0010
0100
0001
,
0100
0000
0000
0001
,
0001
1000
0100
0010
,
0002
0000
0000
0000
,
1003
0000
0010
0000
,
1001
0000
0000
0100
,
0200
0000
0001
0301
,
1010
0000
0000
0001
,
0010
0001
1000
0001
,
0010
0000
0000
0001
,
1000
0100
0010
0001
,
0020
0000
0000
0000
,
0130
0000
0010
0000
,
1001
0001
1000
0001
,
0000
1000
1000
0010
,
0000
0001
0001
0010
,
0001
1000
0100
0010
,
0100
1000
0100
1000
,
0000
0001
0001
0100
,
0000
1000
0001
1000
,
0100
1000
0100
0001
,
0100
1000
0100
1000
,
0200
0310
0001
0010
,
0000
1000
0001
1000
,
0010
1001
0100
1001
,
0000
0010
0100
0010
,
1000
0110
0001
0110
,
0000
0001
0001
0100
,
0000
0001
1000
0001
,
2002
0000
3003
0000
;

//---------------dance-single - ----------------
#NOTES:
     dance-single:
     :
     Medium:
     5:
     0.299,0.361,0.108,0.238,0.146:
0000
0000
0000
0000
,
0000
0000
0000
0000
,
0000
0000
0000
0000
,
0000
0000
0000
0000
,
0010
0000
1000
0001
0000
0000
0100
0000
0000
0100
0000
0000
,
0001
0000
1000
0010
0000
0000
1000
0000
0000
1000
0000
0000
,
0010
0000
1000
0001
0000
0000
0010
0000
0000
0010
0000
0000
,
0001
1000
0100
0010
,
0001
0000
0010
0001
0000
0000
1000
0000
0000
1000
0000
0000
,
0100
0000
1000
0100
0000
0000
0010
0000
0000
0010
0000
0000
,
0100
0000
0010
0100
0000
0000
1000
0000
0000
1000
0000
0000
,
0100
1000
0001
1000
,
2002
0000
3003
0010
,
0020
1000
1030
0001
,
0020
0000
0000
0001
,
0031
1000
0100
0010
,
2002
0000
3003
0100
,
0100
1000
0001
1000
,
0020
0000
0000
0030
,
0000
0010
0010
0010
,
2002
0000
3003
0100
,
0200
0001
0301
1000
,
0020
0000
0000
1000
,
1030
0001
0010
0100
,
2002
0000
3003
1000
,
1000
0001
0010
0001
,
0020
0000
0000
0030
,
0000
0001
1000
0001
,
1000
0010
1000
0010
0000
0000
1000
0000
0000
0001
0000
0000
,
0100
0001
0100
0001
0000
0000
1000
0000
0000
0010
0000
0000
,
1000
0001
1000
0001
0000
0000
0100
0000
0000
1000
0000
0000
,
0001
0000
0010
0001
0000
0000
1000
0000
0001
1000
0000
0000
,
0100
1000
0100
1000
0000
0000
0001
0000
0000
0010
0000
0000
,
0001
0010
0001
0010
0000
0000
0001
0000
0000
1000
0000
0000
,
0010
1000
0010
1000
0000
0000
0010
0000
0000
0100
0000
0000
,
0001
0000
0100
0001
0000
0000
1000
0000
0010
1000
0000
0000
,
2002
0000
3003
0010
,
1000
0010
0000
1000
0000
0000
0001
1000
0000
0001
0000
0000
,
0022
0000
0033
0001
,
0010
0001
1000
0001
,
2002
0000
3003
0100
,
1000
0100
0010
0001
,
0010
0000
0001
1000
0000
0000
0001
0000
0000
1000
0000
0000
,
0100
1000
0000
1001
0000
0000
0001
0010
0000
0011
0000
0000
,
2002
0000
3003
0000
;

//---------------dance-single - ----------------
#NOTES:
     dance-single:
     :
     Hard:
     8:
     0.497,0.481,0.086,0.173,0.978:
0000
0000
0000
0000
,
0000
0000
0000
0000
,
0000
0000
0000
0000
,
0000
0000
0000
0000
,
0000
0000
0001
0000
0000
1000
0100
0000
0010
0100
0000
0010
,
0001
0000
0010
0000
0000
0100
0010
0000
0100
1000
0100
1000
,
0100
0000
1000
0000
0000
0001
0010
0000
0000
0001
0000
0000
,
2000
0000
0001
0000
0001
0000
3001
0000
0010
0000
0100
0000
,
0010
0000
0001
0000
0000
1000
0001
0000
1000
0001
0000
1000
,
0010
0000
1000
0000
0000
0001
0100
0000
0001
1000
0010
1000
,
0010
0000
1000
0000
0000
0001
1000
0000
0001
0000
1000
0000
,
0002
0000
0010
0000
0010
0000
0013
0000
0100
0000
0010
0000
,
0100
0000
0000
1001
0000
0000
0010
0000
0000
1000
0000
0010
,
0200
0001
0000
0301
0000
1000
0020
1000
0000
1030
0000
0010
,
0100
0000
0000
0010
0000
0000
0100
0000
0010
0100
0000
0001
,
0100
0001
0100
0001
0000
1000
0010
1000
0010
1000
0000
0001
,
1000
0000
0000
0001
0000
0000
1000
0000
0000
0010
0000
1000
,
0010
1000
0000
1010
0000
0010
0100
0001
0000
0101
0000
0100
,
0010
0100
0000
0001
0000
1000
0010
1000
0000
0010
0000
0100
,
0001
0100
0000
0001
1000
0001
1000
0010
0000
1000
0001
1000
,
1001
0000
0000
0001
0000
0000
0010
0000
0000
0001
0000
1000
,
0200
0010
0000
0310
0000
0001
0020
0100
0000
0130
0000
1000
,
0100
0000
0000
1000
0000
0000
0001
0000
0010
0001
0000
0010
,
0001
0010
0001
0100
0000
0010
1000
0010
1000
0100
0000
1000
,
0001
0000
0000
1000
0000
0000
0001
0000
0000
1000
0000
0100
,
1000
0100
0000
1100
0000
0010
0001
0010
0000
0011
0000
0001
,
0010
0001
1000
0001
0000
0010
0000
0001
1000
0001
0000
0100
,
0000
0010
1000
0010
0000
0100
0000
0001
0100
0001
0000
0000
,
1001
0000
0010
0000
0001
0010
0001
1000
0001
0000
1000
0000
,
0010
0000
1000
0000
0001
0100
0001
1000
0001
0000
1000
0000
,
0001
0000
0010
0000
0001
1000
0100
1000
0100
0000
0010
0000
,
0002
0000
0010
0000
0010
0000
2003
0000
0010
0000
0010
0000
,
3010
0000
1000
0000
0001
0100
0001
1000
0001
0000
1000
0000
,
0010
0000
1000
0000
0001
0010
0001
1000
0100
0000
1000
0000
,
0001
0000
1000
0000
0010
1000
0001
0100
0001
0000
0100
0000
,
0002
0000
1000
0000
1000
0000
2003
0000
0100
0000
0100
0000
,
3100
1000
0100
2000
0000
3001
0000
0100
0001
0200
0000
0310
,
0000
1000
0010
1000
0000
0001
0000
0010
0001
1000
0001
0010
,
0000
0100
1000
0100
0000
0010
0000
0001
0010
0001
0000
1000
,
0020
1000
0000
1030
0000
0001
0200
0001
0000
0301
0000
0000
,
0000
0100
0010
0100
0000
0001
0000
1000
0010
1000
0000
0001
,
0000
0010
0001
0010
0000
0001
0000
1000
0001
1000
0100
1000
,
0000
0100
0010
0100
0000
1000
0000
0100
0010
0001
0000
0010
,
0000
0001
1000
0001
0000
0010
0000
0001
0010
0001
1000
0001
,
2002
0000
3003
0000
;

//---------------dance-single - ----------------
#NOTES:
     dance-single:
     :
     Beginner:
     2:
     0.137,0.166,0.043,0.065,0.000: // measure 1
0000
0000
0000
0000
,  // measure 2
0000
0000
0000
0000
,  // measure 3
0000
0000
0000
0000
,  // measure 4
0000
0000
0000
0000
,  // measure 5
0000
0010
0010
0010
,  // measure 6
0000
0001
0001
0001
,  // measure 7
0000
0010
0010
0000
,  // measure 8
0100
0000
1000
0000
,  // measure 9
0000
0100
0100
0100
,  // measure 10
0000
0010
0010
0010
,  // measure 11
0000
0100
0100
0000
,  // measure 12
1000
0000
0001
0000
,  // measure 13
0020
0000
0000
0030
,  // measure 14
0010
0000
0100
0000
,  // measure 15
0200
0000
0000
0300
,  // measure 16
0100
0000
1000
0000
,  // measure 17
2000
0000
0000
3000
,  // measure 18
1000
0000
0001
0000
,  // measure 19
1000
0000
0000
0000
,  // measure 20
1001
0000
0000
0000
,  // measure 21
0020
0000
0000
0030
,  // measure 22
0010
0000
1000
0000
,  // measure 23
0002
0000
0000
0003
,  // measure 24
0001
0000
0100
0000
,  // measure 25
0200
0000
0000
0300
,  // measure 26
0100
0000
0010
0000
,  // measure 27
0100
0000
0000
0000
,  // measure 28
0110
0000
0000
0000
,  // measure 29
1000
0000
1000
0000
,  // measure 30
0010
0000
0010
0000
,  // measure 31
0001
0000
0001
0000
,  // measure 32
1000
1000
1000
1000
,  // measure 33
1000
0000
0001
0000
,  // measure 34
0001
0000
0100
0000
,  // measure 35
0100
0000
0001
0000
,  // measure 36
0001
0001
0001
0001
,  // measure 37
0000
1000
0000
0010
,  // measure 38
0000
1000
0000
0001
,  // measure 39
0000
0010
0000
0001
,  // measure 40
0000
1000
0000
0001
,  // measure 41
0000
1000
0000
0100
,  // measure 42
0000
0001
0000
0100
,  // measure 43
0000
0010
0000
0010
,  // measure 44
0000
0010
0000
1001
,  // measure 45
1001
0000
0000
0000
;
