#VERSION:0.83;
#TITLE:Electro Killer 6000;
#SUBTITLE:;
#ARTIST:zircon;
#TITLETRANSLIT:;
#SUBTITLETRANSLIT:;
#ARTISTTRANSLIT:;
#GENRE:;
#CREDIT:;
#MUSIC:Electro Killer 6000.ogg;
#BANNER:Electro Killer 6000.png;
#BACKGROUND:Electro Killer 6000-bg.png;
#CDTITLE:;
#SAMPLESTART:76.865;
#SAMPLELENGTH:15.361;
#SELECTABLE:YES;
#OFFSET:-0.058;
#BPMS:0.000=124.988;
#STOPS:;
#SPEEDS:0.000=1.000=0.000=0;
#SCROLLS:0.000=1.000;
#TICKCOUNTS:0.000=4;
#TIMESIGNATURES:0.000=4=4;
#LABELS:0.000=Song Start;
#COMBOS:0.000=1;
#ORIGIN:;
#PREVIEWVID:;
#JACKET:Electro Killer 6000-jacket.png;
#CDIMAGE:;
#DISCIMAGE:;
#BGCHANGES:;
#FGCHANGES:;

//--------------- dance-single - ----------------
#NOTEDATA:;
#STEPSTYPE:dance-single;
#DESCRIPTION:;
#DIFFICULTY:Beginner;
#METER:1;
#RADARVALUES:0,0,0,0,0;
#NOTES:
0000
0000
0000
0000
,
0000
0000
0000
0000
,
0000
0000
0000
0000
,
0000
0000
0000
0000
,
1000
0000
0000
0000
,
1000
0000
0000
0000
,
1000
0000
0000
0000
,
1000
0000
0000
0000
,
0010
0000
0010
0000
,
0010
0000
0000
0000
,
0100
0000
0100
0000
,
0100
0000
0000
0000
,
0001
0000
0001
0000
,
0001
0000
0000
0000
,
1000
0000
1000
0000
,
1000
0000
0000
0000
,
1001
0000
0000
0000
,
0010
0000
0000
0000
,
0110
0000
0000
0000
,
1000
0000
0000
0000
,
1001
0000
0000
0000
,
0100
0000
0000
0000
,
0110
0000
0000
0000
,
0001
0000
0000
0000
,
1000
0000
1000
0000
,
1000
0000
1000
0000
,
0001
0000
0001
0000
,
0001
0000
0001
0000
,
0100
0100
0100
0000
,
0100
0000
0100
0000
,
0010
0010
0010
0000
,
0010
0000
0010
0000
,
2000
0000
0000
0000
,
3000
0000
0000
0000
,
0002
0000
0000
0000
,
0003
0000
0000
0000
,
0200
0000
0000
0000
,
0300
0000
0000
0000
,
0020
0000
0000
0000
,
0030
0000
0000
0000
,
0001
0000
0001
0000
,
0001
0000
0001
0000
,
0100
0000
0100
0000
,
0100
0000
0100
0000
,
0010
0000
0010
0000
,
0010
0000
0010
0000
,
1000
0000
1000
0000
,
1000
0000
1000
0000
,
0001
0001
0001
0000
,
0001
0000
0001
0000
,
0100
0100
0100
0000
,
0100
0000
0100
0000
,
1000
1000
1000
0000
,
1000
0000
1000
0000
,
0010
0010
0010
0000
,
0010
0000
0010
0000
,
0100
0000
0100
0000
,
0100
0000
0100
0000
,
0010
0000
0010
0000
,
0010
0000
0010
0000
,
1000
1000
1000
0000
,
1000
0000
1000
0000
,
0001
0001
0001
0000
,
0001
0000
0001
0000
,
1001
0000
0000
0000
;

//--------------- dance-single - ----------------
#NOTEDATA:;
#STEPSTYPE:dance-single;
#DESCRIPTION:;
#DIFFICULTY:Easy;
#METER:2;
#RADARVALUES:0,0,0,0,0;
#NOTES:
0000
0000
0000
0000
,
0000
0000
0000
0000
,
0000
0000
0000
0000
,
0000
0000
0000
0000
,
0200
0000
0300
0000
,
1000
0000
0001
0000
,
2000
0000
3000
0000
,
0010
0000
0010
0000
,
0001
1000
0002
0003
,
0100
0000
0100
0000
,
0010
0100
0020
0030
,
1000
0000
0100
0000
,
1000
0010
2000
3000
,
0001
0000
0001
0000
,
0100
0001
0200
0300
,
0010
0100
0010
0100
,
0110
0000
0010
0000
,
1000
0001
1000
0000
,
0100
0000
0100
0000
,
0010
1000
0010
0000
,
1000
0000
1000
0000
,
0100
0001
0100
0000
,
0001
0000
0001
0000
,
0010
0100
0010
0000
,
1000
0000
1000
0000
,
0001
0000
0001
0000
,
0100
0000
0100
0000
,
0010
0000
0010
0000
,
1000
0001
1000
0000
,
0100
0000
0001
0000
,
0100
0010
0100
0000
,
0001
0000
0001
0000
,
2002
0000
3003
0000
,
0100
0000
0010
0000
,
0200
0000
0300
0000
,
1000
0000
0010
0000
,
2000
0000
3000
0000
,
0001
0000
0100
0000
,
0002
0000
0003
0000
,
1000
0001
1000
0001
,
0100
0010
0100
0000
,
0001
0010
0001
0000
,
1000
0001
1000
0000
,
0100
1000
0100
0000
,
0010
1000
0010
0000
,
0100
0001
0100
0000
,
0010
0001
0010
0000
,
1000
0100
1000
0000
,
0001
0001
0010
0010
,
0001
0100
0001
0100
,
0010
0010
1000
1000
,
0100
0010
0100
0010
,
1000
1000
0001
0001
,
1000
0010
0100
0010
,
1000
1000
0001
0001
,
0100
0100
0010
0010
,
0001
0000
0001
0000
,
1000
0000
1000
0000
,
0010
0000
0010
0000
,
0100
0000
0100
0000
,
0001
1000
0001
0000
,
0010
0000
1000
0000
,
0010
0100
0010
0000
,
1000
0000
1000
0000
,
0110
0000
0000
0000
;

//--------------- dance-single - ----------------
#NOTEDATA:;
#STEPSTYPE:dance-single;
#DESCRIPTION:;
#DIFFICULTY:Medium;
#METER:4;
#RADARVALUES:0,0,0,0,0;
#NOTES:
0000
0000
0000
0000
,
0000
0000
0000
0000
,
0000
0000
0000
0000
,
0000
0000
0000
0000
,
0010
0000
0000
0010
0000
0000
0000
0000
,
1000
0100
1000
0000
,
0001
0000
0000
0001
0000
0000
0000
0000
,
0010
0100
1000
0001
,
0100
0000
0010
0200
0000
0000
0300
0000
,
0001
0000
0001
0000
,
1000
0000
0010
2000
0000
0000
3000
0000
,
0001
0000
0001
1000
0001
0000
0100
0000
,
0010
0000
0001
0020
0000
0000
0030
0000
,
0100
0000
0100
0000
,
0001
0000
1000
0000
0002
0000
0000
0003
,
0010
0000
0010
0100
0010
0000
0001
0000
,
1001
0000
0100
0000
1000
0001
1000
0000
,
0010
0010
0100
0100
,
0010
0000
0001
0000
0010
1000
0010
0000
,
1000
0100
0001
0100
,
0001
0000
0010
0000
0001
1000
0001
0000
,
0100
0100
0010
0010
,
0100
0000
1000
0000
0100
0010
0100
0000
,
0001
0010
1000
0010
,
1000
0000
1000
0100
0001
0000
0001
0100
,
0010
0000
0010
1000
0100
0000
0100
0000
,
0010
0000
0010
0001
1000
0000
1000
0010
,
0001
0000
0001
0100
0010
0100
0010
0000
,
1000
1000
2002
3003
,
0010
0001
0010
1000
,
0010
0010
0220
0330
,
0100
0000
0001
0100
0010
0100
1000
0000
,
2100
0100
0200
3300
,
0001
1000
0010
1000
,
0201
0001
0002
0303
,
0010
0010
1000
0010
,
0120
0100
0200
0330
,
0001
1000
0100
1000
,
0012
0010
0020
0033
,
0100
0100
0100
0110
,
1000
0100
0020
0030
,
0001
0000
0001
1000
0010
0000
0010
0000
,
1000
0001
0200
0300
,
1000
0000
1000
0001
0100
0000
0100
0000
,
1000
0010
0002
0003
,
0100
0000
0100
1000
0010
0000
0010
0000
,
0100
0001
2000
3000
,
0010
0000
0001
0010
0001
0100
1000
0000
,
0010
0000
0100
0020
0000
0000
0130
1000
,
0001
0000
0010
0001
0010
0000
1000
0000
,
0001
0000
0010
0002
0000
0000
0103
0010
,
1000
0000
0100
1000
0100
0010
1000
0000
,
0100
0000
0001
0200
0000
0000
0310
1000
,
0010
0000
0001
0000
0010
0100
0010
0000
,
1000
0000
0001
1000
0001
0000
0010
0001
,
0010
0000
0100
0010
0100
0000
1001
0000
,
0001
0000
0001
0010
1000
0000
1000
0010
,
0100
0000
0100
0001
0010
0000
0010
0000
,
0100
0000
0100
1000
0001
0000
0001
0100
,
1000
0000
0010
1000
0100
1000
0100
0000
,
0001
0001
2002
3003
,
1000
0010
0001
0010
,
0100
0100
0220
0330
,
0001
0000
1000
0000
0010
0100
0010
0000
,
2002
0000
0000
0000
0000
0000
0000
3003
;

//--------------- dance-single - ----------------
#NOTEDATA:;
#STEPSTYPE:dance-single;
#DESCRIPTION:;
#DIFFICULTY:Hard;
#METER:7;
#RADARVALUES:0.358402,0.383867,0.086783,0.11834,0.256404,318,307,11,15,0,0,0,0,0,0.358402,0.383867,0.086783,0.11834,0.256404,318,307,11,15,0,0,0,0,0;
#CHARTNAME:;
#CHARTSTYLE:;
#CREDIT:;
#NOTES:
0000
0000
0000
0000
,
0000
0000
0000
0000
,
0000
0000
0000
0000
,
0000
0000
0000
0000
,
2000
0000
0000
3001
0000
0000
0000
0000
,
0100
0000
0000
0010
0000
0000
1000
0000
0000
0000
0000
0000
0000
0000
0000
0000
,
0020
0000
0000
0130
0000
0001
0000
1000
,
0000
0001
0100
0000
0010
0100
0010
0000
,
1000
0000
0000
0100
0000
0000
0020
0000
0000
0000
0030
0000
0000
0000
0001
0000
,
0200
0000
0300
0100
0000
0000
0000
0010
,
0100
0000
0000
0001
0000
0000
2000
0000
0000
0000
3000
0000
0100
0000
1000
0000
,
0010
0000
0000
0100
0000
0000
0010
0000
1000
0000
0000
0000
1001
0000
0000
0000
,
0001
0000
0000
0100
0000
0000
0020
0000
0000
0000
0030
0000
0000
0000
0100
0000
,
0002
0000
0003
0001
0000
1000
1000
1000
,
0100
0000
0000
1000
0000
0000
0002
0000
0000
0000
0003
0000
1000
0000
0001
0000
,
0100
0000
0000
0010
0000
0000
1000
0000
0001
0000
0000
0000
0110
0000
0000
0000
,
0000
0100
0010
0100
0001
0010
0100
0000
,
1000
0000
0000
0001
0000
0000
1000
0000
0010
0000
0000
0100
0000
0000
0000
0000
,
0001
0100
0010
0100
0010
1000
0100
0000
,
1000
0000
0001
1000
0010
0100
0001
0000
,
1000
0010
0100
0010
1000
0001
0010
0000
,
0100
0000
0000
0100
1000
0000
0001
0000
,
0010
0100
1000
0001
1000
0010
0100
0000
,
0010
0000
0000
1000
0000
0000
0010
0000
0100
0000
0000
0000
0101
0000
0000
0000
,
0001
0000
0000
0010
0000
0000
0001
0000
1000
0000
0000
0001
0000
0000
1000
0000
,
0100
0000
0000
1000
0000
0000
0100
0000
0010
0000
0000
0100
0000
0000
0000
0000
,
1000
0000
0000
0010
0000
0000
1000
0000
0001
0000
0000
1000
0000
0000
0001
0000
,
0100
0000
0000
0001
0000
0000
0100
0000
0010
0000
0000
1000
0000
0000
0100
0000
,
1000
0000
0000
1000
0000
0000
0001
0000
0010
0000
0000
0000
0011
0000
0000
0000
,
0100
0000
0000
0001
0000
0000
1000
0000
0010
0000
0000
0100
0000
0000
0001
0000
,
0010
0000
0000
0010
0000
0000
0100
0000
1000
0000
0000
0000
1100
0000
0000
0000
,
1000
0001
0010
0001
0100
0010
0110
0000
,
0000
0000
1000
0000
0000
1000
0000
0000
0010
0000
0000
1000
0000
0000
0000
0000
,
0000
0000
0001
0000
0000
0001
0000
0000
0010
0000
0000
0100
0000
0000
1000
0000
,
0000
0000
0010
0000
0000
0010
0000
0000
1000
0000
0000
0010
0000
0000
0000
0000
,
0000
0000
0100
0000
0000
0100
0000
0000
0001
0000
0000
0020
0000
0000
0000
0000
,
0030
0000
0100
0000
0000
0100
0000
0000
1000
0000
0000
0100
0000
0000
0000
0000
,
0000
0000
1000
0000
0000
1000
0000
0000
0010
0000
0000
0100
0000
0000
0001
0000
,
0000
0000
0010
0000
0000
0000
0010
0000
0001
0000
0000
0010
0000
0000
0000
0000
,
0100
1000
0010
0100
,
0001
0000
0000
1000
0000
0000
0020
0000
0000
0000
0000
0000
0030
0000
0000
0000
,
0100
0000
0000
0001
0000
0000
0010
0000
0001
0000
0000
0000
1000
0000
0000
0000
,
0010
0000
0000
0100
0000
0000
0002
0000
0000
0000
0003
0000
0100
0000
0010
0000
,
0100
0000
0000
0001
0000
0000
1000
0000
0010
0000
0000
0000
0100
0000
0000
0000
,
0001
0000
0000
0010
0000
0000
0200
0000
0000
0000
0300
0000
0000
0000
0000
0000
,
1000
0000
0000
0001
0000
0000
0100
0000
0010
0000
0000
0100
0000
0000
0000
0000
,
0010
0000
0000
1000
0000
0000
0001
0000
0000
0000
0000
0000
1000
0000
0100
0000
,
1000
0000
0000
0001
0000
0000
0010
0000
0001
0000
0000
0000
1001
0000
0000
0000
,
0100
0000
0000
0010
0000
0000
2000
0000
0000
0000
3000
0000
0100
0000
1000
0000
,
0001
0000
0000
1000
0000
0000
0001
0000
0100
0000
0000
0010
0000
0000
0000
0000
,
0100
0000
0000
0001
0000
0000
0020
0000
0000
0000
0030
0000
0001
0000
1000
0000
,
0010
0000
0000
1000
0000
0000
0010
0000
0100
0000
0001
0000
0010
0000
0000
0000
,
0001
0000
0000
0100
0000
0000
0002
0000
0000
0000
0003
0000
1000
0000
0010
0000
,
1000
0000
0100
1000
0100
0010
0001
0000
,
0100
0000
0010
0100
0001
0000
1000
0001
,
0010
0000
0000
0100
0000
0000
1000
0000
0001
0000
0000
0000
1001
0000
0000
0000
,
1000
0000
0000
0001
0000
0000
1000
0000
0010
0000
0000
1000
0000
0000
0010
0000
,
0100
0000
0000
0010
0000
0000
0100
0000
0001
0000
0000
0100
0000
0000
0000
0000
,
0010
0000
0000
1000
0000
0000
0010
0000
1000
0000
0000
0001
0000
0000
1000
0000
,
0100
0000
0000
1000
0000
0000
0100
0000
0010
0000
0000
0001
0000
0000
0100
0000
,
0010
0000
0000
0010
0000
0000
1000
0000
0001
0000
0000
0000
1001
0000
0000
0000
,
0100
0000
0000
0010
0000
0000
0100
0000
0001
0000
0000
0100
0000
0000
0001
0000
,
1000
0000
0000
1000
0000
0000
0010
0000
0100
0000
0000
0000
0110
0000
0000
0000
,
0100
0001
0010
0001
0100
0010
1000
0000
,
0000
0000
0010
0000
0000
0010
0000
0000
0100
0000
0000
0001
0000
0000
1001
0000
;

//--------------- dance-single - ----------------
#NOTEDATA:;
#STEPSTYPE:dance-single;
#DESCRIPTION:;
#DIFFICULTY:Challenge;
#METER:10;
#RADARVALUES:0.574796,0.80787,0.315574,0.173566,0.737655,510,470,40,22,0,0,0,0,0,0.574796,0.80787,0.315574,0.173566,0.737655,510,470,40,22,0,0,0,0,0;
#CHARTNAME:;
#CHARTSTYLE:;
#CREDIT:;
#NOTES:
0000
0000
0000
0000
,
0000
0000
0000
0000
,
0000
0000
0000
0000
,
0000
0000
0000
0000
,
0002
0000
0003
0110
0000
0000
0000
0010
,
1010
0000
0000
1100
0000
0000
1001
0000
0000
0000
0000
0000
0000
0000
0001
0000
,
0200
0000
0300
1001
0000
0100
0000
1000
,
1100
0101
0011
1010
,
0010
0100
0000
0010
0000
0000
2000
0000
0000
0000
0000
0000
3000
0000
0001
0000
,
1000
0000
0000
0000
0000
0000
1000
0000
0000
0000
0000
0000
0000
0000
0100
0010
,
0001
0010
0000
0001
0000
0000
0200
0000
0000
0000
0300
0000
0001
0100
0010
1000
,
0001
0000
0000
0100
0000
0000
0010
0000
1000
0000
0000
0000
0011
0000
0000
0000
,
0100
1000
0000
0100
0000
0000
0020
0000
0000
0000
0030
0000
0000
0000
0001
0000
,
0010
0000
0000
0000
0000
0000
0010
0000
0000
0000
0100
1000
0100
1000
0100
1000
,
0001
0100
0000
0001
0000
0000
2000
0000
0000
0000
3000
0000
0010
0100
0001
1000
,
0010
0000
0000
0100
0000
0000
0001
0000
0100
0000
0000
0010
0000
0000
1000
0000
,
2200
0000
0000
0000
0000
0000
3300
0000
0000
0000
0100
1000
0100
0010
0001
0100
,
0010
0000
0000
1000
0000
0000
0010
0000
0100
0000
0000
0001
0000
0000
0000
0010
,
0000
0000
0000
2002
0000
0000
3003
0000
,
0100
0000
0000
0000
0000
0000
0000
0000
0000
0001
0000
0000
0100
0000
0000
0000
0000
0000
0001
0000
0000
0000
0000
0000
1000
0000
0000
0010
0000
0000
0100
0000
0000
0010
0000
0000
1000
0000
0100
0000
0010
0000
0001
0000
0000
0010
0000
0000
,
0001
0000
0000
0100
0000
0000
0020
0000
0000
0000
0130
0000
0000
0000
0001
0000
,
2000
3000
0101
1100
,
0010
0000
0000
0001
0000
0000
0200
0000
0000
0000
0310
0000
1000
0100
1000
0100
,
0010
0000
0010
0001
0000
0001
0100
0001
0100
0000
0000
0110
0000
0000
0010
0000
,
1000
0000
0000
0010
0000
0100
0010
0000
0100
0000
0000
0001
0000
0000
1000
0000
,
0001
0000
0000
0010
0000
0100
0010
0000
0001
1000
0001
0100
0000
0000
0000
0000
,
0010
0000
1000
0010
0000
0100
0010
0000
1000
0000
0000
0001
0000
1000
0100
0000
,
1000
0000
1000
0010
0000
0010
0100
0000
0001
0000
0000
0010
0000
0000
0100
0000
,
1100
0000
0000
1100
0000
0000
0001
0000
0011
0000
0000
0000
1001
0000
0000
0000
,
0100
0001
0100
0001
0000
0100
0010
0100
0010
1000
0010
1000
0000
0001
1000
0000
,
1010
0000
0000
1010
0000
0000
0100
0000
0101
0000
0000
0000
0110
0000
0000
0000
,
1000
0000
0010
0000
0100
0000
0010
0000
0000
1000
0000
0000
0010
0000
0000
0100
0000
0000
0001
0000
0000
0100
0000
0000
0010
0000
0000
0000
0000
0000
1000
0000
0000
0000
0000
0000
0010
0000
0000
0100
0000
0000
0000
0000
0000
0000
0000
0000
,
1001
0000
1000
0000
0000
0010
0000
0000
0100
0010
0100
0010
0000
0000
0000
0000
,
1000
0000
1000
0001
0000
0001
0100
0000
0010
0000
0010
1000
0000
1000
0100
1000
,
0000
0000
0001
0000
0000
1000
0000
0000
0001
0010
0001
0010
0000
0000
0000
0000
,
0200
0000
1300
0000
0200
0000
0310
0000
0100
0000
1000
0001
0000
0000
1000
0000
,
1010
0000
0010
0000
0000
0100
0000
0000
0010
1000
0010
1000
0001
0000
0010
0100
,
0010
0000
0001
0100
0000
0010
1000
0000
0010
0000
0100
0001
0100
0000
0110
0000
,
0000
0000
0100
0000
0000
0001
0000
0000
1000
0010
1000
0010
0000
0100
0000
0000
,
0001
0000
0000
0001
0100
0000
0000
0100
0010
0000
0000
0010
1000
0000
0000
0000
,
0001
0100
0000
0001
0000
0000
0020
0000
0000
0000
0030
0000
1001
0000
0000
0000
,
0100
0000
0000
1000
0000
0000
0010
0000
0100
0000
0000
0000
0101
0000
0000
0010
,
0001
0000
0000
0010
0000
0000
0200
0000
0000
0000
0300
0000
1000
0010
0100
0001
,
1000
0000
0000
0100
0000
0000
0010
0000
0001
0000
0000
0000
0011
0000
0000
0000
,
0100
0010
0000
0100
0000
0000
0002
0000
0000
0000
0003
0000
0110
0000
0000
0000
,
1000
0000
0000
0010
0000
0000
1000
0000
0100
0000
0000
0010
0000
0000
0001
0100
,
0001
0010
0000
0100
0000
0000
2000
0000
0000
0000
3000
0000
0001
0100
0010
1000
,
0100
0000
1000
0010
0000
0100
0010
0000
1000
0001
1000
0000
0010
0000
0010
0000
,
0100
0001
0010
0100
1000
0010
0200
0000
0000
0000
0301
0000
0001
0010
0100
1000
,
0010
0000
0100
0010
0000
0100
0010
0000
1000
0000
0000
0001
0000
0000
0100
0010
,
1000
0010
0100
0001
0010
0100
2000
0000
0000
0000
0000
0000
3001
0000
0100
0001
,
0010
0100
0010
0001
0010
0001
1000
0001
1000
0100
1000
0100
1000
0000
1000
0001
,
0010
0000
0000
0100
0000
0000
1000
0000
0000
0010
0000
0000
0100
0000
0000
0001
0000
0000
0020
0000
0000
0000
0000
0000
0000
0000
0000
0000
0000
0000
0130
0000
0000
0000
0000
0000
0100
0000
0000
0010
0000
0000
0001
0000
1000
0000
0010
0000
,
0100
0000
0010
1000
0010
0100
0001
0100
0010
1000
0001
0010
0100
1000
0010
0000
,
1000
0010
1000
0100
1000
0010
1000
0100
1000
0001
0100
0010
0100
0001
0010
0100
,
1000
0000
1000
0010
0000
0010
0100
0000
0001
0000
0000
0000
1001
0000
0000
0000
,
0100
0000
0000
0010
0000
1000
0010
0000
0100
0000
0000
0001
0000
0000
0010
0000
,
0100
0000
0000
1000
0000
0010
1000
0000
0001
0100
0010
1000
0000
0000
0000
0000
,
0001
0000
0100
0010
0000
0100
0001
0000
1000
0000
0000
0010
0000
0000
0100
0000
,
0010
0000
1000
0100
0000
1000
0010
0000
0001
0000
0100
0001
0000
0010
0001
0000
,
0101
0000
0000
0101
0000
0000
0010
0000
1010
0000
0000
0000
0110
0000
0000
0000
,
0100
0001
0100
0001
0000
0100
0010
0100
0010
0000
1000
0001
0000
1000
0010
0000
,
1100
0000
0000
1100
0000
0000
0001
0000
0011
0000
0000
0000
1001
0000
0000
0000
,
1000
0000
0100
0000
0010
0000
0001
0000
0000
0010
0000
0000
0001
0000
0000
0100
0000
0000
0010
0000
0000
1000
0000
0000
0010
0000
0000
0100
0000
0000
0001
0000
0000
0010
0000
0000
0100
0000
0000
0010
0000
0000
0000
0000
0000
0000
0000
0000
,
1001
0000
0000
0000
;
