#TITLE:地下牢鬼ごっこ - Flandre's Haunted Dungeon;
#SUBTITLE:;
#ARTIST:ARM;
#TITLETRANSLIT:Chikarou Onigokko - Flandre's Haunted Dungeon;
#SUBTITLETRANSLIT:;
#ARTISTTRANSLIT:;
#GENRE:;
#CREDIT:;
#BANNER:dungeon-bn.png;
#BACKGROUND:dungeon-bg.png;
#LYRICSPATH:;
#CDTITLE:loodeecdtitle.png;
#MUSIC:dungeon.ogg;
#OFFSET:-0.936;
#SAMPLESTART:89.445;
#SAMPLELENGTH:24.000;
#SELECTABLE:YES;
#BPMS:0.000=160.000;
#STOPS:;
#BGCHANGES:;
#KEYSOUNDS:;

//---------------dance-single - Loodee----------------
#NOTES:
     dance-single:
     Loodee:
     Challenge:
     11:
     0.834,0.894,0.410,0.374,0.587:
0000
0000
0000
0000
,
0000
0000
0000
0000
,
0000
0000
0000
0000
,
0000
0000
0000
0000
,
0000
0000
0000
0000
,
0000
0000
0000
0000
,
0000
0000
0000
0000
,
0000
0000
0000
0000
0000
0000
0000
0000
2002
0000
0000
3003
2002
0000
0000
3003
,
0001
0100
0010
1000
,
0100
0000
0000
0010
0000
0100
1000
0000
0000
0010
0000
0000
,
0100
0000
0000
0000
0001
0000
0010
0000
0000
0000
0001
1000
0010
0000
0000
0000
0100
0000
0001
0000
0000
0000
0010
0000
,
0100
0000
0010
0001
0000
1000
0010
0000
0000
0000
0000
0000
,
1000
0001
0000
0000
0000
0000
0010
0000
0000
0000
0000
0000
0001
0000
0000
0000
0000
0000
0100
0000
0000
0000
0000
0000
,
0010
0000
0000
0100
0000
0001
0010
0000
0000
0100
0000
0000
,
1000
0000
0010
1000
0000
0001
0010
0000
0000
0100
0000
1000
,
0001
0100
0001
0000
0000
0000
0000
0000
0000
0000
0000
0000
0000
0000
0000
0000
0000
0000
0000
0000
0000
0000
0000
0000
,
0000
0000
0000
0000
,
1000
0100
0010
0001
1000
0010
0100
0010
1000
0001
0010
0100
0010
0001
1000
0010
,
0100
0001
0010
0100
1000
0010
0100
0001
1000
0100
0010
0100
1100
0000
0000
0000
,
0011
0000
0001
0000
1000
0000
0010
0000
0100
0000
0100
0000
0001
0010
0100
0000
,
1000
0000
1000
0000
0010
0000
1000
0000
0100
0000
0010
0000
0100
1000
0010
0000
,
0100
0000
0001
0000
1000
0000
0001
0000
0010
0000
0010
0000
0010
0100
1000
0001
,
0100
0000
0010
0000
1000
0000
0001
0000
0010
0000
0100
0000
0010
0001
1000
0001
,
0100
0010
1000
0100
1000
0001
0100
0010
,
0100
0001
0010
1000
0010
0010
0001
0001
,
0100
00M0
0100
0000
1000
0000
0001
0000
0100
00M0
0100
0000
1000
0000
0001
0000
0100
0000
0000
0000
0010
0000
0000
0000
0100
0000
0000
0000
0001
0000
0000
0000
,
1001
1000
0100
0010
0000
0100
0000
0020
0000
0032
0000
1003
0020
0000
1030
0100
,
0010
0100
1000
0001
0100
0100
0010
1000
,
0100
0000
0100
0000
0001
0000
0100
0000
0010
0001
1000
0010
0100
0000
0010
0000
,
1000
0000
0001
0000
0010
0000
0100
0000
0010
0000
0010
0000
0010
0001
1000
0100
,
0010
0000
0001
0000
0100
0000
0010
0000
0100
0000
0001
0000
1000
0001
0100
0010
,
0100
0001
1000
0001
0010
0100
1000
0100
,
0010
0001
0100
0001
0010
0001
1000
0001
,
0010
M000
0010
0000
1000
0000
0001
0000
0100
00M0
0100
0000
1000
0000
0001
0000
0100
0000
0010
0000
1000
0000
0001
0000
0010
0000
0100
0000
0010
0000
0001
0000
,
1000
0010
0000
1000
0000
0001
0000
0010
0000
0000
0000
0000
0000
0000
0000
0000
,
1200
0000
0000
0000
0000
0000
0000
0000
0320
0000
0000
0000
0000
0000
0000
0000
0130
0000
1000
0000
0010
0M00
0010
0000
0002
0000
0000
0000
0203
0000
0000
0000
,
0310
1000
0100
0010
0001
0000
0001
0100
0010
1000
0100
0010
0100
0000
2000
0000
,
3020
0000
0000
0000
0230
0000
0300
0000
0001
0000
0010
0100
0002
0000
0103
0000
,
1000
0000
0000
0000
0000
0000
0010
0000
0000
0000
0000
0000
0200
0000
0000
0000
0000
0000
0000
0000
0000
0000
0000
0000
0310
0000
0000
0100
0000
0000
0001
0000
0000
0010
0000
0000
0100
0000
0000
0000
1000
0000
0000
0000
0001
0000
0000
0000
,
0201
0000
0000
0000
0000
0000
0000
0000
0320
0000
0000
0000
0000
0000
0000
0000
1030
0000
0001
0000
0100
M000
0100
0000
0020
0000
0000
0000
0032
0000
0000
0000
,
0103
0010
1000
0001
0010
0000
0010
0100
1000
0001
0100
0010
0100
0000
0002
0000
,
0023
0000
0000
0000
0230
0000
0300
0000
1000
0000
0010
0100
2000
0000
3100
0000
,
0000
0000
0000
0000
,
0102
0000
0000
0000
0000
0000
0000
0000
2003
0000
0000
0000
0000
0000
0000
0000
3010
0000
1000
0000
0100
00M0
0100
0000
0002
0000
0000
0000
0023
0000
0000
0000
,
0130
0010
0001
1000
0010
0000
0010
0100
0001
0000
0100
0000
2000
0000
0000
0000
,
3200
0000
0000
0000
0320
0000
0030
0000
1000
0000
0100
0010
2000
0000
3010
0000
,
0001
0000
0000
0100
0000
0000
0010
0000
0000
0100
0000
0000
0001
0000
0000
1000
0000
0000
0100
0000
0000
1000
0000
0000
0001
0000
0000
0100
0000
0000
0010
0000
0000
1000
0000
0000
0100
0000
0000
0000
0010
0000
0000
0000
0001
0000
0000
0000
,
2001
0000
0000
0000
0000
0000
0000
0000
0020
0000
0000
0000
0000
0000
3030
0000
1000
0000
0001
0000
0010
0M00
0010
0000
2000
0000
0000
0000
3001
0000
0000
0000
,
1002
0000
0023
0000
0032
0000
0023
0000
0130
1000
0010
1000
0002
0000
0103
0000
,
0120
0000
0000
0000
0000
0000
0000
0000
0000
0000
0000
0000
0000
0000
0000
0030
,
1010
0000
0000
0000
0000
0000
0000
0000
0000
0000
0000
0000
0000
0000
0000
0000
0000
0000
0000
0000
0000
0000
0000
0000
1000
0000
0001
0000
1000
0000
0001
0000
0000
0010
0000
0000
0100
0000
0000
0000
0000
0000
0000
0000
0000
0000
0000
0000
,
1100
1000
0010
1000
0100
0010
0001
0010
,
0100
1000
0010
1000
0100
0010
0001
0010
,
0001
0100
0010
0100
0001
0010
0100
0010
,
0001
0100
0010
0100
0001
0010
0100
1000
,
0010
0100
0001
1000
0100
0010
0100
0010
,
0001
1000
0010
1000
0001
0010
0100
1000
,
0100
0010
0001
1000
0010
1000
0100
0010
0100
1000
0001
0100
0010
1000
0001
0010
,
0001
0000
0100
0010
0100
0000
0001
0000
0020
0000
0130
0000
1001
0000
0001
0000
,
0101
0100
0010
1000
0100
1000
0010
0100
,
0002
0000
0000
1003
0001
0000
0010
0000
0200
0000
0300
0000
0020
0000
0030
0000
,
0001
0000
0100
0000
0010
0000
0001
0000
0010
0100
0010
1000
0001
0000
0010
0000
,
0001
1000
0001
0100
0001
0001
0010
0100
,
1000
0010
0100
0001
0010
0001
0100
0010
,
1000
0010
0001
0010
0100
0001
1000
0100
,
0010
0000
0001
0000
0010
0000
1000
0000
0010
0000
0001
1000
0010
0000
0100
0000
,
0001
0000
0001
1000
0001
0000
0010
0000
1000
0000
0010
0000
0100
0000
1000
0000
,
1001
0001
0100
0010
1000
0100
0010
0100
,
2000
0000
0000
3010
1000
0000
0001
0000
0020
0000
0030
0000
0100
0000
0000
0000
,
0010
0000
0001
0000
0100
0000
1000
0000
0100
0010
0100
0001
1000
0000
0100
0000
,
0010
0001
0100
0001
1000
1000
0010
0100
,
0001
0010
0001
0100
0010
1000
0001
0100
,
0010
0100
1000
0100
0010
1000
0001
1000
,
1100
0000
0100
0000
0010
0000
0001
0000
1001
0000
1000
0010
0100
0000
0001
0000
,
0011
0000
0010
0100
0000
1000
0001
0000
0100
0000
0001
0000
0100
0000
0010
0000
,
1010
1001
1001
0000
0011
1001
1001
0000
,
1010
0110
0110
0000
0101
0001
1001
1000
,
1100
0000
1100
0000
0010
0000
0001
0000
1000
0010
0100
0001
1000
0000
0100
0000
,
1100
1100
1001
0000
1100
0100
0110
0010
,
0011
0011
1001
0000
1010
1010
1001
0000
,
0011
0011
1001
0000
1010
0010
0110
0100
,
0101
0000
0101
0000
0010
0000
1000
0000
1001
0000
0001
0010
0100
0000
0010
0000
,
0011
0000
0001
1000
0001
1000
0010
0100
0001
0000
0010
0000
0100
0000
1000
0000
,
1100
0000
0100
0010
0000
0001
1000
0000
1020
0000
0000
0000
0130
0000
0100
0000
,
0001
0000
1000
0001
0000
0010
0100
0000
2100
0000
0000
0000
3001
0100
0001
0100
,
0010
0000
1000
0010
0000
1000
0001
0000
0021
0000
0000
0000
0000
0000
0100
0000
,
0130
0000
0000
0000
0000
0000
1000
0000
0000
0100
0000
0000
0000
0000
0000
0010
0000
0000
0001
0000
0000
0000
0000
0000
1000
0000
0000
0000
0010
0000
0000
0000
1000
0000
0000
0000
0001
0000
0000
0000
0010
0000
0000
0000
0001
0000
0000
0000
,
0100
0010
1000
0001
0010
0001
1000
0001
,
0100
0010
0100
0001
1000
0100
0010
0001
0010
0100
1000
0001
1000
0010
0100
0001
,
1000
0000
0010
0000
0100
0000
1000
0000
0100
0000
0010
1000
0001
0000
0010
0000
,
0100
0000
0100
0010
0100
0000
1000
0000
0040
0000
0000
0000
0000
0000
0000
0030
,
0202
0000
0000
0000
,
0303
0000
0000
0000
;
