#VERSION:0.83;
#TITLE:Mii Channel;
#SUBTITLE:(but all the pauses are uncomfortably long);
#ARTIST:Nintendo;
#TITLETRANSLIT:;
#SUBTITLETRANSLIT:;
#ARTISTTRANSLIT:;
#GENRE:;
#ORIGIN:;
#CREDIT:;
#BANNER:;
#BACKGROUND:;
#PREVIEWVID:;
#JACKET:;
#CDIMAGE:;
#DISCIMAGE:;
#LYRICSPATH:;
#CDTITLE:;
#MUSIC:mii channel but all the pauses are uncomfortably long.mp3;
#OFFSET:1.481972;
#SAMPLESTART:101.535255;
#SAMPLELENGTH:12.000000;
#SELECTABLE:YES;
#BPMS:0.000=114.000;
#STOPS:9.250=1.500,
16.750=2.150,
24.750=2.400,
26.750=3.750,
28.750=2.650,
36.750=2.150,
38.750=1.400,
42.250=1.400,
45.750=4.450,
55.750=1.900,
58.250=1.125,
96.250=4.070,
99.750=1.450,
102.250=5.150,
106.250=1.450,
109.750=3.400,
117.750=4.425,
119.750=1.900,
121.750=6.350,
129.750=1.450,
134.250=2.850,
135.250=1.500,
136.250=1.450,
138.750=5.580,
139.250=0.300,
149.250=2.250;
#DELAYS:;
#WARPS:;
#TIMESIGNATURES:0.000=4=4;
#TICKCOUNTS:0.000=4;
#COMBOS:0.000=1;
#SPEEDS:0.000=1.000=0.000=0;
#SCROLLS:0.000=1.000;
#FAKES:;
#LABELS:0.000=Song Start;
#BGCHANGES:;
#KEYSOUNDS:;
#ATTACKS:
;

//---------------dance-single - ----------------
#NOTEDATA:;
#CHARTNAME:;
#STEPSTYPE:dance-single;
#DESCRIPTION:;
#CHARTSTYLE:;
#DIFFICULTY:Challenge;
#METER:6;
#RADARVALUES:0.221915,0.244619,0.209372,0.216126,0.000000,230.000000,199.000000,31.000000,32.000000,0.000000,0.000000,0.000000,0.000000,0.000000,0.221915,0.244619,0.209372,0.216126,0.000000,230.000000,199.000000,31.000000,32.000000,0.000000,0.000000,0.000000,0.000000,0.000000;
#CREDIT:;
#NOTES:
0000
0000
0000
0000
,
1001
0000
0010
0001
0000
0010
0000
0100
,
1000
1000
1000
0000
1000
0010
0100
0001
,
0010
0000
0100
0000
1000
0020
0000
0000
,
1030
0101
0000
1001
0000
0101
0100
0000
,
0010
0000
1000
0000
0011
0000
1000
0100
,
0000
0110
0000
1001
1001
1001
0000
1001
,
1001
1001
0000
0002
0000
0023
0000
0130
,
0000
1000
0101
0000
0100
0000
0010
1000
,
1000
1000
0000
0001
0001
0001
0000
0000
,
0100
0001
0010
0000
0100
0000
0010
0022
,
0000
0000
0033
1100
0000
0010
0001
1000
,
0200
0000
1300
0010
1000
0001
0100
0010
,
2000
0000
3001
0010
0100
0110
0110
0110
,
0000
2000
3100
0020
0031
0200
0310
0000
,
0000
0000
0000
2000
,
3002
0000
0203
0000
0310
1000
0000
0001
,
0000
0100
0010
2000
0000
3100
0010
0200
,
0000
0310
0002
0000
0103
0020
0000
1030
,
0000
0100
1000
0001
0000
1000
0100
0100
,
0100
0000
0020
0000
0031
0200
0000
0301
,
0000
0100
0010
1000
0100
0001
0100
2000
,
0000
3100
0020
0000
0031
0100
2000
0000
,
3000
0100
0001
1000
0000
1000
0010
0010
,
0010
0000
0100
0000
0001
0010
0000
0100
,
0000
0100
1000
1000
1000
0000
0002
0013
,
0100
1000
0001
0000
0010
0000
0100
2100
,
0000
0000
3010
0100
0000
0001
0000
1010
,
1000
0001
0010
0110
,
0100
1000
0000
1001
0000
1100
1100
1100
,
0000
0011
0011
0011
0000
0002
0000
0203
,
0000
0310
0000
1000
0001
0000
1000
0000
,
0010
0100
0100
0100
0000
0010
0010
0010
,
0000
0000
1000
0100
0001
0000
0010
0000
,
0001
2000
0000
0000
0000
3010
0000
0000
,
0010
1000
0100
0020
0000
0031
1000
0100
,
0010
0100
1000
0020
0000
1030
0001
0100
,
0110
0110
0110
0000
0020
1030
0200
0310
,
0002
1003
0000
0000
0000
0000
0000
0000
;
