#TITLE:would you...?;
#SUBTITLE:;
#ARTIST:Touch and Go;
#TITLETRANSLIT:;
#SUBTITLETRANSLIT:;
#ARTISTTRANSLIT:;
#GENRE:;
#CREDIT:;
#BANNER:[Stops] - would you.png;
#BACKGROUND:[Stops] - would you-bg.png;
#LYRICSPATH:;
#CDTITLE:cdtitle.png;
#MUSIC:[Stops] - would you.ogg;
#OFFSET:-0.963000;
#SAMPLESTART:56.540276;
#SAMPLELENGTH:13.000000;
#SELECTABLE:YES;
#DISPLAYBPM:171.000000;
#BPMS:0.000000=170.960999
;
#STOPS:57.500000=1.403830,
149.500000=1.403831
;
#BGCHANGES:;
#KEYSOUNDS:;
#ATTACKS:;

//---------------dance-single - ----------------
#NOTES:
     dance-single:
     :
     Easy:
     5:
     0.328551,0.469276,0.486692,0.114516,0.000000,241.000000,190.000000,51.000000,12.000000,0.000000,0.000000,0.328551,0.469276,0.486692,0.114516,0.000000,241.000000,190.000000,51.000000,12.000000,0.000000,0.000000:
// measure 0
0000
0000
0000
0000
,  // measure 1
0000
0000
0000
0000
,  // measure 2
1000
0001
0000
0001
,  // measure 3
0000
0001
0000
0001
,  // measure 4
1000
0001
0000
0001
,  // measure 5
0000
0001
0000
0001
,  // measure 6
1000
0001
0000
0001
,  // measure 7
0000
0001
0000
0001
,  // measure 8
0100
0010
0100
0000
,  // measure 9
0010
0100
0010
0000
,  // measure 10
1000
0001
1000
0000
,  // measure 11
0001
1000
0001
0000
,  // measure 12
0010
0100
1000
0000
,  // measure 13
0100
0010
0001
0000
,  // measure 14
0011
0011
0000
0000
,  // measure 15
2000
0010
3001
0000
,  // measure 16
1001
0101
1001
0000
,  // measure 17
0002
0010
1003
0000
,  // measure 18
1001
1100
1001
0000
,  // measure 19
2000
0100
3001
0000
,  // measure 20
1001
0011
1001
0000
,  // measure 21
0002
0100
1003
0000
,  // measure 22
0002
0100
1003
0000
,  // measure 23
1001
1001
0000
0001
,  // measure 24
0000
0001
0000
0001
,  // measure 25
1001
1001
0000
0001
,  // measure 26
0000
0001
0000
0001
,  // measure 27
1001
1001
0000
1000
,  // measure 28
0000
1000
0000
1000
,  // measure 29
1001
1001
0000
1000
,  // measure 30
0000
1000
0000
1000
,  // measure 31
1001
1001
0000
1000
,  // measure 32
0000
1000
0000
1000
,  // measure 33
0110
0110
0000
0100
,  // measure 34
0000
0100
0000
0100
,  // measure 35
0110
0110
0000
0010
,  // measure 36
0000
0010
0000
0010
,  // measure 37
1001
1001
0000
0000
,  // measure 38
0200
1000
0310
0000
,  // measure 39
0011
1001
1100
0000
,  // measure 40
0020
1000
0130
0000
,  // measure 41
0101
1001
1010
0000
,  // measure 42
0200
0010
1300
0000
,  // measure 43
0011
1001
1100
0000
,  // measure 44
0020
0100
1030
0000
,  // measure 45
0020
0100
1030
0000
,  // measure 46
0001
0001
0001
0001
,  // measure 47
0001
0001
0001
0001
,  // measure 48
0001
0001
0001
0001
,  // measure 49
0001
0001
0001
1000
,  // measure 50
1000
1000
0000
0000
,  // measure 51
1000
1000
1000
0000
,  // measure 52
1010
0000
1010
0000
,  // measure 53
1010
1010
1010
1010
,  // measure 54
1001
0100
0010
0100
,  // measure 55
0010
0100
0010
0100
,  // measure 56
1001
0100
0010
0100
,  // measure 57
0010
0100
0010
0100
,  // measure 58
1001
0001
0100
0000
,  // measure 59
0200
0000
0000
0000
,  // measure 60
0000
0000
0000
0020
,  // measure 61
0030
0300
0000
0000
,  // measure 62
1001
0000
0001
0000
,  // measure 63
1000
1000
0001
0000
,  // measure 64
1001
0000
1000
0000
,  // measure 65
0001
0001
1000
0000
,  // measure 66
1001
0000
0010
0000
,  // measure 67
0100
0100
0010
0000
,  // measure 68
1001
0000
0100
0000
,  // measure 69
0010
0010
0100
0000
,  // measure 70
1010
1010
0000
0000
;

//---------------dance-single - ----------------
#NOTES:
     dance-single:
     :
     Medium:
     6:
     0.381719,0.435757,0.095430,0.019086,0.000000,280.000000,270.000000,10.000000,2.000000,0.000000,0.000000,0.381719,0.435757,0.095430,0.019086,0.000000,280.000000,270.000000,10.000000,2.000000,0.000000,0.000000:
0000
0000
0000
0000
,
0000
0000
0000
0000
,
0001
0000
0000
0000
,
0000
0000
0000
0000
0000
1000
0000
1000
,
0001
0000
0000
0000
,
0000
0000
0000
0000
0000
1000
0000
1000
,
0001
0000
0000
0000
,
0000
0000
0000
0000
0000
1000
0000
1000
,
0001
0000
0001
0000
0010
0001
0010
0000
,
0100
0100
1000
0001
,
1000
0000
1000
0000
0001
0100
0001
0000
,
1000
1000
0010
0100
,
0001
0000
0001
0000
1000
0001
1000
0000
,
0010
0010
1000
0100
,
1100
1100
0000
0000
,
0001
0000
0010
0000
0001
1000
0100
0000
,
1000
0000
0010
0000
1000
0001
0100
0000
,
0001
0000
0010
0000
0001
1000
0100
0000
,
1000
0000
0010
0000
1000
0001
0100
0000
,
0001
0000
0010
0000
0100
1000
0010
0000
,
1000
0000
0010
0000
0100
0001
0010
0000
,
0001
0000
0010
0000
0100
1000
0010
0000
,
0001
0000
0010
0000
0100
1000
0010
0000
,
0100
0100
0000
0000
,
0000
0000
0000
0000
0000
0010
0000
0010
,
0100
0100
0000
0000
,
0000
0000
0000
0000
0000
0010
1000
0001
,
0100
0100
0000
0001
,
0000
0000
0001
0000
0000
1000
0000
1000
,
0100
0100
0000
1000
,
0000
0000
1000
0000
0000
0001
0000
0001
,
0100
0100
0000
0001
,
0000
0000
0001
0000
0000
1000
0000
1000
,
0100
0100
0000
1000
,
0000
0000
1000
0000
0000
0001
0010
0100
,
1000
0000
0010
0000
1000
0001
0100
0000
,
0010
0000
0010
0000
1000
0100
0010
0000
,
0110
0110
0000
0000
,
0001
0010
0100
0000
0010
0100
1000
0000
,
0010
1000
0001
0000
,
1000
0010
0100
0000
0010
0100
0001
0000
,
1000
0001
0010
0100
,
1000
0001
0010
0000
0010
0001
1000
0000
,
0010
1000
0100
0000
,
0010
0001
1000
0000
0100
1000
0001
0000
,
0010
0001
1000
0000
0100
1000
0001
0000
,
1000
0000
0100
0000
0010
0001
1000
0000
,
0010
1000
0001
0000
0010
0000
0100
0000
,
1000
0000
0010
0000
0100
0001
1000
0000
,
0001
0010
0100
0000
1000
0000
0010
0000
,
1000
0000
0100
0000
0010
0001
1000
0000
,
0010
1000
0001
0000
0010
0000
0100
0000
,
1000
0010
0100
0000
0001
0100
0010
0000
,
1000
0010
0100
0000
0001
0100
0010
0000
,
1000
0000
0010
0000
0100
0001
0100
0000
,
0001
0000
0010
0000
0100
1000
0100
0000
,
1000
0000
0010
0000
0100
0001
0100
0000
,
0001
0010
0100
1000
,
1000
0010
1000
0000
0010
0000
0100
0000
,
0002
0000
0000
0000
,
0000
0000
0000
2000
,
3000
0003
0000
0000
0000
0000
0000
0000
,
1001
0000
1000
0000
0100
0000
1000
0001
,
0100
0010
1000
0100
,
1001
0000
0010
0000
0001
1000
0100
0000
,
1000
0001
0100
0010
,
1001
0000
0100
0010
1000
0000
0001
0000
,
0010
0100
1000
0001
,
1001
0000
1000
0000
0010
1000
0001
0000
,
0010
0100
1000
0001
,
1100
1100
0000
0000
;

//---------------dance-single - ----------------
#NOTES:
     dance-single:
     :
     Hard:
     8:
     0.456700,0.569836,0.209946,0.143145,0.019086,335.000000,313.000000,22.000000,15.000000,0.000000,0.000000,0.456700,0.569836,0.209946,0.143145,0.019086,335.000000,313.000000,22.000000,15.000000,0.000000,0.000000:
0000
0000
0000
0000
,
0000
0000
0000
0000
,
1000
0010
0000
0010
,
0000
0000
0010
0000
0000
0001
0000
0001
,
1000
0010
0000
0010
,
0000
0000
0010
0000
0000
0001
0000
0001
,
1000
0010
0000
0010
,
0000
0000
0010
0000
0000
0001
0010
0100
,
1000
0000
0010
0000
1000
0001
0000
0001
,
0000
1000
0010
0100
0001
0000
0010
0000
,
0001
0000
0010
0000
0001
1000
0000
1000
,
0000
0001
0010
0100
1000
0100
0010
0001
,
1000
0000
0010
0000
1000
0001
0000
0001
,
0000
0001
0010
0100
1000
0000
0001
0000
,
1001
0000
1001
0000
0000
0010
1000
0002
,
0000
1000
2000
3003
,
1001
0000
0100
0010
0000
1000
0010
0200
,
0000
0001
0002
0303
,
0101
0000
0010
1000
0001
0000
0010
0200
,
0000
1000
2000
3300
,
1100
0000
0001
0100
0000
0010
1000
0002
,
0000
0000
0013
0000
1000
0010
1000
0002
,
0000
0000
0013
0000
1000
0010
0100
0001
,
1000
0010
0100
0001
0010
0100
1000
1000
,
0000
0000
0000
0000
0000
0001
0000
0001
,
1000
1000
0000
0010
,
0000
0000
0010
0000
0000
0001
0010
0100
,
1000
1000
0000
0010
,
0000
0000
0010
0000
0000
0001
0000
0001
,
1000
1000
0000
0010
,
0000
0000
0010
0000
0000
0001
0010
0100
,
1000
1000
0000
0010
,
0000
0000
0010
0000
0000
0001
0000
0001
,
1000
1000
0000
0010
,
0000
0000
0010
0000
0000
0001
0010
0100
,
1000
0000
1000
0000
0010
0100
0000
0001
,
0000
0001
0100
0010
1000
0000
0100
0000
,
0110
0000
0110
0000
0000
1000
0010
0200
,
0000
0001
0301
1100
,
0001
0000
0010
0100
0000
1000
0100
0020
,
0000
0001
0031
1010
,
0100
0000
0001
0010
0100
0000
1000
0002
,
0000
0100
0103
0011
,
0100
0000
1000
0001
0000
1000
0010
0200
,
0000
0000
0301
0000
0010
1000
0010
0200
,
0000
0000
0301
0000
0010
1000
0010
0000
,
1000
0100
1000
0100
1000
0100
1000
0100
,
1000
0100
1000
0100
1000
0100
1000
0100
,
1000
0100
1000
0100
1000
0100
1000
0100
,
1000
0100
1000
0100
1000
0001
0100
0001
,
0100
0001
0100
0000
0001
0100
0000
0001
,
0100
0001
0100
0001
0100
0001
1000
0000
,
1100
0000
0011
0000
,
1100
0011
0101
1010
,
1001
0000
0110
0000
0001
1000
0000
0001
,
0000
0010
0100
1000
0100
0000
0010
0000
,
0011
0000
1100
0000
1000
0100
0000
0010
,
0000
0001
0100
0010
1000
0010
0100
0000
,
0001
0010
0001
0010
0100
1000
0000
0002
,
0000
0000
0000
0000
,
0000
0000
0000
2000
,
3000
0000
0003
0000
0000
0000
0000
0000
0000
0000
0000
0000
0000
0000
0000
1000
,
0001
0000
0100
0000
0010
1000
0000
0010
,
0000
0000
1000
0000
0010
0000
0100
0000
0001
0000
0000
0000
0010
0000
0000
0001
,
1000
0000
0100
0000
0010
0001
0000
0010
,
0000
0000
0001
0000
0010
0000
0100
0000
1000
0000
0100
0000
0010
0000
0000
0100
,
0010
0000
0001
0000
1000
0010
0000
1000
,
0000
0000
0001
0000
0100
0000
0010
0000
1000
0000
0000
0000
0001
0000
0000
0010
,
0100
0000
1000
0000
0001
0100
0000
0001
,
0000
0010
0100
1000
0100
0010
0001
0100
,
0101
1100
0000
0000
;

//---------------dance-single - ----------------
#NOTES:
     dance-single:
     :
     Beginner:
     1:
     0.098156,0.201118,0.047715,0.009543,0.000000,72.000000,67.000000,5.000000,1.000000,0.000000,0.000000,0.098156,0.201118,0.047715,0.009543,0.000000,72.000000,67.000000,5.000000,1.000000,0.000000,0.000000:
0000
0000
0000
0000
,
0000
0000
0000
0000
,
0001
0000
0000
0000
,
0000
0000
0000
0000
,
0001
0000
0000
0000
,
0000
0000
0000
0000
,
0001
0000
0000
0000
,
0000
0000
0000
0000
,
1000
0000
0000
0000
,
1000
0000
0000
0000
,
1000
0000
0000
0000
,
1000
0000
0000
0000
,
0010
0000
0000
0000
,
0010
0000
0000
0000
,
0010
0010
0000
0000
,
0000
0000
0000
0000
,
0100
0000
0000
0000
,
0010
0000
0000
0000
,
0100
0000
0000
0000
,
1000
0000
0000
0000
,
0001
0000
0000
0000
,
1000
0000
1000
0000
,
1000
0000
1000
0000
,
1000
1000
0000
0000
,
0000
0000
0000
0000
,
0010
0010
0000
0000
,
0000
0000
0000
0000
,
0001
0001
0000
0000
,
0000
0000
0000
0000
,
0100
0100
0000
0000
,
0000
0000
0000
0000
,
1000
1000
0000
0000
,
0000
0000
0000
0000
,
0010
0010
0000
0000
,
0000
0000
0000
0000
,
0001
0001
0000
0000
,
0000
0000
0000
0000
,
0100
0100
0000
0000
,
0000
0000
0000
0000
,
0010
0000
0000
0000
,
1000
0000
0000
0000
,
0010
0000
0000
0000
,
0001
0000
0000
0000
,
0100
0000
0000
0000
,
1000
0000
1000
0000
,
1000
0000
1000
0000
,
1000
0000
0000
0000
,
0001
0000
0000
0000
,
0010
0000
0000
0000
,
1000
0000
0000
0000
,
0100
0000
0000
0000
,
0001
0000
0000
0000
,
0010
0000
0010
0000
,
0010
0010
0010
0010
,
0000
0000
0000
0000
,
0000
0000
0000
0000
,
0100
0000
0000
0000
,
0000
0000
0000
0000
,
0010
0010
0010
0000
,
0020
0000
0000
0000
,
0000
0000
0000
0000
,
0000
0000
0030
0000
,
0000
0000
0000
0000
,
0000
0000
0000
0000
,
1001
0000
0000
0000
,
0000
0000
0000
0000
,
1001
0000
0000
0000
,
0000
0000
0000
0000
,
1001
0000
0000
0000
,
0000
0000
0000
0000
,
1001
1001
0000
0000
;
