#TITLE:ouroVoros;
#SUBTITLE:;
#ARTIST:Negentropy;
#TITLETRANSLIT:;
#SUBTITLETRANSLIT:;
#ARTISTTRANSLIT:;
#GENRE:;
#CREDIT:TiKAL;
#MUSIC:[Stops] - ouroVoros.ogg;
#BANNER:[Stops] - ouroVoros.png;
#BACKGROUND:[Stops] - ouroVoros-bg.png;
#CDTITLE:cdtitle.png;
#SAMPLESTART:20.946;
#SAMPLELENGTH:20.757;
#SELECTABLE:YES;
#OFFSET:-0.191;
#BPMS:0.000=185.000
,28.000=370.000
,33.500=185.000
,40.000=370.000
,42.500=185.000
,48.000=370.000
,56.000=185.000
,62.000=370.000
,64.500=185.000
,64.750=92.500
,65.000=185.000
,71.000=370.000
,72.500=185.000
,72.750=92.500
,73.000=185.000
,79.000=92.500
,79.250=185.000
,79.500=370.000
,80.500=185.000
,80.750=92.500
,81.000=185.000
,82.000=370.000
,83.000=185.000
,88.000=370.000
,88.500=185.000
,88.750=92.500
,89.000=185.000
,92.000=370.000
,95.500=555.000
,97.000=185.000
,101.000=370.000
,103.000=185.000
,104.000=370.000
,104.500=185.000
,104.750=92.500
,105.000=370.000
,106.000=185.000
,108.500=370.000
,109.500=185.000
,110.000=370.000
,110.500=185.000
,111.000=92.500
,111.250=185.000
,111.500=370.000
,112.500=185.000
,112.750=92.500
,113.000=185.000
,128.000=370.000
,137.750=185.000
,138.000=370.000
,140.500=185.000
,141.000=370.000
,144.000=185.000
,145.000=370.000
,147.000=185.000
,147.500=370.000
,156.000=185.000
,208.000=370.000
,212.000=92.500
,213.000=138.750
,214.000=185.000
,215.000=231.250
,216.000=323.750
,217.000=370.000
,218.000=380.000
,219.000=390.000
,220.000=400.000
,221.000=500.000
,222.000=92.500
,222.500=185.000
,223.000=370.000
,224.000=185.000
,320.000=92.500
,336.000=185.000
,364.000=370.000
,368.000=185.000
,384.000=370.000
,392.000=185.000
;
#STOPS:28.000=0.054
,28.333=0.054
,28.667=0.054
,29.000=0.054
,29.333=0.054
,29.667=0.054
,30.000=0.054
,30.333=0.054
,30.667=0.054
,31.000=0.054
,31.333=0.054
,31.667=0.054
,32.000=0.243
,40.000=0.243
,41.500=0.162
,48.000=0.243
,49.500=0.162
,50.500=0.243
,52.000=0.081
,52.500=0.162
,53.500=0.162
,54.500=0.243
,62.000=0.122
,62.750=0.122
,63.500=0.081
,71.000=0.041
,71.250=0.041
,71.500=0.040
,71.750=0.041
,82.000=0.040
,82.250=0.041
,82.500=0.041
,82.750=0.041
,92.000=0.081
,92.500=0.081
,93.000=0.081
,93.500=0.162
,94.500=0.081
,95.000=0.081
,95.500=0.324
,101.000=0.040
,101.250=0.041
,101.500=0.040
,101.750=0.041
,102.000=0.040
,102.250=0.041
,102.500=0.040
,102.750=0.041
,105.000=0.040
,105.250=0.041
,105.500=0.040
,105.750=0.041
,108.500=0.040
,108.750=0.041
,109.000=0.040
,109.250=0.041
,110.000=0.040
,110.250=0.041
,128.000=0.243
,129.500=0.162
,130.500=0.081
,131.000=0.243
,132.500=0.243
,134.000=0.122
,134.750=0.122
,135.500=0.243
,137.000=0.122
,138.000=0.122
,138.750=0.122
,139.500=0.162
,141.000=0.162
,142.000=0.081
,142.500=0.081
,143.000=0.081
,143.500=0.081
,145.000=0.162
,146.000=0.162
,147.500=0.081
,148.000=0.122
,148.750=0.122
,149.500=0.122
,150.250=0.122
,151.000=0.081
,151.500=0.081
,152.000=0.122
,152.750=0.122
,153.500=0.122
,154.250=0.122
,155.000=0.081
,155.500=0.081
,208.000=0.040
,208.250=0.041
,208.500=0.040
,208.750=0.041
,209.000=0.040
,209.250=0.041
,209.500=0.040
,209.750=0.041
,210.000=0.040
,210.250=0.041
,210.500=0.040
,210.750=0.041
,211.000=0.041
,211.250=0.040
,211.500=0.041
,211.750=0.040
,222.000=0.649
,364.000=0.122
,364.750=0.122
,365.500=0.122
,366.250=0.122
,367.000=0.081
,367.500=0.081
,384.000=0.122
,384.750=0.122
,385.500=0.122
,386.250=0.122
,387.000=0.081
,387.500=0.081
,388.000=0.122
,388.750=0.122
,389.500=0.122
,390.250=0.122
,391.000=0.081
,391.500=0.081
;
#DISPLAYBPM:92.000:185.000;
#BGCHANGES:;
#FGCHANGES:;

//--------------- dance-single - TiKAL ----------------
#NOTES:
     dance-single:
     TiKAL:
     Hard:
     10:
     0.642,0.703,0.414,0.34,0.211:
0000
0000
0000
0000
,
0000
0000
0000
0000
,
0000
0000
0000
0000
,
0000
0000
0000
0000
,
1001
0000
0001
0000
,
1000
0000
0010
0000
,
0100
0000
0001
0000
,
2000
0000
0000
0000
0002
0000
0000
3003
,
0110
0000
0000
1001
0000
0000
0000
0000
,
1000
0100
0010
0001
,
1001
0000
0000
0110
0000
1001
0000
0000
,
1000
0001
0100
0010
1000
0001
0010
0100
,
1000
0000
0000
1100
0000
1001
0000
0000
,
0001
0100
0000
0101
0000
1001
0000
0000
,
0001
0010
0100
1000
0001
0100
0010
1000
,
0001
0000
0010
0000
0100
0000
1000
0000
0001
0000
0000
1000
0000
0000
0001
0000
,
1001
0000
1100
0000
0010
0001
0100
0000
,
1010
0000
0000
0000
0010
0000
1000
0000
0001
0000
0010
0000
0100
1000
0100
1000
,
0100
0000
0000
0000
0010
0001
0010
0001
0010
0000
0000
0000
0001
0000
0000
0000
,
1000
0010
0100
0001
0100
0010
1000
0000
,
1001
0000
0000
0000
0001
0000
0000
0000
1000
0100
1000
0100
1000
0001
0000
0001
,
0100
0000
0110
0000
0010
1000
0001
0000
,
1100
0000
0000
0000
1000
0001
0000
1000
0001
0000
0000
0000
0100
0000
0000
0000
,
0010
1000
0001
0010
0000
0100
1000
1001
,
0000
0000
0000
0000
0002
0000
0000
0003
1001
0000
0000
0000
0110
0000
0000
0000
,
1000
0000
0000
0000
0001
1000
0001
1000
0100
0010
0100
0010
0001
0000
0000
0000
,
1001
0000
0000
0000
0001
0100
0001
0100
0010
0000
1000
0000
0001
0000
0000
0000
,
1000
0000
0100
1000
0100
1000
0001
0000
0100
0001
1000
0000
0001
0000
0000
0000
,
0110
0000
0000
0000
1001
0000
0000
1000
0000
0000
0100
0000
0010
0000
0001
0000
,
1001
0000
0000
0000
1000
0000
0000
0010
0000
0000
0100
0000
0001
0000
1000
0000
,
1001
0000
0001
0010
0110
0000
0100
1000
,
0001
0100
0010
1000
0001
1000
0100
0010
,
0001
0000
0000
0101
0000
0010
1010
0000
,
0000
0000
1001
0000
0000
0000
0000
0000
1100
0000
0000
0110
0000
0000
0011
0000
,
0000
0000
0000
0000
1001
0000
0000
1000
0001
0000
0000
0101
0000
0000
1100
0000
,
0000
0000
1000
0001
1000
0000
0000
0000
0001
0000
0100
0000
0010
0000
1000
0000
,
0000
0000
0000
0000
1001
0000
0000
0000
0110
0000
0000
0000
1000
0001
1000
0000
,
0001
0000
0000
0010
0000
0000
0100
0000
0000
1000
0000
0000
1001
0000
0001
0000
,
1000
0000
0000
0010
0000
0000
0100
0000
0000
0001
0000
0000
1001
0000
0001
0000
,
1000
0000
0001
0000
0100
0000
0010
0000
1000
0001
1000
0001
0010
0100
0010
0100
,
1000
0010
0010
0100
,
0001
1000
0100
1000
,
0001
0100
0010
1000
,
0002
0000
0000
1003
0200
0000
0310
0001
,
1000
0001
0010
0100
,
1000
0000
0001
0000
0100
0010
1000
0001
,
0020
0000
0230
0000
,
2300
0000
3002
0000
,
0203
0000
0000
0000
,
0020
0000
0000
0330
,
2002
0000
0000
0000
,
0000
0000
0000
3003
,
1000
0001
0100
0010
1000
0100
0010
0001
,
2000
0000
0000
0000
,
0000
0000
0000
0000
,
0000
0000
3001
0000
,
1100
0000
0001
0000
1000
0010
0100
0001
,
2000
0000
3100
0010
0002
0000
2003
0000
,
3020
0000
0130
0001
1000
0100
0010
0001
,
1000
0000
0000
0001
0000
0000
0100
0000
0000
0010
0000
0000
1000
0000
0001
0000
,
1000
0100
0010
0100
1000
0100
0010
0100
,
0010
0001
0010
0100
0010
0001
0010
0100
,
1000
0001
0100
0010
0100
0001
0100
0010
,
1000
0010
0100
0001
1000
0010
0100
0001
,
2000
0000
3100
0010
0001
1000
0001
0100
,
0020
0000
1030
0001
0020
0000
0230
0000
,
2300
0000
3001
0100
0010
1000
0100
0010
,
0001
0000
0000
1000
0000
0000
0010
0000
0000
0100
0000
0000
0001
0000
1000
0000
,
0001
0010
0100
0010
0001
0010
0100
0010
,
0100
1000
0100
0010
0100
1000
0100
0010
,
0001
1000
0010
0100
0010
1000
0010
0100
,
0001
0100
0010
1000
0001
0100
0010
1000
,
0002
0000
0000
0000
0010
0000
0000
1000
,
0000
0103
0010
0000
,
2000
0000
0000
0000
0100
0000
0000
3001
,
0100
0000
0000
0010
0000
0000
1000
0000
0001
0000
0000
0000
0000
0000
0000
0000
,
2000
0000
0010
0000
,
3001
0000
0000
0010
0000
0000
0100
0000
1000
0000
0000
0000
0000
0000
0000
0000
,
0002
0000
0000
0000
0100
0000
0000
1000
,
0000
0013
0100
1000
,
0002
0000
0203
0000
0310
1000
0001
0010
,
0200
2300
3002
0203
,
0320
0000
2030
3200
,
0320
0000
0000
0032
0000
0000
1003
0000
2002
0000
0000
0000
0000
0000
3003
0000
,
0110
0000
0000
1000
0000
0000
0001
0000
0000
0010
0000
0000
0100
0000
1000
0000
,
0001
0100
0010
1000
0100
0010
0001
1000
,
0010
0000
0000
0100
0000
0000
0001
0000
0000
1000
0000
0000
0100
0000
0010
0000
,
0002
0000
0000
1003
0001
0100
0010
1000
,
0001
0010
0100
0010
0001
1000
0001
0100
,
0010
1000
0010
0100
0001
1000
0001
0010
,
0100
1000
0001
1000
0010
0100
0001
1000
,
1001
0000
0000
0110
0000
0000
1001
0000
0000
0110
0000
0000
1001
0000
0000
0000
,
0220
0000
0000
0000
0330
0000
0001
0000
1000
0000
0000
0100
0000
0000
0010
0000
,
0001
0000
0000
1000
0000
0000
0010
0000
0010
0000
0000
0100
0000
0000
0001
0000
,
2001
0000
0000
0000
0000
0000
3100
0010
0001
0000
1000
0000
0010
0000
0100
0000
,
0001
0000
0000
0010
0000
0000
0100
0000
2000
0000
0000
0000
3001
0000
1000
0000
,
0001
0000
0000
0100
0000
0000
0101
0000
0000
1001
0000
0000
1100
0000
0000
0000
,
1000
0000
0000
0010
0000
0000
1010
0000
0000
1001
0000
0000
0011
0000
0000
0000
,
0001
0010
0100
1000
0001
0100
0010
1000
,
0002
0000
0000
0003
,
1001
0000
0000
0000
;

//--------------- dance-single - TiKAL ----------------
#NOTES:
     dance-single:
     TiKAL:
     Challenge:
     13:
     1,1,0.555,0.644,1:
0000
0000
0000
0000
,
0000
0000
0000
0000
,
0000
0000
0000
0000
,
0000
0000
0000
0000
,
1001
0000
0000
0000
0110
0000
0000
0000
0001
1000
0001
0000
0001
0000
0000
0000
,
1000
0000
0000
0000
0010
0000
0000
0000
0100
0000
0000
0000
0001
0000
1000
0001
,
0100
0010
1000
0000
0001
0010
0100
0000
,
1000
0100
0010
0001
1000
0010
0100
0001
1000
0100
0010
0001
,
2000
3000
0000
0000
0000
0000
0000
0000
0000
0000
0000
0000
0000
0000
0000
0000
0000
0000
0000
0000
0000
0000
0000
0000
2002
0000
0000
0000
0000
0000
0000
0000
0000
0000
0000
0000
0000
0000
0000
0000
0000
0000
0000
0000
0000
0000
0000
0000
3003
0000
0000
0000
0000
0000
0000
0000
0000
0000
0000
0000
0000
0000
0000
0000
,
0001
0000
0100
0000
0010
0000
1000
0001
0010
0001
0100
0010
1000
0100
0010
0001
,
2000
3000
0000
0000
0000
0000
0000
0000
0000
0000
0000
0000
0000
0000
0000
0000
0000
0000
0000
0000
0000
0000
0000
0000
2200
3300
0000
0000
0000
0000
0000
0000
0000
0000
0000
0000
0000
0000
0000
0000
0202
0000
0000
0000
0000
0000
0000
0000
0000
0000
0000
0000
0000
0000
0000
0000
0303
0000
0000
0000
0000
0000
0000
0000
,
0001
1000
0001
1000
0010
0100
0010
0100
0001
1000
0001
0010
0100
1000
0001
0100
,
0020
0030
0000
0000
0000
0000
0000
0000
0000
0000
0000
0000
0000
0000
0000
0000
0000
0000
0000
0000
0000
0000
0000
0000
2020
3030
0000
0000
0000
0000
0000
0000
0000
0000
0000
0000
0000
0000
0000
0000
0022
0000
0000
0000
0000
0000
0000
0000
0033
0000
0000
0000
0000
0000
0000
0000
0000
0000
0000
0000
0000
0000
0000
0000
,
1001
0000
0000
0000
0000
0000
0000
0000
0000
0000
0000
0000
0000
0000
0000
0000
0000
0000
0000
0000
0000
0000
0000
0000
2002
0000
0000
3003
0000
0000
0000
0000
0000
0000
0000
0000
0000
0000
0000
0000
0000
0000
0000
0000
0000
0000
0000
0000
0000
0000
0000
0000
0000
0000
0000
0000
0000
0000
0000
0000
0000
0000
0000
0000
0000
0000
0000
0000
0000
0000
0000
0000
2200
0000
0000
0000
3300
0000
0000
0000
0000
0000
0000
0000
0000
0000
0000
0000
0000
0000
0000
0000
0000
0000
0000
0000
0000
0000
0000
0000
0000
0000
0000
0000
0000
0000
0000
0000
0000
0000
0000
0000
0000
0000
0000
0000
0000
0000
0000
0000
0202
0000
0000
0000
0000
0000
0000
0000
0000
0000
0000
0000
0000
0000
0000
0000
0000
0000
0000
0000
0000
0000
0000
0000
0303
0000
0000
0000
0000
0000
0000
0000
0000
0000
0000
0000
0000
0000
0000
0000
0000
0000
0000
0000
0000
0000
0000
0000
0000
0000
0000
0000
0000
0000
0000
0000
0000
0000
0000
0000
0000
0000
0000
0000
0000
0000
0000
0000
0000
0000
0000
0000
,
0001
0010
0100
1000
0001
0100
0010
1000
0001
0010
0100
0010
0001
1000
0100
0010
,
0001
1000
0010
0100
0010
1000
0001
0100
0010
0000
0000
1010
0000
0000
0011
0000
,
2002
0000
0000
3003
1000
0100
0010
0001
1000
0001
0010
0100
0010
0001
1000
0010
,
0100
0001
0100
0010
1000
0001
0010
0100
0010
0100
1000
0001
0100
0010
0100
0010
,
2000
0000
0000
0000
3001
1000
0001
0010
0100
1000
0001
0010
0001
1000
0001
0100
,
0010
0100
0001
1000
0100
0010
0001
1000
0010
0100
0010
0100
0002
0000
0000
0003
,
2002
0000
0000
3003
1000
0100
0010
0100
0001
0100
0010
0100
1000
0001
0100
0010
,
0100
1000
0100
0010
0100
0001
1000
0100
0010
0001
1000
0001
0100
0010
1000
0001
,
2000
0000
0000
0000
3100
1000
0100
0010
0001
1000
0010
0100
0001
0100
0010
1000
,
0001
0000
0000
0000
0000
0000
0000
0000
1001
0000
0000
0000
0000
0000
0000
0000
1000
0000
0000
0000
0000
0000
0000
0000
2020
3030
0000
0000
0000
0000
0000
0000
0000
0000
0000
0000
0000
0000
0000
0000
0101
0000
0000
0000
0000
0000
0000
0000
0001
0000
0000
0000
0000
0000
0000
0000
0022
0000
0000
0000
0000
0000
0000
0000
,
0033
0000
0000
0000
0000
0000
0000
0000
0000
0000
0000
0000
1000
0000
0100
0000
0010
0000
0001
0000
0010
0000
0100
0000
2000
0000
0000
0000
0000
0000
3001
0000
0000
0100
0000
0000
0010
0000
0000
1000
0000
0000
0001
0000
0000
0010
0000
0000
,
0100
0010
0001
1000
0010
0100
0010
0100
0001
1000
0001
1000
0100
0010
0001
1000
,
0002
0000
0000
0000
1003
0001
0100
0010
1000
0001
0010
0100
0010
0001
1000
0010
,
0100
0010
1000
0010
0100
0001
1000
0001
0010
0100
0010
0001
2000
0000
0000
3000
,
0220
0000
0000
0330
0001
1000
0100
0010
0001
1000
0010
0100
0010
1000
0001
0010
,
0100
1000
0001
0100
0010
1000
0001
0010
0001
1000
0100
1000
0001
0100
0010
1000
,
0001
1000
0100
0010
0001
1000
0010
0100
0001
0100
0010
1000
0001
0010
0100
1000
,
0001
0010
0001
1000
0010
1000
0001
0100
0001
1000
0100
1000
0001
0100
0010
1000
,
0001
0000
0000
1001
0000
1010
0101
0000
,
0000
0000
0011
0000
0000
0000
0000
0000
1100
0000
0000
1001
0000
0000
0101
0000
,
0000
0000
0000
0000
0000
0000
0000
0000
0110
0000
0000
0000
0000
0000
0010
1000
0001
0000
0000
0000
0000
0000
1100
0000
0000
0000
0000
0000
0011
0000
0000
0000
,
0000
0000
1000
0001
1000
0000
0000
0000
0101
0000
1010
0000
0011
0000
1100
0000
,
0000
0000
0000
0000
1001
0000
0000
0000
0110
0000
0000
0000
1000
0001
1000
0000
,
1100
0000
0000
0011
0000
0000
1010
0000
0000
0101
0000
0000
0110
0000
1001
0000
,
0101
0000
0000
1010
0000
0000
0011
0000
0000
1100
0000
0000
0110
0000
1001
0000
,
0001
0010
0100
1000
0001
0100
0010
1000
0001
1000
0001
1000
0100
0010
0100
0010
,
0001
0000
0000
1000
0000
0000
0010
0000
0000
0100
0001
0100
,
0001
0000
0000
1000
0000
0000
0100
0000
0000
0010
0001
0010
,
0001
0000
0000
1000
0010
1000
0010
0000
0000
0100
0001
0100
,
0002
0000
0000
0000
0003
0000
1000
0100
1000
0000
0000
0000
0001
0000
0100
0000
,
0010
0000
0000
0000
0000
0000
0000
0000
0000
0000
0000
0000
1000
0000
0000
0000
0000
0000
0001
0000
0000
1000
0000
0000
0001
0000
0000
0000
0000
0000
0000
0000
0000
0000
0000
0000
0010
0000
0000
0000
0100
0000
0000
0000
0010
0000
0000
0000
,
0100
0000
0000
0000
1000
0000
0000
0000
0001
0100
0010
1000
0001
0010
0100
1000
,
0002
0000
2000
0003
,
0020
3000
0200
0330
,
2002
0000
0000
0003
,
0200
0000
0000
3300
,
0220
0000
0000
0000
,
0000
0000
0000
0330
,
1000
0100
1000
0100
0010
0001
0010
0001
1000
0010
1000
0010
0100
0001
0100
0001
,
2000
0000
0000
0000
,
0000
0000
0000
0000
,
0000
0000
0002
3003
,
1200
0000
0000
0000
0310
0000
0000
0010
0001
1000
0001
0100
0010
1000
0001
0010
,
0200
0000
0000
0000
1300
0000
0001
1000
0020
0000
0130
0000
0002
0000
0000
0000
,
2003
0000
0000
0000
3100
0000
0010
0001
1000
0010
1000
0001
0010
0001
1000
0100
,
0020
0000
0000
0032
0000
0000
2003
0000
0000
3020
0000
0000
0130
0001
1000
0100
,
1000
0001
0100
0010
1000
0001
0010
0100
1000
0000
0001
0100
0010
1000
0010
0100
,
0001
1000
0100
0010
0001
0010
0100
1000
0001
0000
1000
0001
0100
0010
1000
0001
,
0010
0100
1000
0100
0010
0001
1000
0010
0100
0001
0100
0010
1000
0001
1000
0100
,
0010
0001
1000
0001
0010
0100
1000
0001
1000
0010
0100
0001
0100
0010
1000
0001
,
0020
0000
0000
0000
0130
0000
0000
0100
1000
0001
1000
0010
0100
0001
1000
0100
,
0020
0000
0000
0000
0031
0000
1000
0001
0200
0000
0310
0000
2000
0000
0000
0000
,
3002
0000
0000
0000
0013
0000
0100
1000
0001
0100
0001
1000
0100
1000
0001
0010
,
0200
0000
0000
2300
0000
0000
3002
0000
0000
0203
0000
0000
0310
1000
0001
0010
,
0001
1000
0010
0100
0001
1000
0100
0010
0001
0000
1000
0010
0100
0001
0100
0010
,
1000
0001
0010
0100
1000
0100
0010
0001
1000
0000
0001
1000
0010
0100
0001
1000
,
0100
0010
0001
0010
0100
1000
0001
0100
0010
1000
0010
0100
0001
1000
0001
0010
,
0100
1000
0001
1000
0100
0010
0001
1000
0001
0100
0010
1000
0010
0100
0001
1000
,
0200
0000
0000
0000
0010
0000
0000
1300
,
0000
0000
0000
0001
0000
0000
0100
0000
0110
0000
0000
0000
0000
0000
0000
0000
,
2000
0000
0000
0000
0000
0000
3001
1000
0200
0000
0000
0000
0000
0310
0100
0010
,
0001
0000
0000
0001
0000
0000
1000
0000
1001
0000
0000
0000
0000
0000
0000
0000
,
2000
0000
0000
0000
0000
0000
0000
0000
0000
0000
0000
0000
0000
0000
0000
0000
0010
0000
0000
0000
0000
0000
0000
0000
0000
0000
0000
0000
0000
0000
3001
1000
,
0001
0000
0000
0010
0100
1000
0001
0000
1001
0000
0000
0000
0000
0000
0000
0000
,
0002
0000
0000
0000
0000
0000
0000
0000
0100
0000
0000
0000
0000
1003
0001
1000
,
0000
0100
0010
0001
1000
0010
0100
0001
1000
0010
1000
0001
0010
0001
1000
0100
,
0020
0000
0000
0000
0000
0000
0031
0000
1000
0000
1000
0010
0100
0000
0001
0000
,
0002
2003
3200
0320
,
0032
0000
2003
3020
,
0230
0000
0000
0302
0000
0000
1003
0000
2002
0000
0000
0000
0000
0000
3003
0000
,
10M0
0000
0000
1000
0001
0000
0001
0000
0100
0010
0000
0000
0100
0010
1000
0000
,
0001
1000
0001
0010
0100
1000
0001
1000
0010
0100
0001
1000
0100
0010
0100
1000
,
0001
0000
0000
0001
1000
0000
1000
0000
0100
0010
0000
0000
0010
0001
1000
0000
,
0002
0000
0000
0000
1000
0000
0103
0010
1000
0001
1000
0100
0010
0001
1000
0001
,
0100
0010
0100
0001
1000
0001
0010
0100
0010
0001
1000
0001
1000
0100
0010
0001
,
1000
0001
1000
0100
0010
0100
1000
0001
1000
0010
0100
0010
1000
0001
0100
0010
,
1000
0100
0010
0001
0010
0100
1000
0010
0100
0001
0100
0010
4000
0000
0000
3000
,
1010
0000
0000
1001
0000
0000
0011
0000
0000
1001
0000
0000
0110
0000
1001
0000
,
0102
0000
0000
0000
1003
0000
0100
0010
0001
0000
0000
0100
0010
0000
1000
0000
,
0001
0000
0000
0010
0001
0000
1000
0000
0010
0000
0000
0010
0100
0000
0001
0000
,
2001
0000
0000
0000
3100
0000
0010
0001
1000
0000
0010
0100
0001
1000
0100
0010
,
0001
0000
0000
1000
0000
0000
0010
0000
0200
0000
0000
0000
0301
0010
0100
1000
,
0001
0000
0000
0101
0000
0000
1100
0000
0000
1010
0000
0000
0011
0000
1001
0000
,
1100
0000
0000
0101
0000
0000
0011
0000
0000
1010
0000
0000
1100
0000
1001
0000
,
0001
0100
0010
1000
0001
0010
0100
1000
0100
0010
0001
1000
0010
0100
0001
1000
,
0200
0000
0000
0000
0000
0000
0000
0300
,
0110
0000
0000
0000
;
